#TITLE:Jam & Marmalade;
#SUBTITLE:;
#ARTIST:FinalOffset;
#TITLETRANSLIT:;
#SUBTITLETRANSLIT:;
#ARTISTTRANSLIT:;
#GENRE:;
#CREDIT:;
#BANNER:Jam & Marmalade.png;
#BACKGROUND:Jam & Marmalade-bg.png;
#LYRICSPATH:;
#CDTITLE:./CDTITLES/BEATMANIA III.PNG;
#MUSIC:Jam & Marmalade.ogg;
#OFFSET:0.000;
#SAMPLESTART:16.911;
#SAMPLELENGTH:15.000;
#SELECTABLE:YES;
#DISPLAYBPM:145.000;
#BPMS:0.000=119.601
,4.000=144.998
;
#STOPS:
;
#BGCHANGES:;
#KEYSOUNDS:;
#ATTACKS:;

//---------------dance-single - ----------------
#NOTES:
     dance-single:
     :
     Beginner:
     3:
     0.179,0.169,0.013,0.000,0.000,92.000,1.000,0.000,0.000,0.000,0.000,0.179,0.169,0.013,0.000,0.000,92.000,1.000,0.000,0.000,0.000,0.000:
0000
0000
0000
0000
,
0000
0000
0000
0000
,
1000
0000
0001
0000
,
0001
0000
0001
0001
,
0001
0000
1000
0000
,
1000
0000
1000
1000
,
1000
0000
0001
0000
,
0001
0000
0001
0001
,
0001
0000
1000
0000
,
1000
1000
1000
1000
,
0000
0001
0000
1000
,
0000
0001
0000
0001
,
0000
1000
0000
0001
,
0000
0000
1000
1000
,
0000
0001
0000
1000
,
0000
0001
0000
0001
,
0000
1000
0000
0001
,
0000
1000
0000
0000
,
0000
1000
1000
0000
,
0000
0100
0100
0000
,
0000
1000
1000
0000
,
0000
0001
0001
0001
,
0000
0001
0001
0000
,
0000
0100
0100
0000
,
0000
0001
0001
0000
,
0000
1000
1000
1000
,
1000
0000
0010
0000
,
0010
0000
0010
0000
,
0010
0000
0010
0000
,
0010
0000
0010
0000
,
1000
1000
1000
0000
,
1000
1000
1000
0000
,
1000
0000
0001
0000
,
1001
0000
0000
0000
,
1000
0000
0001
0000
,
0001
0000
0001
0001
,
0001
0000
1000
0000
,
1000
0000
1000
1000
,
1000
0000
0001
0000
,
0001
0000
0001
0001
,
0001
0000
1000
0000
,
1000
1000
1000
1000
,
0000
0000
0000
0000
;

//---------------dance-single - ----------------
#NOTES:
     dance-single:
     :
     Easy:
     4:
     0.254,0.281,0.108,0.202,0.000,109.000,8.000,15.000,0.000,0.000,0.000,0.254,0.281,0.108,0.202,0.000,109.000,8.000,15.000,0.000,0.000,0.000:
0000
0000
0000
0000
,
0000
0000
0000
0000
,
0000
0000
0000
0000
,
0000
0000
0000
0000
,
0001
0000
0000
0000
,
1000
0000
0000
0000
,
0110
0000
0000
0000
,
1001
0000
0000
0000
,
0110
0000
0001
0000
,
0010
0001
1000
0100
,
0010
0000
0001
0000
,
1000
0001
0100
0000
,
0100
0000
0001
0000
,
0001
1000
0010
0001
,
0010
0010
1000
0001
,
0100
0100
0001
1000
,
0010
0100
0001
1000
,
0100
0010
0001
1000
,
0002
0003
0100
0000
,
2000
3000
0100
0000
,
0020
0030
0200
0300
,
0001
0000
1000
0001
,
2000
3000
0200
0300
,
0020
0030
0002
0003
,
2000
3000
0002
0003
,
0200
0000
0000
0300
,
0110
0000
1001
0000
,
0010
0000
0100
0000
,
0001
1000
0100
0100
,
0010
0001
1000
1000
,
0200
0300
0100
0010
,
0002
0003
0001
1000
,
0200
0300
0100
1000
,
0002
0003
1001
1001
,
0010
0100
0001
1000
,
0100
0010
0001
1000
,
0010
1000
0100
0010
,
0001
1000
0010
0010
,
0100
0001
0010
0100
,
1000
0001
0100
0100
,
0010
1000
0100
0010
,
0001
1000
0001
1001
,
0000
0000
0000
0000
;

//---------------dance-single - ----------------
#NOTES:
     dance-single:
     :
     Medium:
     8:
     0.420,0.452,0.418,0.108,0.000,179.000,31.000,8.000,0.000,0.000,0.000,0.420,0.452,0.418,0.108,0.000,179.000,31.000,8.000,0.000,0.000,0.000:
0000
0000
0000
0000
,
0000
0000
0000
0000
,
0000
0000
0000
0000
,
0000
0000
0000
0000
,
0010
1000
0100
0010
,
0001
1000
0110
1001
,
2000
3000
0020
0030
,
0200
0300
0002
0003
,
0001
0100
0010
0110
,
0100
0010
1000
0001
,
0100
0002
0000
0003
0010
2000
0000
3000
,
0010
0002
0000
0003
0001
2000
0000
3000
,
0010
0001
1000
0100
,
0010
0001
1000
0000
1010
0000
0101
0000
,
0011
1000
1010
0001
,
0100
0010
1000
0000
0100
0010
0001
0000
,
0100
0010
1000
0100
,
0010
0001
1000
0010
0100
0001
1000
0001
,
0010
0101
0010
1100
,
0010
1001
0100
1001
,
0010
0100
0001
0010
,
1000
0001
1100
0101
,
0110
0001
1001
0100
,
0010
0100
0010
1000
0100
0010
0001
0000
,
1000
0001
0100
0000
0010
1000
0100
0000
,
0010
0001
0010
1000
,
0010
0010
0010
0000
0100
0100
0100
0000
,
0001
0001
1000
1000
,
0001
0100
1000
0000
0010
0100
0001
0000
,
0100
1000
0010
0000
0100
0001
0010
0000
,
0001
1000
0100
0000
0010
0001
0100
0000
,
0010
0010
1000
0000
0100
0100
0001
0000
,
0100
0010
1000
0000
0100
0010
0001
0000
,
1000
0001
0100
0000
0110
0000
1001
0000
,
0011
0011
1100
1100
,
0010
0110
1000
1001
,
0100
0010
1000
0001
,
0010
0100
0001
0100
,
1010
0110
1001
1100
,
0011
0101
0110
1100
,
0010
0001
1000
0000
0010
0100
0010
0000
,
0001
0100
0010
1000
0100
0010
0001
1000
,
0000
0000
0000
0000
;

//---------------dance-single - ----------------
#NOTES:
     dance-single:
     :
     Hard:
     11:
     0.516,0.480,0.553,0.202,0.081,212.000,41.000,15.000,0.000,0.000,0.000,0.516,0.480,0.553,0.202,0.081,212.000,41.000,15.000,0.000,0.000,0.000:
0000
0000
0000
0000
,
0000
0000
0000
0000
,
0000
0000
0000
0000
,
0000
0000
0000
0000
,
0010
1000
0001
0000
0010
0001
1000
0000
,
0001
0100
0010
0000
1000
0100
0010
0000
,
0101
0000
0010
0000
1000
0100
0001
0000
,
1001
0000
0100
0000
0001
0100
1000
0000
,
0011
1000
0110
0001
,
0011
0011
1100
1100
,
0001
1000
0001
0100
0000
1000
0100
0000
,
1000
0001
1000
0100
0010
0001
0100
0000
,
0010
0100
0000
0001
1000
0010
0001
0000
,
0100
0010
0100
1000
0001
0001
1000
0100
,
0010
0001
1000
0010
1000
0000
0100
0000
,
0010
0010
0001
0000
0110
0000
1100
0000
,
0010
0010
1000
0001
0100
0010
1000
0000
,
0100
0010
0001
0100
0010
1000
0100
0000
,
0011
0100
1001
0100
,
0010
1100
0001
0110
,
1001
1100
0110
1010
,
0001
1000
0100
0010
1001
0000
0110
0000
,
0220
0000
0000
0000
0330
0000
0000
0000
1000
0000
0001
0000
0001
0100
0000
0000
,
2020
0000
0000
0000
3030
0000
0000
0000
0001
0000
1000
0000
0001
0100
0000
0000
,
0020
0130
0002
1003
,
0200
0310
0002
1003
,
0001
0101
0000
0010
0000
1001
0000
0100
,
0000
0110
0000
0001
0001
1000
0100
0010
,
0000
0002
1000
0003
0000
0020
0100
0030
,
0000
0002
0100
0003
0000
0020
1000
0030
,
0001
0000
0100
0010
0100
0000
0000
0000
0101
0000
0000
0000
0110
0000
0000
0000
,
0010
0000
0100
0010
1000
0000
0000
0000
1010
0000
0000
0000
1001
0000
0000
0000
,
0001
0000
0100
0001
0100
0000
0000
0000
0010
0000
1000
0100
1000
0000
0000
0000
,
0001
0000
1000
0100
1000
0000
0000
0000
1100
0000
0000
0000
0101
0000
0000
0000
,
0110
0000
0000
0000
0110
0000
0000
0000
1000
0000
0001
0000
1000
0001
0100
0000
,
0010
0000
0000
0000
0101
0000
0000
0000
0100
0000
0010
0000
0100
0001
0100
0000
,
0000
0000
0000
0000
1001
0000
0000
0000
0100
0000
0001
0000
0100
0010
1000
0000
,
0002
1003
0110
1001
,
1010
0000
0000
0000
1100
0000
0000
0000
0100
0000
1000
0000
0001
1000
0000
0000
,
1001
0000
0000
0000
1001
0000
0000
0000
0010
0000
1000
0000
0100
1000
0001
0000
,
2000
3100
0020
0031
,
0100
0010
1000
0100
0010
0001
0100
0010
,
0000
0000
0000
0000
;

//---------------dance-double - ----------------
#NOTES:
     dance-double:
     :
     Easy:
     5:
     0.252,0.283,0.121,0.094,0.000,115.000,9.000,7.000,0.000,0.000,0.000,0.252,0.283,0.121,0.094,0.000,115.000,9.000,7.000,0.000,0.000,0.000:
00000000
00000000
00000000
00000000
,
00000000
00000000
00000000
00000000
,
00000000
00000000
00000000
00000000
,
00000000
00000000
00000000
00000000
,
00010000
00000000
01000000
00000000
,
00100000
00000000
10000000
00000000
,
01000000
00000000
00010000
00000000
,
00001000
00000000
00000010
00000000
,
00000001
00000001
00001000
00001000
,
00000100
00000010
00000001
00001000
,
00001001
00000000
00000100
00000000
,
00000010
00000001
00000100
00001000
,
00010000
00000000
00100000
00000000
,
10000000
00010000
01000000
01000000
,
10010000
00000000
01000000
00000000
,
00010000
00000000
00001000
00000000
,
00000010
00000000
00000001
00000000
,
00001000
00000000
00000010
00000100
,
00000001
00000000
00000010
00000100
,
00001000
00000000
00000001
00000100
,
00001000
00000000
00010000
01000000
,
10000000
00000000
10010000
10010000
,
00100000
01000000
00010000
00100000
,
01000000
10000000
10000000
00010000
,
01000000
00100000
10000000
01000000
,
00010000
00001000
01000000
00100000
,
20020000
30030000
02000000
03000000
,
00020000
00030000
00002000
00003000
,
00000020
00000030
00000200
00000300
,
00001000
00000001
00001000
00000000
,
00000100
00001001
00000000
00000100
,
00000010
00001001
00000000
00000100
,
00000010
00000001
00000100
00001000
,
00010000
01000000
10000000
00010000
,
01100000
00000000
00010000
10000000
,
01000000
00000000
10000000
00010000
,
01000000
00000000
00100000
10000000
,
00010000
00000000
00100000
01000000
,
10000000
00000000
00010000
10000000
,
00100000
00000000
00010000
00001000
,
00000010
00000001
00000100
00000010
,
00001000
00100000
10000000
01000000
,
10010000
00000000
00000000
00000000
,
00000000
00000000
00000000
00000000
;

//---------------dance-double - ----------------
#NOTES:
     dance-double:
     :
     Medium:
     8:
     0.391,0.395,0.324,0.081,0.000,173.000,24.000,6.000,0.000,0.000,0.000,0.391,0.395,0.324,0.081,0.000,173.000,24.000,6.000,0.000,0.000,0.000:
00000000
00000000
00000000
00000000
,
00000000
00000000
00000000
00000000
,
00000000
00000000
00000000
00000000
,
00000000
00000000
00000000
00000000
,
00000001
00001000
00000100
00000010
,
00000001
00000100
00001000
00010000
,
01000000
10000000
00100000
01000000
,
00010000
10000000
01000000
00100000
,
00010000
10000000
01000000
00000000
00100000
00010000
10000000
00000000
,
01000000
00010000
00001000
00000100
,
00000001
00000010
00001000
00010000
,
00100000
00000000
10000000
00000000
00010000
00100000
01000000
00000000
,
10000000
01010000
10000000
01010000
,
00100000
00010000
00001000
00000010
,
00000001
00001100
00000001
00001100
,
00000010
00001000
00010000
00100000
,
10000000
00010000
01000000
00000000
00010000
10000000
01000000
00000000
,
00100000
00010000
10000000
00000000
01100000
00000000
10010000
00000000
,
02000000
03100000
20000000
30100000
,
00020000
01030000
00011000
00001010
,
00000002
00000103
00002000
00003100
,
00000020
00000130
00001100
00011000
,
00100000
10000000
00010000
00000000
00100000
00010000
10000000
00000000
,
01000000
00100000
00001000
00000000
00010000
00000100
00000010
00000000
,
00000001
00001000
00000100
00000010
,
00000001
00000100
00001010
00000011
,
00001001
00000010
00001000
00010000
,
01100000
00010000
10000000
01000000
,
00110000
01000000
00010000
00000010
,
00001001
00000010
00000100
00000001
,
00001000
00000100
00000010
00000000
00000101
00000000
00001100
00000000
,
00000010
00000100
00001000
00000000
01010000
00000000
01100000
00000000
,
00010000
10000000
01000000
00000000
00100000
00000000
01010000
00000000
,
00100000
10000000
01000000
00000000
00011000
00000000
00001010
00000000
,
00000000
00000010
00000100
00000000
00000001
00000000
00001000
00000000
,
00000000
00000100
00000010
00000000
00000001
00000000
00000100
00000000
,
00000000
00001000
00010000
00000000
01000000
00000000
10000000
00000000
,
00000000
00100000
01000000
00000000
00010000
00000000
00100000
00000000
,
01000000
10000000
00100000
00000000
00010000
00000000
00001000
00000000
,
00000010
00000001
00000100
00000000
00000010
00001000
00000100
00000000
,
00000001
00000100
00001000
00000000
00010000
01000000
10000000
00000000
,
00100000
00000000
10010000
00000000
01000000
00100000
10000000
01000000
,
00000000
00000000
00000000
00000000
;

//---------------dance-double - ----------------
#NOTES:
     dance-double:
     :
     Hard:
     10:
     0.441,0.423,0.310,0.013,0.054,205.000,23.000,1.000,0.000,0.000,0.000,0.441,0.423,0.310,0.013,0.054,205.000,23.000,1.000,0.000,0.000,0.000:
00000000
00000000
00000000
00000000
,
00000000
00000000
00000000
00000000
,
00000000
00000000
00000000
00000000
,
00000000
00000000
00000000
00000000
,
00100000
00000000
01000000
00000000
00010000
10000000
01000000
00000000
,
00100000
00010000
01000000
00000000
00101000
00000000
00011000
00000000
,
00000010
00000000
00000100
00000000
00001000
00000001
00000100
00000000
,
00000010
00001000
00000100
00000000
00010010
00000000
00011000
00000000
,
01000000
10010000
00100000
10010000
,
01100000
00010000
01100000
10000000
,
00100000
01000000
00010000
00000000
00100000
00000000
01000000
00000000
,
10000000
00010000
01000000
00000000
10100000
00000000
01010000
00000000
,
00100000
00010000
00001000
00000000
00000010
00000000
00000100
00000000
,
00001000
00000001
00000100
00000000
00000010
00001000
00000001
00000010
,
00000100
00000000
00001000
00000000
00000001
00000010
00001000
00000000
,
00010000
00000000
00100000
00000000
10000000
00010000
01000000
00000000
,
00010000
00100000
01000000
10000000
,
00010000
01010000
10000000
11000000
,
00100000
00010000
01000000
00000000
00100000
10000000
01000000
00000000
,
00010000
00001000
00000100
00000000
00000010
00001000
00000100
00000000
,
00000010
00000001
00000100
00000000
00000001
00001000
00000100
00000000
,
00000010
00000001
00001000
00000000
00000210
00000000
00000301
00000000
,
00000010
00000100
00001000
00000000
00000001
00000100
00001000
00000000
,
00010000
01000000
10000000
00000000
00100000
01000000
00010000
00000000
,
10000000
00100000
10000000
01000000
00010000
00001000
00000100
00000001
,
00000010
00000001
00001000
00000010
00000100
00001000
00010000
00000000
,
01000000
10000000
00010000
00000000
00100000
01000000
10000000
00000000
,
00100000
01000000
00010000
00000000
00100000
00000000
00001000
00000000
,
00000010
00000001
00000100
00000000
00000010
00001000
00000100
00000000
,
00000010
00000001
00001000
00000000
00000101
00000000
00001100
00000000
,
00000010
00000001
00001000
00000010
00000001
00000010
00001000
00000000
,
00000001
00000100
00001000
00010000
01000000
10000000
01000000
00000000
,
00100000
00010000
10000000
00000000
01000000
00100000
00010000
00000000
,
10000000
00100000
00010000
00000000
11000000
00000000
01010000
00000000
,
00000000
00000000
10000000
00000000
01000000
00000000
00000000
00000000
00100000
00000000
00000000
00001000
00000000
00000000
00010000
00000000
,
00000000
00000000
00001000
00000000
00000100
00000000
00000000
00000000
00000001
00000000
00000000
00001000
00000000
00000000
00000010
00000000
,
00000000
00000000
00000100
00000000
00000001
00000000
00000000
00000000
00000010
00000000
00000000
00000100
00000000
00000000
00001000
00000000
,
00000000
00000000
00000001
00000000
00000100
00000000
00000000
00000000
00001000
00000000
00000000
00010000
00000000
00000000
01000000
00000000
,
00000000
00000000
10000000
00000000
01000000
00000000
00000000
00000000
00110000
00000000
00000000
10000000
00000000
00000000
00100000
00000000
,
00000000
00000000
01000000
00000000
00010000
00000000
00000000
00000000
10100000
00000000
00000000
01000000
00000000
00000000
00010000
00000000
,
00000000
00000000
00001000
00000000
00010000
00000000
00000000
00000000
00001100
00000000
00000000
00000010
00000000
00000000
00000001
00000000
,
00000000
00000000
00001000
00000000
00000010
00000000
00000000
00000000
00000101
00000000
00000000
00001100
00000000
00000000
00000110
00000000
,
00000000
00000000
00000000
00000000
;

//---------------dance-single - ----------------
#NOTES:
     dance-single:
     :
     Challenge:
     13:
     0.640,0.649,0.580,0.391,0.458,260.000,43.000,29.000,0.000,0.000,0.000,0.640,0.649,0.580,0.391,0.458,260.000,43.000,29.000,0.000,0.000,0.000:
0000
0000
0000
0000
,
0000
0000
0000
0000
,
0000
0000
0000
0000
,
0000
0000
0000
0000
,
0110
1000
0001
0000
0110
0001
1000
0000
,
0110
1000
0001
0110
0000
1000
0101
0000
,
1001
0100
0010
0000
1001
0000
0100
0010
,
1001
0010
0100
1001
0000
0100
0010
0000
,
0011
0100
1000
0000
1010
0100
0001
0000
,
0101
0001
1001
1000
1010
0010
0110
0100
,
0100
2001
3010
1002
,
0013
2001
3010
0110
,
0101
2010
3001
0012
,
1003
0000
2010
0001
3001
0001
0001
0001
,
0001
1200
0301
1020
,
0031
1200
0301
0001
,
0001
2010
3100
0012
,
0103
2010
0100
3100
,
1000
0000
0001
0010
0001
0010
0000
0000
0100
0000
1000
0001
1000
0001
0000
0000
,
0100
0000
0010
1000
0010
1000
0000
0000
0001
0000
0010
0100
0010
0100
0000
0000
,
1000
0000
0010
1000
0010
0100
0000
0000
0001
0000
0010
0100
0010
0001
0000
0000
,
0100
0000
0010
1000
0010
0100
0000
0000
0110
0000
0000
0000
1001
0000
0000
0000
,
1000
0000
0001
0100
0010
1000
0000
0000
0001
0000
1000
0100
0010
0001
0000
0000
,
0100
0000
0010
2000
3100
0010
0000
0000
0100
0000
0010
0001
0100
0010
0000
0000
,
0100
0000
0001
0010
0100
1000
0000
0000
0100
0000
1000
0100
0001
0100
0000
0000
,
1000
0000
0010
0100
0001
0010
0000
0000
0100
0000
0010
0001
0100
1000
0000
0000
,
0200
0000
0001
0000
0000
0001
0000
0000
0000
0000
0010
0000
0000
0310
0000
0000
,
2000
0000
0001
0000
0000
0001
0000
0000
0000
0000
0100
0000
0000
3100
0000
0000
,
0020
0000
0001
0000
0000
0001
0000
0000
0000
0000
0100
0000
0000
0130
0000
0000
,
0002
0000
1000
0000
0000
1000
0000
0000
0000
0000
0010
0000
0000
0013
0000
0000
,
1000
0000
0010
1000
0001
0200
0000
0000
0000
0000
0010
0000
0000
0310
0000
0000
,
1000
0000
0001
0010
0100
2000
0000
0000
0000
0000
0001
0000
0000
3001
0000
0000
,
1000
0000
0100
0001
0100
2000
0000
0000
3001
0000
0100
1000
0100
0002
0000
0000
,
0103
0000
0010
1000
0001
0100
1000
0000
0000
0100
0000
0001
0010
0000
0020
0000
,
0000
0000
0130
0000
0002
0000
0000
0000
0103
0000
1000
0010
0000
0010
0200
0000
,
0000
0000
1300
0000
0200
0000
0000
0000
0301
0000
0010
0100
0000
0100
2000
0000
,
0000
0000
3010
0000
0200
0000
0000
0000
0301
0000
0010
0100
0000
0100
2000
0000
,
0000
0000
3010
0000
0200
0000
0000
0000
0301
0000
0100
1000
0000
0100
0001
0000
,
0000
0000
0110
0000
0110
0000
0000
0000
1100
0000
0010
0001
0000
0100
0001
0000
,
0000
0000
0101
0000
0101
0000
0000
0000
0011
0000
0100
1000
0000
0010
1000
0000
,
0000
0000
0110
0000
0110
0000
0000
0000
1001
0000
0010
1000
0000
0100
1000
0000
,
0000
0000
1100
0000
0011
0000
0000
0000
1100
0000
0001
0100
0000
1000
0100
0000
;

//---------------dance-double - ----------------
#NOTES:
     dance-double:
     :
     Challenge:
     13:
     0.665,0.734,0.580,0.472,0.458,267.000,43.000,35.000,0.000,0.000,0.000,0.665,0.734,0.580,0.472,0.458,267.000,43.000,35.000,0.000,0.000,0.000: // measure 0
00000000
00000000
00000000
00000000
,  // measure 1
00000000
00000000
00000000
00000000
,  // measure 2
00000000
00000000
00000000
00000000
,  // measure 3
00000000
00000000
00000000
00000000
,  // measure 4
01100000
00100000
00010000
00000000
00011000
00001000
00000100
00000000
,  // measure 5
00000011
00000010
00000100
00001100
00000000
00010000
00011000
00000000
,  // measure 6
01010000
01000000
00100000
00000000
10100000
00000000
01000000
00100000
,  // measure 7
10100000
10000000
01000000
00100000
00000000
00010000
00001000
00000000
,  // measure 8
00001100
00000100
00010000
00000000
01010000
01000000
00001000
00000000
,  // measure 9
00011000
00010000
00110000
00100000
10100000
10000000
11000000
01000000
,  // measure 10
00100000
10020000
00130000
00021000
,  // measure 11
00030100
00000021
00000130
00001100
,  // measure 12
00010100
00021000
00130000
10020000
,  // measure 13
00130000
00000000
02010000
00001000
03001000
00001000
00001000
00001000
,  // measure 14
00001000
00010200
00000310
00000201
,  // measure 15
00000310
00021000
00130000
00100000
,  // measure 16
00100000
02010000
03001000
00010200
,  // measure 17
00000310
00000201
00000010
00000310
,  // measure 18
00001000
00000000
00000100
00001000
00000100
00001000
00000000
00000000
00000010
00000000
00010000
00001000
00010000
00001000
00000000
00000000
,  // measure 19
01000000
00000000
00100000
10000000
00100000
10000000
00000000
00000000
00010000
00000000
00100000
01000000
00100000
01000000
00000000
00000000
,  // measure 20
00100000
00000000
00001000
00010000
00001000
00010000
00000000
00000000
00000100
00000000
00000010
00000001
00000010
00000001
00000000
00000000
,  // measure 21
00001000
00000000
00000010
00001000
00000010
00001000
00000000
00000000
00011000
00000000
00000000
00000000
00011000
00000000
00000000
00000000
,  // measure 22
00100000
00000000
00010000
01000000
00100000
01000000
00000000
00000000
00010000
00000000
10000000
01000000
10000000
00010000
00000000
00000000
,  // measure 23
01000000
00000000
00100000
01000000
00010000
01000000
00000000
00000000
00001000
00000000
00100000
00001000
00010000
00001000
00000000
00000000
,  // measure 24
00010000
00000000
00000100
00000010
00000100
00001000
00000000
00000000
00000001
00000000
00000100
00000010
00001000
00000010
00000000
00000000
,  // measure 25
00010000
00000000
00000100
00010000
00001000
00010000
00000000
00000000
01000000
00000000
00100000
00010000
10000000
00010000
00000000
00000000
,  // measure 26
02000000
00000000
00010000
00000000
00000000
03010000
00000000
00000000
00200000
00000000
00001000
00000000
00000000
00301000
00000000
00000000
,  // measure 27
00020000
00000000
00000100
00000000
00000000
00030100
00000000
00000000
00000020
00000000
00000001
00000000
00000000
00000031
00000000
00000000
,  // measure 28
00000200
00000000
00001000
00000000
00000000
00001300
00000000
00000000
00020000
00000000
01000000
00000000
00000000
01030000
00000000
00000000
,  // measure 29
20000000
00000000
00010000
00000000
00000000
30010000
00000000
00000000
00200000
00000000
00001000
00000000
00000000
00301000
00000000
00000000
,  // measure 30
10000000
00000000
00100000
01000000
00100000
02000000
00000000
00000000
03002000
00000000
00010000
00000000
00000000
00013000
00000000
00000000
,  // measure 31
00001000
00000000
00000010
00000100
00000010
00000200
00000000
00000000
00020300
00000000
00001000
00000000
00000000
00031000
00000000
00000000
,  // measure 32
00100000
00000000
00001000
00010000
00001000
00020000
00000000
00000000
00030010
00000000
00010000
00001000
00010000
00002000
00000000
00000000
,  // measure 33
00013000
00000000
00001000
00010000
00001000
00010000
00001000
00000000
00010000
00001000
00000000
00010000
00001000
00000000
00022000
00000000
,  // measure 34
00033000
00000000
00001000
00000000
00000200
00000000
00000000
00000000
00000301
00000000
00000010
00000100
00000000
00001000
00000020
00000000
,  // measure 35
00000000
00000000
00010030
00000000
00200000
00000000
00000000
00000000
10300000
00000000
01000000
00100000
00000000
00010000
02000000
00000000
,  // measure 36
00000000
00000000
03001000
00000000
00000020
00000000
00000000
00000000
00000031
00000000
00000100
00000010
00000000
00001000
00000200
00000000
,  // measure 37
00000000
00000000
00010300
00000000
02000000
00000000
00000000
00000000
13000000
00000000
00100000
01000000
00000000
00010000
00100000
00000000
,  // measure 38
00000000
00000000
01100000
00000000
01100000
00000000
00000000
00000000
11000000
00000000
01000000
00100000
00000000
00001000
00010000
00000000
,  // measure 39
00000000
00000000
00000110
00000000
00000110
00000000
00000000
00000000
00000101
00000000
00000100
00000010
00000000
00010000
00001000
00000000
,  // measure 40
00000000
00000000
01100000
00000000
01100000
00000000
00000000
00000000
00011000
00000000
00001000
00000100
00000000
00000001
00000010
00000000
,  // measure 41
00000000
00000000
00000110
00000000
00000110
00000000
00000000
00000000
00011000
00000000
00010000
01000000
00000000
10000000
00100000
00000000
;
