#TITLE:JOUBUTSU 2000;
#SUBTITLE:;
#ARTIST:LINDA-Al-CUE;
#TITLETRANSLIT:;
#SUBTITLETRANSLIT:;
#ARTISTTRANSLIT:;
#CREDIT:;
#BANNER:banner.png;
#BACKGROUND:background.png;
#LYRICSPATH:;
#CDTITLE:cdtitle.png;
#MUSIC:JOUBUTSU 2000.mp3;
#OFFSET:0.000;
#SAMPLESTART:51.170;
#SAMPLELENGTH:9.580;
#SELECTABLE:YES;
#BPMS:0.000=100.080,14.750=250.261,17.938=165.980,37.875=251.201,43.063=125.600,50.438=189.441,58.188=269.861,65.813=149.560,95.563=45.140,96.125=155.960,131.083=312.760,142.417=200.320,178.917=147.100,215.667=201.120,252.917=193.500,253.167=195.561,253.250=152.560,253.417=140.940,253.583=130.120,253.750=128.480,254.000=122.460,254.167=121.201,254.333=111.981,254.500=109.541,254.667=96.321,254.833=79.901,255.000=63.481,255.250=57.461,255.500=51.441,255.667=46.221,255.833=37.801,256.000=35.781,256.063=28.540,260.188=185.021,297.438=500.957;
#STOPS:50.438=3.260
,297.438=3.120
;
#BGCHANGES:8.000=-random-=1.000=0=0=1,
297.417=background.png=1.000=0=0=1,
99999=-nosongbg-=1.000=0=0=0 // don't automatically add -songbackground-
;

//---------------dance-single - ----------------
#NOTES:
     dance-single:
     :
     Beginner:
     3:
     0.302,0.426,0.130,0.422,0.004:
0000
0000
0000
0000
0000
1000
0000
0100
,
0000
0000
0002
0010
,
2003
0000
0000
0100
0100
0000
0000
0000
,
0010
0010
0000
3000
0000
2002
0000
0000
,
0000
0000
0000
3003
0010
0000
0100
0000
,
0001
0000
0000
1000
0000
0000
0010
0000
,
0000
0100
0000
0000
0001
0010
0000
0100
,
0000
0000
2000
0000
0000
0100
0000
0000
,
0010
0000
0000
3001
0000
0000
0220
0000
,
0000
0330
0000
0000
2002
0000
0000
0000
,
0000
0000
3003
0010
,
0100
0000
0000
0001
0000
1000
0000
0010
,
0000
0000
0100
0000
0010
0000
0000
1000
,
0000
0010
0000
0001
,
0000
1000
0000
0000
2002
0000
0000
0000
,
0000
0000
0000
0000
,
0000
3003
0000
0010
,
0000
0001
0010
0000
0100
1000
0001
0010
,
0000
0100
1000
0000
0001
0010
0100
1000
,
0000
0020
0000
0000
0100
0000
0100
0000
,
0100
0030
2000
0100
,
0000
0010
0000
0001
0000
0000
0010
0000
,
0100
0000
0000
0020
0000
0000
3000
0000
,
0000
0200
0000
0000
0330
0000
0000
0000
,
0000
1000
0000
0000
0000
0010
0000
0001
,
0000
0000
1000
0000
0000
0010
0000
0000
,
0100
0000
0010
0002
0000
0000
1000
1000
,
0000
0020
0000
0030
0100
1000
0013
0000
,
0000
0100
0010
0000
0100
0000
0000
0010
,
0000
0100
0010
0000
,
2002
0000
0000
0000
,
0000
0000
3003
0020
0000
0000
0000
0000
,
0000
0000
0030
2002
,
0000
0000
0000
0000
,
0000
0000
0000
0000
,
0000
0000
0000
0000
3003
1000
0000
0010
,
0100
0000
0001
0000
1000
0010
0100
0000
,
0001
0010
0000
0200
0000
0000
0000
0000
,
1300
0000
0010
0000
0100
0002
0000
0000
,
1000
0000
0010
0000
0100
0000
0000
1000
,
0000
0010
0000
0003
0200
0000
0010
0000
,
0000
0010
0000
0010
0000
0000
0010
0000
,
0010
0000
0000
0010
0300
0000
0020
0000
,
0000
0100
0000
0000
0100
0000
0100
0000
,
0000
0100
0000
0000
0100
0030
0001
0000
,
1000
0010
0100
0001
,
1001
0000
0000
0000
0000
0110
0000
0000
,
1001
1001
0000
0110
0000
0000
0000
0002
,
0020
0003
0230
0000
2300
0000
0000
0000
,
0000
0000
3020
0000
0000
0030
0001
0000
,
0010
0100
0000
1000
0000
0000
0000
0000
,
0001
1000
0000
0001
0000
0000
0001
1000
,
0000
0001
0000
0000
0001
1000
0001
0000
,
0000
0010
0000
0000
0100
0000
0000
0220
,
0000
0000
0000
0000
,
0330
0001
1000
0000
0001
0000
1000
0000
,
0001
0000
1000
0000
0001
0000
1000
0001
,
0000
1000
0000
0001
0000
0000
0010
0000
,
0010
0100
0100
0001
,
0001
1000
1000
0020
,
0000
0000
0100
0000
0000
0100
0000
0000
,
0100
0000
0000
0100
0000
0030
0000
0000
,
2002
0000
0000
3003
,
0000
0000
0000
0000
,
0000
1000
0000
0001
0000
0110
2002
3003
,
0000
0010
0000
0010
0010
0000
0010
0000
,
0010
0010
0000
0010
0000
0010
0200
0000
,
0000
0000
0301
1000
0000
0020
0000
0000
,
0130
0000
0001
2000
0000
0000
0000
3020
,
0000
0000
0200
0030
0000
0000
0302
0003
,
0020
0000
0000
0000
0230
0000
0000
2300
,
0000
0000
3000
0020
,
0000
0230
0000
0000
0000
0302
0000
0000
,
0023
0000
0030
2002
0000
0000
0000
3003
,
0000
0000
0000
0000
0000
0000
0000
0000
0000
0000
0000
0000
0000
0000
0000
0000
0000
0000
0000
0000
0000
0000
0000
2002
0000
0000
0000
0000
0000
0000
0000
0000
0000
0000
0000
0000
0000
0000
0000
0000
0000
0000
0000
0000
0000
0000
0000
0000
0000
0000
0000
0000
0000
0000
0000
0000
0000
0000
0000
0000
0000
0000
0000
0000
,
0000
0000
0000
0000
,
0000
0000
0000
0000
,
0000
0000
0000
0000
,
0000
0000
0000
0000
,
0000
0000
0000
0000
,
0000
0000
0000
0000
,
0000
0000
0000
0000
,
0000
0000
0000
0000
,
0000
0000
0000
0000
,
0000
0000
0000
0000
,
0000
0000
0000
0000
0000
0000
0000
3003
0000
0000
0000
0000
0000
0000
0000
0000
;

//---------------dance-single - ----------------
#NOTES:
     dance-single:
     :
     Easy:
     3:
     0.326,0.393,0.077,0.552,0.004: // measure 1
0000
2000
0000
3000
0000
0010
0001
2000
,  // measure 2
0000
0010
0100
0010
0100
3002
0000
0000
,  // measure 3
0010
0100
0010
0100
,  // measure 4
0020
0000
0003
0200
0030
0000
0000
0300
,  // measure 5
0000
2000
0000
0000
3000
0000
0002
0000
,  // measure 6
0013
0000
0100
2000
0000
0000
0010
3000
,  // measure 7
0001
0200
0000
0310
0002
0000
0000
0000
,  // measure 8
0000
0000
0000
2003
0000
0000
3020
0000
,  // measure 9
0000
0230
0000
0302
0000
0003
2002
0000
,  // measure 10
0000
0000
0000
3003
0000
0020
0000
0000
,  // measure 11
0000
0000
0030
0100
,  // measure 12
0001
1000
0000
0020
0000
0130
0001
1000
,  // measure 13
0000
0010
0000
0000
0000
0000
0000
2000
,  // measure 14
0000
0000
0010
0000
0000
0010
0000
0000
,  // measure 15
0000
0010
3000
0000
0002
0000
0000
0000
,  // measure 16
0000
1000
0000
0000
0010
0000
0100
0000
,  // measure 17
0000
1000
0003
0000
0020
0000
0100
0000
,  // measure 18
0100
0100
0000
0030
0001
0001
0000
0001
,  // measure 19
0000
1000
1000
1000
1000
0000
0020
0000
,  // measure 20
0130
0002
0000
0000
1000
0023
0000
0000
,  // measure 21
0000
0100
0032
0000
1000
0000
0010
0103
,  // measure 22
0000
1000
0020
0000
0100
0000
0100
0100
,  // measure 23
0000
0000
0032
1000
0000
1000
0003
0000
,  // measure 24
0000
0000
0010
0000
0000
0100
0000
1001
,  // measure 25
0000
0000
0020
0000
0000
0100
0000
0000
,  // measure 26
0100
0000
0100
0000
0000
0100
0000
0100
,  // measure 27
0000
0100
0000
0100
0000
0000
0032
0000
,  // measure 28
1000
0020
0000
0030
0100
0000
1000
0020
,  // measure 29
0000
0000
0030
0000
0200
0000
0300
2000
,  // measure 30
0000
3000
0020
0000
0030
0100
0003
2002
,  // measure 31
0000
0000
0000
0000
,  // measure 32
3003
0000
0000
0220
0000
0000
0000
0000
,  // measure 33
0300
0000
0000
2000
0030
3000
0000
0001
,  // measure 34
0000
0000
1000
0000
0000
0001
0000
1000
,  // measure 35
0000
0000
0001
0000
0000
1000
0000
0000
,  // measure 36
0000
0000
0000
0000
0010
0000
0000
0100
,  // measure 37
0000
0000
0010
0000
0000
0100
0000
0010
,  // measure 38
0000
0001
2000
0000
,  // measure 39
3200
0000
0000
0320
,  // measure 40
0000
0000
0002
0030
0000
0000
0000
0003
,  // measure 41
2000
0000
0000
0000
,  // measure 42
3020
0000
0000
0000
,  // measure 43
0230
0000
0000
0000
,  // measure 44
0302
0000
0000
0000
,  // measure 45
0023
0000
0000
0000
,  // measure 46
0230
0000
0000
0000
0000
0000
0000
2000
,  // measure 47
0300
0000
0000
0000
0000
0000
0000
3000
,  // measure 48
0010
0100
0010
0010
0000
0000
0000
0010
,  // measure 49
0000
0100
0010
0000
0000
0110
0000
0010
,  // measure 50
0100
0000
0110
0000
0000
0002
0000
0010
,  // measure 51
0000
0100
0000
0010
0003
0000
2000
0000
,  // measure 52
0000
0010
0000
0100
0000
0010
3000
0002
,  // measure 53
0000
0010
0100
0000
1000
0010
0100
1000
,  // measure 54
0000
0000
0010
0000
0100
0000
0003
0010
,  // measure 55
0000
0200
0000
0000
0000
0000
0010
0010
,  // measure 56
0000
0010
0010
0000
0010
0000
0010
0000
,  // measure 57
0010
0000
0010
0010
0000
0000
0310
0000
,  // measure 58
0002
0010
0100
1000
,  // measure 59
0010
0000
0100
0000
1000
0000
0010
0100
,  // measure 60
0000
1000
0000
0020
0000
0000
0000
0030
,  // measure 61
0000
0000
0000
0000
0000
0000
0000
0003
,  // measure 62
0000
0000
0000
0020
0000
0000
0000
0000
,  // measure 63
0000
0000
0000
0030
0000
1000
0100
0010
,  // measure 64
0000
0002
0000
0000
0000
1000
1000
1000
,  // measure 65
1003
0010
0000
0100
0000
0001
0000
1000
,  // measure 66
0000
0220
0000
0030
0302
0000
1000
0000
,  // measure 67
0020
0000
0030
0200
0000
0303
1000
0000
,  // measure 68
0010
0000
0100
0010
0000
0002
0000
0000
,  // measure 69
0000
1000
0010
0200
0000
0000
0300
0023
,  // measure 70
0000
0000
0200
0030
0000
0000
0302
0000
,  // measure 71
0000
0000
1000
0000
0000
1000
0000
0000
,  // measure 72
1000
0000
0000
0000
0003
0000
0000
0010
,  // measure 73
0100
0000
0010
0000
0100
0010
0000
0000
,  // measure 74
0000
0110
0000
0000
0220
0000
0000
0330
,  // measure 75
0000
0000
0000
0000
0000
0000
0000
0000
0001
0000
0000
0000
0000
0000
0000
0000
0000
0000
0000
0000
0000
0000
0000
2002
0000
0000
0000
0000
0000
0000
0000
0000
0000
0000
0000
0000
0000
0000
0000
0000
0000
0000
0000
0000
0000
0000
0000
0000
0000
0000
0000
0000
0000
0000
0000
0000
0000
0000
0000
0000
0000
0000
0000
0000
,  // measure 76
0000
0000
0000
0000
,  // measure 77
0000
0000
0000
0000
,  // measure 78
0000
0000
0000
0000
,  // measure 79
0000
0000
0000
0000
,  // measure 80
0000
0000
0000
0000
,  // measure 81
0000
0000
0000
0000
,  // measure 82
0000
0000
0000
0000
,  // measure 83
0000
0000
0000
0000
,  // measure 84
0000
0000
0000
0000
,  // measure 85
0000
0000
0000
0000
,  // measure 86
0000
0000
0000
0000
0000
0000
0000
3003
0000
0000
0000
0000
0000
0000
0000
0000
;

//---------------dance-single - ----------------
#NOTES:
     dance-single:
     :
     Medium:
     7:
     0.425,0.753,0.123,0.583,0.590:
0000
0000
0000
0000
0000
2000
0000
0000
0000
0000
3000
0010
0000
0001
0000
0020
,
0000
0000
0000
0200
0000
0030
2300
0000
0000
0000
0002
0000
0000
3000
0000
0000
,
0000
0013
0000
0000
0000
0100
0000
0010
0002
0000
0000
0000
1000
0000
0010
0000
,
0200
0000
0300
0020
0000
0000
0030
0200
0000
0303
0000
0000
0000
1000
0000
0010
,
0000
0000
0002
0000
0000
0000
0000
0000
0000
0000
2000
0000
0000
0000
0000
3000
,
0010
0000
0000
0000
0100
0000
2000
0000
0000
0000
0000
0000
3010
0000
0000
0003
,
0100
0000
0000
0010
0000
0000
0000
0000
0110
0000
0000
0000
0000
0000
0002
0000
,
0000
0000
0000
0000
0000
1000
0000
0000
0000
0000
1000
0000
0000
0000
0000
0000
,
1000
0000
0000
0000
0000
0000
0000
1000
0000
0003
0000
0000
0000
0000
0010
0100
,
0000
0010
0100
0000
0000
0000
0000
0002
0000
0000
0000
0000
0000
0000
0000
0000
,
0000
0000
0000
0000
0000
0000
0000
0000
0000
0003
0000
0000
1000
0000
1000
1000
,
0000
0010
0000
0010
0010
0000
0001
0000
0001
0001
0000
0000
1000
1000
1000
0000
,
0020
0000
0000
0000
0000
0100
0000
0100
0000
0100
0030
0000
0000
0000
1001
0000
,
0000
0000
0000
0000
0000
1001
0000
0000
0000
0000
0000
0002
0000
0000
0000
0000
,
0000
0000
0010
0000
0000
0000
0000
0000
0000
0100
0000
0000
0000
0100
0000
0000
,
0000
0000
1000
0000
0000
0000
0000
1000
0000
0003
0000
0000
0000
0020
0000
0000
,
0000
0000
0000
0100
0000
0000
0032
0000
,
0000
0000
1000
0000
0000
0010
0003
0000
0100
0000
0000
0000
0000
0010
0000
0000
,
0000
0000
0002
0000
0000
0000
0000
0000
2000
0000
0000
0000
0000
3003
0000
0000
,
0000
0000
0010
0000
0000
0000
0000
0100
0000
0000
0000
0000
0000
0001
0000
0000
,
0000
0000
1000
0000
0010
0000
0000
0200
0000
0000
0000
0000
0000
0000
0010
0000
,
0000
0000
0000
0001
0000
0000
0000
0000
1000
0000
0000
0300
0000
0020
0000
0000
,
0000
0000
0000
0002
0030
0000
0000
0000
0000
2000
0000
0000
0000
0000
0000
3020
,
0000
0000
0000
0030
0200
0000
0000
0300
0000
0000
1000
0003
0000
0000
0000
0001
,
0000
0000
0000
2000
0000
0000
0000
0000
0000
0000
0000
0001
0000
0000
0000
0010
,
0000
0000
0100
0000
0000
0002
0000
3000
0000
0000
0000
0010
0000
0000
0000
0000
,
0100
0000
0000
0010
0000
0200
0000
0000
0003
0000
0000
0000
1000
0000
0000
0010
,
0300
0002
0000
0000
0000
0000
0000
0000
1000
0000
0010
0000
0000
0200
0000
0000
,
0000
0000
0000
0000
0000
0000
0303
0000
0000
0020
0000
0000
0000
0000
0000
0200
,
0030
0000
0000
0000
0302
0000
0000
0000
0000
2000
0000
0000
0000
3000
0023
0000
,
0000
0000
0000
0000
,
0000
0000
0000
0000
0030
0000
1000
0000
0000
0000
0000
0100
0000
0010
0000
0000
,
0001
0000
0000
0000
0000
0000
0020
0000
0000
0000
0000
0230
0000
0000
0000
0000
,
0000
0000
0000
0000
,
0000
0000
0000
0000
0000
0000
0000
0000
0000
0000
0001
0000
0000
0000
0000
0001
,
0000
0000
0300
0000
0000
0000
0000
0000
0000
0000
0000
1000
0000
0000
0000
0000
,
0000
0100
1000
0000
0000
0001
0000
0000
0000
0010
0000
0000
0000
0000
0100
0000
,
0000
0000
0010
0100
0000
0000
0010
0000
0002
0000
0000
1000
0000
1000
0000
0000
,
0003
0000
0010
0000
0000
0000
1000
0000
0000
0010
0000
1000
0000
0000
0000
0010
,
0000
0000
0000
0000
0000
1000
0000
0000
0010
1000
0000
0000
0010
0000
0000
0001
,
0000
0000
1000
0000
0000
1000
0000
0000
0000
0001
0000
0000
1000
0000
0000
0000
,
0001
0000
1000
0000
0000
0001
0000
0001
0000
0000
0000
0000
0010
0000
0000
0100
,
0000
0010
0000
0100
0000
0000
0010
0000
0000
0000
0002
0000
0000
1000
0000
1000
,
0000
0000
0003
0000
0010
0000
0000
0000
0100
0000
0000
0010
0000
0100
0000
0000
,
0000
0000
0002
0000
0000
0000
0000
1000
0000
0000
0000
0013
0000
0000
0000
0000
,
0100
0000
0010
0000
0000
0001
0000
0000
0000
1000
0000
0000
0010
0000
0000
0000
,
0001
0000
0000
1000
0000
0000
0010
0000
0000
0000
0000
0100
0000
0000
0010
0000
,
0000
0000
0100
0000
0000
0010
0010
0000
0001
0000
2000
0000
0000
0000
0010
0000
,
0000
0000
3010
0000
0001
1000
0000
0000
0001
1000
0000
0000
0020
0000
0000
0000
,
0100
0000
0000
0000
0032
0000
0000
1000
0000
1000
0000
0010
0000
0000
0100
0000
,
1000
0000
0000
0010
0000
0100
0000
0000
1003
0000
0020
0000
0000
0100
0000
0130
,
0000
0000
0010
0100
0000
0110
0000
0002
0000
0000
0000
1000
0000
0010
0000
0003
,
0000
0000
0010
0100
0000
0010
0000
0100
0000
0000
0000
0002
0000
0000
0010
0000
,
0100
0000
0000
1000
0000
0000
0010
0000
0000
0100
0000
1000
0000
0003
0000
0000
,
0000
0000
0010
0000
0000
0000
0000
1001
0000
0000
0010
0000
0000
0000
1001
0000
,
0000
0010
0000
0000
0000
1001
0000
0000
0000
0010
0010
0000
0000
1001
0000
0000
,
0010
0001
0010
0200
,
1000
0000
0000
1000
0000
0000
0310
0000
0000
0002
0000
0000
0000
0000
0010
0000
,
0000
0010
0000
0000
0100
0000
0000
2000
0000
0000
0000
0023
3000
0000
0000
0100
,
0000
0000
0000
0100
0000
0000
0032
0000
0000
0000
0000
0000
0000
0000
0000
0000
,
0010
0000
0000
0010
0000
0000
0200
0000
0000
0000
0300
0000
0000
2000
0000
0000
,
0000
0000
0000
3003
0000
0000
0020
0000
0000
0000
0000
0000
0000
0000
0000
0000
,
0230
0000
0000
0000
0000
0000
0000
0000
0000
0002
0300
0000
0000
0000
0000
0000
,
0000
0003
0000
0000
1000
0000
0100
0010
0000
0001
1000
0100
0010
0001
1100
0010
,
0002
0100
0100
0100
2003
0000
0010
0010
3010
1000
0100
0011
0000
0010
1100
0020
,
0030
0000
0001
0000
0000
0000
0000
1000
0000
0000
0000
0020
0000
0000
0200
0000
,
0000
0000
0000
0000
0300
0000
0001
0000
0000
0000
1000
0030
0000
0020
0000
0000
,
0000
0000
0000
0002
0030
0000
0000
0103
0000
0000
1100
0000
0000
1010
0000
0000
,
0002
0000
0000
0000
0000
0000
0000
0010
0000
0000
0100
0000
0000
0010
0000
0000
,
0100
0000
0003
0000
0020
0000
0000
0000
0000
0000
0000
0100
0000
0000
0000
0000
,
0000
0200
0000
0000
0000
0000
0000
0000
0030
0000
0000
0000
0000
0000
0002
0300
,
0000
0000
0000
2003
,
0002
3000
0000
0000
2000
0000
0003
0000
0000
0000
0000
0020
0000
0000
0000
3000
,
0000
0200
0000
0000
0000
0030
0000
0000
0000
0302
0000
0000
0000
0000
0000
0003
,
0000
0000
0000
0000
0110
0000
0000
0000
0000
0000
0000
0000
0000
0000
0000
0000
0110
0000
0000
0000
0000
0000
0000
2002
0000
0000
0000
0000
0000
0000
0000
0000
0000
0000
0000
0000
0000
0000
0000
0000
0000
0000
0000
0000
0000
0000
0000
0000
0000
0000
0000
0000
0000
0000
0000
0000
0000
0000
0000
0000
0000
0000
0000
0000
,
0000
0000
0000
0000
,
0000
0000
0000
0000
,
0000
0000
0000
0000
,
0000
0000
0000
0000
,
0000
0000
0000
0000
,
0000
0000
0000
0000
,
0000
0000
0000
0000
,
0000
0000
0000
0000
,
0000
0000
0000
0000
,
0000
0000
0000
0000
,
0000
0000
0000
0000
0000
0000
0000
3003
0000
0000
0000
0000
0000
0000
0000
0000
;

//---------------dance-single - ----------------
#NOTES:
     dance-single:
     :
     Hard:
     10:
     0.506,0.870,0.268,0.560,0.686:
0000
0000
0000
0000
0000
2002
0000
0000
3000
0000
0000
0100
0000
1000
0000
0010
,
0003
0000
1000
0100
0010
0001
0000
1100
0010
0001
0000
0001
0000
0000
0200
0000
,
0000
0010
0000
0010
0000
0010
0010
0000
0010
0000
0010
0000
0010
0000
0310
0002
,
0000
0010
0000
0100
1000
0000
0023
0000
0000
0000
0000
0100
0000
0000
0000
0030
,
0000
0000
0000
0002
0000
0000
0000
0000
1000
0000
0010
0000
0000
0100
0000
0000
,
1000
0000
0000
0010
0000
0100
0000
0000
0003
0000
0000
0000
1001
0000
0000
0110
,
0000
0000
0011
0000
0000
0100
1000
0000
1010
0000
0000
0000
0001
0000
0010
0000
,
0000
0000
0000
0000
0001
0000
0010
0000
0000
0100
0000
1000
0000
0000
0010
0000
,
0002
0000
0000
0010
0000
0000
0000
0100
0000
1000
0000
0000
0010
0000
0000
0200
,
0000
0003
0000
0000
0000
0010
0000
0000
0000
0010
0000
0000
0000
0000
0000
0010
,
0000
0000
0010
0000
0000
0000
0000
0010
0000
0000
0000
0300
0002
0000
0000
0000
,
0000
1000
0000
0010
0000
0200
0000
0000
0000
0300
0010
0000
0200
0003
0000
0000
,
0000
0000
0000
0010
0000
0000
0001
0300
0000
0000
1001
0000
0000
0000
0000
0000
,
1002
0000
0000
0000
0010
0000
0000
0000
0010
0000
0000
0100
0000
0000
0000
0100
,
0000
0000
1000
0000
0000
0003
0000
0000
0020
0000
0000
0000
0000
0000
0000
0000
,
0002
0000
0000
0030
0000
0000
0000
1000
0000
0000
0000
0000
0020
0000
0000
0000
,
0000
0000
0000
0000
0030
0000
0100
0000
0000
2000
0000
0000
0000
0000
0000
0000
,
0003
0000
0000
0000
0000
0200
0000
0000
0000
0000
0300
0020
0000
0000
0000
0000
,
0000
3030
0000
0000
2200
0000
0300
0020
,
0000
0000
0030
0002
0000
0000
0000
0003
0020
0000
0000
0000
0000
0030
0000
0000
,
0000
3000
0000
0002
0000
0000
0010
0000
0200
0000
0000
0000
0300
0000
0020
0000
,
0000
0000
0030
0200
0000
0000
0000
0300
0000
0020
0000
0000
0030
0003
2000
0000
,
0000
0000
0000
0000
0200
0000
0000
0000
0300
0020
0000
0000
0000
0000
0030
0002
,
0000
0000
0000
3003
0000
0020
0000
0000
0000
0000
0100
0030
0000
0000
0001
1000
,
0010
0000
0000
0200
0000
0000
0000
0010
0000
0000
0010
0000
0010
0000
0000
0010
,
0000
0000
0010
0000
0000
0010
0000
0010
0300
0000
0000
0000
0000
0000
0000
0000
,
1000
0000
0000
1000
0000
0000
1000
0000
,
0000
1000
0100
0000
0010
0001
0000
1000
0000
0100
0000
0010
0000
0001
0000
0000
,
1001
0000
0000
0001
1000
0000
0000
0000
0000
0001
0000
0000
1000
0001
0000
0000
,
1000
0001
0000
0000
0000
0000
1000
0000
0001
1000
0000
0000
0001
0000
0000
1001
,
0000
0000
1001
0000
0000
1001
0000
0000
0000
0001
0000
1000
0000
0001
0000
1000
,
0000
0001
0000
1000
0000
0001
0000
0000
1000
0001
0000
0000
1000
0001
0000
0000
,
1000
0000
0001
0000
0000
0000
0000
1000
0000
0000
0000
0000
0010
0000
0000
0000
,
0000
0100
0000
0000
0000
0010
0000
0000
0100
0000
0000
0000
0000
0000
0010
0000
,
0000
0100
0000
0000
0000
0000
0000
0010
0000
0100
0000
0000
0000
0000
0000
0010
,
0000
0000
0000
0100
0000
0000
0000
0000
0000
0000
1000
0000
0000
0000
0100
1000
,
0000
0000
0001
0000
0000
0010
0000
0000
0000
0100
0000
0000
0000
0000
0000
0010
,
0000
0000
0100
0000
0000
0000
0010
0000
0000
0100
0000
0000
0000
0001
0000
0000
,
0000
0000
1000
0000
0000
0001
0000
1000
0000
0000
0001
1000
0000
0000
0000
0000
,
0001
1000
0000
0000
0001
0000
1000
0000
0000
0000
0010
0000
0000
0100
0000
0000
,
0010
0100
0000
0000
0000
0000
0002
0000
0000
0000
0000
1000
0000
0000
0000
0010
,
0000
0000
0100
0000
0000
0000
0000
0010
0003
0000
0000
0000
1000
0000
0000
0000
,
0001
1000
0000
0000
0000
0001
1000
0000
0000
0000
0001
0000
1000
0000
0000
0000
,
0000
0020
0000
0000
0000
0000
0000
0000
0000
0000
0000
0100
0000
0000
0000
0100
,
0030
0000
0000
0000
0010
0100
0000
0000
0010
0000
0100
0000
0010
0100
0000
0000
,
0010
0100
0000
0000
0002
0000
0000
0000
1000
0000
0000
0010
0000
0000
0100
0000
,
0010
0000
0100
1000
0000
0000
0010
0100
0000
1000
0000
0010
0000
0100
1000
0000
,
0010
0100
1000
0010
0100
1000
0010
0100
,
1000
0000
0010
0000
0100
0000
1000
0010
0000
0000
0100
2003
0000
0000
0000
0100
,
0010
0000
0001
0000
0000
0100
0010
0000
0001
0000
0000
0100
0010
0000
0000
0001
,
0000
0000
0000
0000
0000
0020
0000
0000
3000
0000
0000
0000
0000
0000
0200
0000
,
0030
0000
0000
0000
0000
0000
0001
0000
0000
0000
0000
0001
0000
0000
0000
0000
,
0300
0000
2000
0000
0000
0000
0000
0100
0000
0000
0010
0000
0000
0002
0000
0000
,
0000
0000
3000
0000
0020
0000
0000
0000
0030
0000
0200
0000
0000
0300
0003
0000
,
0000
1000
0000
0000
0000
0010
0000
0000
0000
0000
0001
0000
0000
0010
0000
0000
,
0000
0000
0100
0000
0000
0000
0010
0000
0000
1100
0000
1100
0000
0011
0000
0000
,
0000
0110
0000
0000
0000
0010
0000
0000
0000
0100
0000
0000
0010
0000
0000
0000
,
0010
0000
0000
0010
0000
0000
0010
0000
0000
0000
0000
0000
0000
0000
1100
0000
,
0000
0110
0000
0000
0000
0011
0000
0000
0100
0000
0000
0000
0010
0000
0000
0000
,
0100
0000
0000
0010
0000
0000
0000
0100
0000
0000
0010
0000
0000
0100
0000
0000
,
0002
0000
0000
0000
1000
0000
0000
0010
0000
0000
0000
0100
0000
0000
0000
0010
,
0000
0000
0000
0100
0000
0003
0000
0000
0000
0000
1100
0000
0000
0110
0000
0000
,
0000
0011
0000
0000
0000
0000
0110
0000
0000
0000
2000
0000
0000
0000
0000
0000
,
0000
0000
0000
3010
0000
0000
0100
0000
1000
0100
0001
0010
0100
1000
0110
0010
,
0002
0010
0103
0010
0110
0000
0012
0000
0100
0200
2000
0013
0100
0010
0001
2000
,
3010
0000
0000
0100
0000
0000
1000
0000
0020
0000
0000
0000
0032
0000
0000
0000
,
0010
0000
0000
0010
0000
0000
0100
0000
0000
1000
0000
0000
0020
0000
0000
0000
,
0030
0100
0000
1000
0000
0000
0010
0000
0000
0100
1000
0000
0000
0000
0010
0000
,
0100
0000
1000
0000
0003
0000
0000
0020
0000
0000
0000
0000
0000
0000
0200
0000
,
0030
0000
0000
0000
0002
0000
0000
0300
0000
0000
0000
2000
0000
0000
0000
0000
,
0000
3000
0000
0000
0000
0000
0000
0000
,
0200
0000
0000
0000
0000
0000
0000
0000
0000
0300
0003
0000
0000
0010
0000
0000
,
0000
1001
0000
0000
0010
0000
0000
0100
0000
0000
0000
0010
0000
0000
0100
0000
,
0000
0010
0000
0000
0000
0000
0000
0000
1001
0000
1001
0000
0000
0000
0000
0000
,
0000
0000
0000
0000
0000
0000
0000
0000
0000
0000
0000
0000
0000
0000
0000
0000
0000
0000
0000
0000
0000
0000
0000
2002
0000
0000
0000
0000
0000
0000
0000
0000
0000
0000
0000
0000
0000
0000
0000
0000
0000
0000
0000
0000
0000
0000
0000
0000
0000
0000
0000
0000
0000
0000
0000
0000
0000
0000
0000
0000
0000
0000
0000
3003
,
0000
0000
0220
0000
0000
0000
0000
0000
0000
0000
0000
0000
0000
0000
0000
0000
0000
0000
0000
0000
0000
0000
0000
0000
0000
0330
0000
0000
2002
0000
0000
0000
0000
0000
0000
0000
0000
0000
0000
0000
0000
0003
0000
0000
0000
0000
0000
0000
0000
0000
0000
0000
0000
0000
0000
0000
0000
0000
0020
3000
0000
0000
0000
0000
,
0000
0000
0000
0000
0000
0000
0000
0000
0030
0000
0000
0000
2000
0000
0000
0000
0000
0000
0000
0000
0000
0000
0000
0000
0000
0000
0000
0000
0000
0000
0000
0000
0000
0000
0000
0000
0000
0000
0000
0000
0000
0000
0000
0000
0000
0000
0000
0000
0000
0000
0000
3200
0000
0000
0000
0000
0000
0000
0000
0000
0000
0000
0000
0000
,
0000
0000
0000
0000
0000
0000
0000
0000
0000
0000
0000
0000
0000
0000
0000
0000
0000
0000
0000
0000
0000
0000
0000
0000
0000
0000
0000
0000
0000
0000
0000
0300
0000
0000
0020
0000
0000
0000
0000
0000
0000
0000
0000
0000
0000
0000
0000
0000
0000
0000
0000
0000
0000
0000
0000
0000
0000
0000
0000
0000
0030
0000
0000
2002
,
0000
0000
0000
0000
0000
0000
0000
0000
0000
0000
0000
0000
0000
0000
0000
0000
0000
0000
0000
0000
0000
0000
0000
0000
0000
0000
0000
3000
0000
0000
0000
0000
0000
0000
0000
0000
0000
0000
0000
0000
0000
0000
0000
0000
0000
0000
0000
0000
0000
0000
0000
0000
0000
0000
0000
0000
0000
0000
0000
0000
0000
0000
0000
0000
,
0000
0000
0000
0000
,
0000
0000
0000
0020
0000
0000
0000
0000
0000
0000
0000
0000
0000
0000
0000
0000
,
0000
0000
0000
0000
0000
0000
0000
0000
0000
0000
0000
0000
0000
0000
0000
0000
0000
0000
0000
0000
0000
0000
0000
0000
0000
0000
0000
0000
0000
0000
0000
0000
0000
0000
0000
0030
0000
0000
0000
0000
0000
0000
0000
0000
0000
0000
0000
0000
0000
0000
0000
0000
0000
0000
0000
0000
0000
0000
0000
0000
0000
0000
0000
0000
,
0000
0000
0000
0000
0000
0000
0000
0000
0000
0000
0000
0000
0000
0000
0000
0000
0000
0000
0000
0000
0000
0000
0000
0200
0000
0000
0000
0000
0000
0000
0000
0000
0000
0000
0000
0000
0000
0000
0000
0000
0000
0000
0000
0000
0000
0000
0000
0000
0000
0000
0000
0000
0000
0000
0000
0000
0000
0000
0000
0000
0000
0000
0000
0000
,
0000
0000
0000
0000
0000
0000
0000
0000
0000
0000
0000
0000
0000
0000
0000
0000
0000
0000
0000
0000
0000
0000
0000
0000
0000
0300
0000
0000
0000
0000
0000
0000
,
0000
0000
0000
0000
,
0000
0000
0000
0000
0000
0200
0000
0300
0000
0000
0000
0000
0000
0000
0000
0000
0000
0000
0000
0000
0000
0000
0000
0000
0000
0000
0000
0000
0000
0000
0000
0000
,
0000
0000
0000
0000
,
0000
0003
0000
0000
;
