#VERSION:0.81;
#TITLE:Idola;
#SUBTITLE:;
#ARTIST:iconoclasm feat.GUMI;
#TITLETRANSLIT:;
#SUBTITLETRANSLIT:;
#ARTISTTRANSLIT:;
#GENRE:;
#ORIGIN:;
#CREDIT:;
#BANNER:Idola.png;
#BACKGROUND:Idola-bg.png;
#PREVIEWVID:;
#JACKET:Idola-jacket.png;
#CDIMAGE:;
#DISCIMAGE:;
#LYRICSPATH:;
#CDTITLE:./CDTitles/DanceDanceRevolution 2014.png;
#MUSIC:Idola.ogg;
#OFFSET:0.000000;
#SAMPLESTART:52.556999;
#SAMPLELENGTH:15.000000;
#SELECTABLE:YES;
#DISPLAYBPM:201.000000;
#BPMS:0.000=201.000;
#STOPS:;
#DELAYS:;
#WARPS:;
#TIMESIGNATURES:0.000=4=4;
#TICKCOUNTS:0.000=4;
#COMBOS:0.000=1;
#SPEEDS:0.000=1.000=0.000=0;
#SCROLLS:0.000=1.000;
#FAKES:;
#LABELS:0.000=Song Start;
#BGCHANGES:0.000=Idola.avi=1.000=0=0=0=StretchNoLoop====,
99999=-nosongbg-=1.000=0=0=0 // don't automatically add -songbackground-
;
#KEYSOUNDS:;
#ATTACKS:
;

//---------------dance-single - ----------------
#NOTEDATA:;
#CHARTNAME:;
#STEPSTYPE:dance-single;
#DESCRIPTION:;
#CHARTSTYLE:;
#DIFFICULTY:Hard;
#METER:16;
#RADARVALUES:0.788108,0.972731,0.253556,0.245872,0.487902,653.000000,33.000000,32.000000,0.000000,0.000000,0.000000,0.000000,0.000000,0.788108,0.972731,0.253556,0.245872,0.487902,653.000000,33.000000,32.000000,0.000000,0.000000,0.000000,0.000000,0.000000;
#CREDIT:;
#DISPLAYBPM:201.000000;
#NOTES:
0000
0000
0000
0000
,
0000
0000
0000
0000
,
0000
0000
0000
0000
,
0000
0000
0000
0000
,
0000
0000
0000
0000
,
0000
0000
0000
0000
,
0000
0000
0000
0000
0000
0000
0000
1000
,
1010
0000
0000
0001
0011
0000
0000
1000
,
1001
0000
0000
0000
0000
0000
0010
0100
0010
0000
0100
0000
0000
0000
0000
0000
,
2002
0000
0000
0000
,
0000
0000
0000
0000
,
3003
0000
0000
0000
,
0000
0000
0000
0000
,
0100
1000
0100
1000
0010
1000
0010
1000
,
0001
0100
0001
0100
0001
0010
0001
0010
,
0100
0000
1000
0000
0010
0000
1000
0000
0001
0000
0100
0000
0001
0000
0010
0001
,
0010
0000
0100
0000
1000
0000
0001
0100
0001
0000
1000
0100
1000
0000
0001
1000
,
0001
0000
0000
0000
1000
0000
0001
0010
0100
0000
0010
0000
0001
0000
0000
0000
,
1000
0000
0001
0000
0100
0000
0010
0100
0001
0000
1000
0000
0001
0000
0000
0000
,
0010
0100
0010
0001
2000
3020
0230
0302
,
1003
0000
0000
0000
1010
0000
0000
0000
0110
0000
0000
0000
0101
0000
1000
0001
,
1000
0000
0100
0010
0001
0000
1001
0000
,
0010
0010
0100
0001
0010
0010
0100
1000
,
0010
0000
0010
0000
0100
0000
0001
0000
0100
0001
0100
0000
0001
1000
0001
1000
,
0100
0000
0000
1000
0100
0000
0000
1000
0001
0000
0000
1000
0010
0000
0000
0010
,
0001
0000
0000
0010
0100
0000
0000
0010
1000
0000
0000
0010
0100
0000
0000
0100
,
0001
0000
0000
0100
1000
0000
0000
0100
0010
0000
0000
0100
0001
0000
0000
0001
,
0010
0000
0000
0001
1000
0000
0000
0001
0100
0000
0000
0001
0010
0000
0000
0000
,
1100
0000
1000
0010
0001
0000
0001
0010
,
1000
0000
0100
0010
0001
0000
1000
0000
,
0100
1000
0100
1000
0001
0100
0001
0100
,
0010
1000
0010
0000
0100
0001
0100
0000
0010
1000
0001
0100
0001
1000
0100
0010
,
0001
0000
0000
0000
0000
0000
1000
0000
0000
0100
0000
0000
1000
0000
0000
0100
0000
0000
1000
0000
0100
0000
0010
0000
,
0001
0000
0000
0100
0000
0000
0010
0000
0000
1000
0000
0000
0001
0000
0000
1000
0000
0000
0001
0000
0100
0000
0010
0000
,
1000
0000
0000
0001
0000
0000
0010
0000
0000
0100
0000
0000
1000
0000
0000
0001
0000
0000
0010
0000
0100
0000
1000
0000
,
0010
0001
0010
0100
0110
0000
0110
1000
,
0100
0000
0100
0001
1001
0000
0110
0001
,
0100
0000
0000
0000
0100
0000
1000
0000
1001
0000
0000
0000
0100
0000
0010
0001
,
0010
0100
0010
0001
1000
0100
0010
0100
,
1000
0010
0001
0010
1000
0100
0010
0000
,
0220
0000
0000
0000
,
0000
0000
0000
0000
,
0330
0000
0000
0000
,
0000
0000
0010
0010
,
0001
0000
0001
0000
1000
0000
0010
0001
,
0010
0000
0000
0000
0010
0000
0000
0000
1000
0000
1000
0000
0001
0000
1000
0100
,
1000
0000
0000
0000
0010
0000
0100
0000
0001
0000
0000
0000
1000
0000
0100
0010
,
0100
1000
0100
0001
0100
1000
0100
0000
,
1000
0100
1000
0000
0001
0000
0000
0000
0001
0100
0001
0000
1000
0000
0000
0000
,
1000
0010
1000
0000
0001
0000
0000
0000
0001
0010
0001
0000
1000
0000
0000
0000
,
0010
0100
0010
0000
0001
0000
0000
0000
0010
0100
0010
0000
1000
0000
0000
0000
,
0001
0000
1000
0000
0001
0000
1000
0000
0100
0000
0000
0000
0010
0001
0010
0001
,
1000
0100
1000
0010
0001
1000
0100
0001
,
1000
0000
0001
0000
0010
0000
0100
0000
0001
0000
1000
0000
0010
0000
0100
0010
,
0100
0000
1000
0000
0010
0000
0100
0000
1000
0000
0100
0000
0001
0000
0010
0001
,
0010
0100
1000
0010
0100
0010
2000
3100
,
0020
0031
0200
0310
2000
3001
0020
0130
,
0002
0103
2000
3100
0020
0031
0200
0310
,
2000
0100
3100
0000
0001
0100
0010
1000
,
0001
0010
0010
0001
0010
0000
1001
0000
,
0200
0010
0010
0300
,
2000
0010
0010
3000
,
0002
0010
0010
0003
,
1000
0010
0100
0001
,
1000
0000
0000
1000
0000
1000
0001
0000
0000
1000
0000
0000
,
0001
0100
0010
1000
0000
0000
0001
0100
0010
1000
0000
0000
,
0001
0000
0000
0001
0000
0001
1000
0000
0000
0001
0000
0000
,
1000
0100
0010
0001
0000
0000
1000
0100
0010
0001
0000
0000
,
1000
0000
0000
0001
0000
0000
1000
0000
0010
0000
0100
0000
0001
0000
0000
1000
0000
0000
0001
0000
0010
0000
0100
0000
,
1000
0000
0000
0001
0000
0000
1000
0000
0010
0000
0100
0000
0001
0000
0010
0000
0100
0000
1000
0000
0001
0000
1000
0000
,
0100
0000
0000
0010
0001
0100
0010
0000
0000
0010
1000
0100
,
0010
0000
0000
0010
0001
0100
0010
0000
0000
0010
1000
0100
,
0020
0000
0001
0000
,
0100
0000
1030
0110
,
2002
0000
0000
3003
,
1000
0100
0010
0001
0010
0100
1000
0000
0000
0000
0000
0000
,
0001
0000
1000
0000
0010
0000
0100
0001
0010
0000
0001
0000
1000
0000
0100
1000
,
0100
0000
0010
0001
0000
0000
1000
0000
0010
0000
0100
0000
0010
1000
0002
0000
,
0000
0000
0103
0000
0010
0000
0000
0000
1000
0000
0001
0000
0010
0000
0001
0010
,
0100
0000
1000
0000
0001
0000
0100
0000
0100
0000
0001
0000
1000
0001
1000
0001
,
0010
0000
0100
0000
0010
0000
0001
1000
0100
0000
0100
0000
1000
0000
0010
1000
,
0001
0000
0001
0000
0100
0000
0010
1000
0100
0000
0100
0000
1000
0000
0010
0000
,
1000
0001
1000
0001
0100
0010
1000
0001
,
1001
0000
1000
0000
1001
0000
0001
0000
0011
0000
0000
0000
0011
0000
0001
1000
,
0100
0000
0010
0000
0100
0000
0010
0001
0100
0000
0010
0000
1000
0000
0010
0100
,
0010
0000
0100
0001
0000
0000
0001
0000
0100
0000
0010
0000
0100
0001
2000
0000
,
0000
0000
0000
3010
0000
0000
0101
0000
0000
0000
0000
0000
0010
0000
0000
0001
0000
0000
1000
0000
0100
0000
1000
0000
,
0001
1000
0010
0000
1010
0100
0001
0000
,
1000
0010
1000
0001
0100
0010
1000
0100
1000
0001
0010
0100
,
1000
0000
0000
0000
0100
0000
0000
0000
0010
0000
0000
0000
0001
0000
0000
0000
0100
0000
0000
0000
0010
0000
0000
0000
1000
0000
0000
0000
0000
0000
0001
0000
0000
0000
0000
0000
1000
0000
0000
0000
0000
0000
0100
0000
0000
0010
0000
0000
,
0100
0000
0000
1000
0000
0000
0010
0000
0000
0100
0000
0000
0001
0000
0000
1000
0000
0000
0001
0000
0010
0000
0100
0000
,
1000
0000
0100
0000
1000
0000
0001
0000
0010
0100
1000
0001
0010
0000
0000
0000
,
2001
0001
0001
0001
,
0100
0100
0100
3100
,
0012
0010
0010
0010
,
1000
0000
0000
0000
1000
0000
0000
0000
1003
0100
1000
0100
1000
0000
0000
0000
,
2100
0000
0000
0000
0000
0000
3001
0102
,
0000
0000
1003
0010
,
0110
0000
0000
0100
0101
0000
0000
0000
,
1001
0000
0100
0000
0010
0001
1000
0010
,
1001
0000
0000
0000
0010
0000
0000
1000
0100
0000
0010
0000
0100
0000
1000
0001
,
0100
0000
0001
0000
1000
0000
0001
0000
0100
0000
0010
0000
1000
0010
1000
0000
,
0100
0000
0010
0000
0001
0010
0001
0000
0100
0000
0010
0000
1000
0001
1000
0000
,
0010
0000
0100
0000
0010
1000
0001
0010
0100
1000
0001
0000
0000
0000
0000
0000
,
0022
0000
0000
0000
,
0000
0000
0033
0000
;

//---------------dance-double - ----------------
#NOTEDATA:;
#CHARTNAME:;
#STEPSTYPE:dance-double;
#DESCRIPTION:;
#CHARTSTYLE:;
#DIFFICULTY:Hard;
#METER:16;
#RADARVALUES:0.800182,1.000000,0.307340,0.484061,0.384175,626.000000,40.000000,63.000000,0.000000,0.000000,0.000000,0.000000,0.000000,0.800182,1.000000,0.307340,0.484061,0.384175,626.000000,40.000000,63.000000,0.000000,0.000000,0.000000,0.000000,0.000000;
#CREDIT:;
#DISPLAYBPM:201.000000;
#NOTES:
// measure 0
00000000
00000000
00000000
00000000
,  // measure 1
00000000
00000000
00000000
00000000
,  // measure 2
00000000
00000000
00000000
00000000
,  // measure 3
00000000
00000000
00000000
00000000
,  // measure 4
00000000
00000000
00000000
00000000
,  // measure 5
00000000
00000000
00000000
00000000
,  // measure 6
00000000
00000000
00000000
00000000
00000000
00000000
00000000
10000000
,  // measure 7
11000000
00000000
00000000
00010000
00011000
00000000
00000000
00000100
,  // measure 8
00000101
00000000
00000000
00000000
00000000
00000000
00000001
00001000
00000001
00000000
00000010
00000000
00000000
00000000
00000000
00000000
,  // measure 9
00000200
00000000
00000000
00000000
,  // measure 10
00000000
00000000
00000000
00000000
,  // measure 11
00000300
00000000
00000000
00000000
,  // measure 12
00000000
00000000
00000000
00000000
,  // measure 13
00000001
00000010
00000001
00000010
00000100
00001000
00000100
00001000
,  // measure 14
00010000
00100000
00010000
00100000
01000000
10000000
01000000
10000000
,  // measure 15
01000000
00100000
01100000
00000000
00010000
00001000
00011000
00000000
,  // measure 16
00000100
00000000
00000010
00000000
00000110
00000000
00000000
00000000
00001000
00000010
00001000
00000000
00000001
00000010
00000001
00000000
,  // measure 17
00000100
00000000
00000000
00000000
00000010
00000000
00001000
00000001
00001000
00000000
00000010
00000000
00000100
00000000
00001000
00010000
,  // measure 18
00001000
00000000
00000000
00000000
00100000
00000000
01000000
00000000
00100000
00000000
00010000
00000000
10000000
00000000
00010000
00100000
,  // measure 19
00010000
01000000
00010000
00000000
02000000
03200000
20300000
32000000
,  // measure 20
03100000
00000000
00001000
00000000
00010000
00000000
00000100
00000000
00001000
00000000
00000010
00000000
00000100
00000000
00000001
00000010
,  // measure 21
00000001
00000000
00000001
00000010
00000100
00000010
00000001
00000000
,  // measure 22
00000100
00000100
00001000
00010000
01000000
01000000
10000000
00010000
,  // measure 23
00100000
00100000
00001000
00010000
00000010
00000010
00000100
00000100
,  // measure 24
00000220
00000330
00000202
00000303
00002002
00003003
00000022
00000033
,  // measure 25
00020200
00030300
00022000
00033000
02002000
03003000
02020000
03030000
,  // measure 26
20200000
30300000
22000000
33000000
02200000
03300000
00220000
00330000
,  // measure 27
02002000
03003000
00022000
00033000
00020200
00030300
00002200
00003300
,  // measure 28
00000011
00000000
00000000
00000000
00000001
00000000
00000100
00000000
00000010
00000000
00000000
00000000
00000100
00000000
00000010
00001000
,  // measure 29
00000010
00000000
00001000
00000100
00010000
00000000
00001000
00000000
,  // measure 30
01000000
00010000
01000000
00010000
10000000
00100000
10000000
00100000
,  // measure 31
10000000
01000000
10000000
00000000
01000000
00100000
01000000
00000000
00100000
00010000
00100000
00000000
00010000
00100000
00010000
00000000
,  // measure 32
10000000
00000000
00000000
00000000
00000000
00000000
00100000
00000000
00000000
10000000
00000000
00000000
00010000
00000000
00000000
01000000
00000000
00000000
00100000
00000000
01000000
00000000
00001000
00000000
,  // measure 33
00010000
00000000
00000000
00001000
00000000
00000000
00010000
00000000
00000000
00000010
00000000
00000000
00001000
00000000
00000000
00000100
00000000
00000000
00000010
00000000
00000001
00000000
00001000
00000000
,  // measure 34
00000001
00000000
00000000
00000100
00000000
00000000
00000010
00000000
00000000
00001000
00000000
00000000
00000100
00000000
00000000
00010000
00000000
00000000
00001000
00000000
00100000
00000000
00010000
00000000
,  // measure 35
01000000
00100000
10000000
01000000
00100000
00000000
01100000
00000000
,  // measure 36
10000000
00000000
10000000
01000000
00010000
00000000
10000000
00100000
,  // measure 37
00010000
00000000
00001000
00000000
00000100
00000000
00000001
00000000
00000100
00000000
00000000
00000000
00001000
00000000
00000001
00001000
,  // measure 38
00000001
00000000
00000001
00000100
00001000
00000000
00000001
00000010
,  // measure 39
00001000
00010000
01000000
10000000
01000000
00010000
00100000
00000000
,  // measure 40
00020000
00000000
00100000
00000000
00000000
10000000
00000000
00000000
,  // measure 41
01000000
00000000
00000000
10000000
00000000
00000000
00100000
00000000
,  // measure 42
00031000
00000000
00000000
00000100
00000000
00000000
00000001
00000000
,  // measure 43
00000000
00000010
00000000
00000000
00001000
00000000
00001001
00000000
,  // measure 44
00000100
00000000
00000100
00000000
00000001
00000100
00000010
00000000
,  // measure 45
00001000
00000000
00000000
00000000
00010000
00000000
00000000
00000000
01000000
00000000
00100000
00000000
10000000
00000000
01000000
10000000
,  // measure 46
01000000
00000000
00000000
00000000
01000000
00000000
00000000
00000000
10000000
00000000
01000000
00000000
00100000
00000000
00010000
00100000
,  // measure 47
00010000
00100000
00001000
00000000
00010000
00001000
00000100
00000000
,  // measure 48
00000100
00000001
00000000
00000000
00000100
00000010
00000000
00000000
00001000
00000000
00000200
00000000
00000000
00000000
00010300
00000000
,  // measure 49
00001000
00010000
00000000
00000000
00001000
00100000
00000000
00000000
00010000
00000000
02000000
00000000
00000000
00000000
03100000
00000000
,  // measure 50
10000000
01000000
00000000
00000000
10000000
00100000
00000000
00000000
01000000
00010000
00000000
00000000
00100000
00010000
00100000
00000000
,  // measure 51
00001000
00010000
01000000
10000000
01000000
00000000
00010000
00001000
,  // measure 52
00000010
00000000
00000010
00001000
00000010
00000001
00000100
00001000
,  // measure 53
00010000
00000000
00000000
00000000
00010000
00000000
00000000
00000000
00010000
00000000
00100000
00000000
10000000
00000000
00010000
01000000
,  // measure 54
00010000
00000000
10000000
00000000
01000000
00000000
00100000
00000000
00001000
00000000
00000000
00000000
00001000
00000000
00010000
00001000
,  // measure 55
00010000
00000100
00010000
00000010
00010000
00000100
00001000
00000100
,  // measure 56
00000002
00000103
00000020
00000031
00000200
00000310
00002000
00003100
,  // measure 57
00020000
00031000
00200000
00301000
02000000
03010000
20000000
30010000
,  // measure 58
00200000
01000000
01300000
00000000
10000000
00010000
01000000
00100000
,  // measure 59
00010000
00100000
01000000
00001000
00020000
00000000
00030000
00000000
,  // measure 60
00000200
00000010
00001300
00000000
,  // measure 61
02000000
00100000
03010000
00000000
,  // measure 62
00000020
00000100
00001030
00000000
,  // measure 63
00200000
10000000
01000000
00310000
,  // measure 64
00001000
00000000
00000000
00010000
00000000
00010000
01000000
00000000
00000000
10000000
00000000
00000000
,  // measure 65
10000000
01000000
00100000
00010000
00000000
00000000
00001000
00000100
00000010
00000001
00000000
00000000
,  // measure 66
00000100
00000000
00000000
00001000
00000000
00001000
00010000
00000000
00000000
00100000
00000000
00000000
,  // measure 67
10000000
01000000
00100000
00010000
00000000
00000000
00001000
00000100
00000010
00000001
00000000
00000000
,  // measure 68
00000100
00000000
00000000
00000010
00000000
00000000
00001000
00000000
00000100
00000000
00000010
00000000
00000001
00000000
00000000
00001000
00000000
00000000
00000001
00000000
00000100
00000000
00001000
00000000
,  // measure 69
00010000
00000000
00000000
00001000
00000000
00000000
01000000
00000000
00100000
00000000
00010000
00000000
00100000
00000000
01000000
00000000
00010000
00000000
10000000
00000000
00010000
00000000
00100000
00000000
,  // measure 70
01000000
00000000
00000000
10000000
01000000
00100000
00010000
00000000
00000000
01000000
00100000
00010000
,  // measure 71
00001000
00000000
00000000
00010000
00001000
00000100
00000010
00000000
00000000
00001000
00000100
00000010
,  // measure 72
00000002
00000000
00000100
00000000
,  // measure 73
00000010
00000000
00001003
00000110
,  // measure 74
00022000
00000000
00000000
00033000
,  // measure 75
00001000
00100000
00010000
01000000
00100000
10000000
01000000
00000000
00000000
00000000
00000000
00000000
,  // measure 76
00010000
00000000
00001000
00000000
00000100
00000000
00000001
00000000
00001000
00000000
00000010
00000000
00001000
00000000
00000100
00010000
,  // measure 77
00000100
00001000
00010000
00100000
01000000
00010000
00001000
00000200
,  // measure 78
00000000
00000000
00000301
00000000
00000010
00000000
00001000
00000000
00010000
00000000
01000000
00000000
10000000
00000000
00010000
00100000
,  // measure 79
01000000
00000000
00010000
00000000
00001000
00000000
00000100
00000000
00000010
00000000
00001000
00000000
00000001
00000000
00000100
00000010
,  // measure 80
00001000
00000000
00001000
00000000
00100000
00000000
00010000
00001000
01000000
00000000
01000000
00000000
00100000
00000000
10000000
00010000
,  // measure 81
00100000
00000000
00100000
00000000
10000000
00000000
00100000
01000000
00010000
00000000
00010000
00000000
00001000
00000000
00100000
00000000
,  // measure 82
00001000
00000100
00010000
00001000
00000010
00000001
00001000
00000100
,  // measure 83
00000001
00000000
00000101
00000000
00001010
00000000
00001100
00010000
,  // measure 84
00001000
00000000
00010000
00000000
00100000
00000000
10000000
00000000
00010000
00000000
01000000
00000000
00010000
00000000
00100000
00001000
,  // measure 85
00100000
00010000
00001000
00000100
00000010
00001000
00010000
00200000
,  // measure 86
00000000
00000000
00000000
10300000
00000000
00000000
01000000
00000000
00000000
00010000
00000000
00000000
00001000
00000000
00000000
00000010
00000000
00000000
00000001
00000000
00001000
00000000
00000100
00000000
,  // measure 87
00000010
00001000
00010000
00100000
01000000
00010000
10000000
00000000
,  // measure 88
10000000
01000000
10000000
00010000
01000000
00010000
00100000
00001000
00100000
00001000
00010000
00001000
,  // measure 89
00010000
00000000
00000000
00000000
00000010
00000000
00000000
00000000
00010000
00000000
00000000
00000000
00000100
00000000
00000000
00000000
00001000
00000000
00000000
00000000
00000100
00000000
00000000
00000000
00000010
00000000
00000000
00000000
00000000
00000000
00000001
00000000
00000000
00000000
00000000
00000000
00000100
00000000
00000000
00000000
00000000
00000000
00000010
00000000
00000000
00000100
00000000
00000000
,  // measure 90
00000010
00000000
00000000
00001001
00000000
00000000
00000010
00000000
00000000
00000001
00000100
00001000
,  // measure 91
00010000
00000000
00100000
00000000
01000000
00000000
00100000
00000000
10000000
00100000
10000000
00000000
00010000
01000000
00010000
00000000
,  // measure 92
01020000
01000000
10000000
10000000
,  // measure 93
00100000
00100000
00001000
00031000
,  // measure 94
00002100
00000100
00000001
00000001
,  // measure 95
00000010
00000000
00000000
00000000
00003010
00000000
00000000
00000000
00000100
00000010
00000100
00000010
00000100
00000000
00000000
00000000
,  // measure 96
00000101
00000000
00000000
00000000
00000000
00000000
00001000
00011000
,  // measure 97
00000000
00000000
00100000
01000000
,  // measure 98
11000000
00000000
00000000
00010000
01010000
00000000
00000000
00000000
,  // measure 99
00011000
00000000
00000010
00000000
00000100
00001000
00000001
00000000
,  // measure 100
00001001
00000000
00000000
00000000
00000010
00000000
00000001
00000000
00001000
00000000
00000010
00000000
00000100
00000000
00000010
00010000
,  // measure 101
00001000
00000000
00100000
00000000
00010000
00000000
01000000
00000000
00100000
00000000
10000000
00000000
01000000
00100000
01000000
00100000
,  // measure 102
00010000
00000000
00100000
00000000
00001000
00010000
00001000
00010000
00000100
00000000
00001000
00000000
00000001
00001000
00000001
00001000
,  // measure 103
00000010
00000000
00000100
00000000
00000001
00000010
00000100
00001000
00000001
00000000
00001000
00000000
00000000
00000000
00000000
00000000
,  // measure 104
00020200
00000000
00000000
00000000
,  // measure 105
00000000
00000000
00000000
00030300
00000000
00000000
00000000
00000000
;

//---------------dance-single - ----------------
#NOTEDATA:;
#CHARTNAME:;
#STEPSTYPE:dance-single;
#DESCRIPTION:;
#CHARTSTYLE:;
#DIFFICULTY:Challenge;
#METER:17;
#RADARVALUES:0.878114,1.000000,0.453327,0.461010,0.649256,681.000000,59.000000,60.000000,0.000000,0.000000,0.000000,0.000000,0.000000,0.878114,1.000000,0.453327,0.461010,0.649256,681.000000,59.000000,60.000000,0.000000,0.000000,0.000000,0.000000,0.000000;
#CREDIT:;
#DISPLAYBPM:201.000000;
#NOTES:
0000
0000
0000
0000
,
0000
0000
0000
0000
,
0000
0000
0000
0000
,
0000
0000
0000
0000
,
0000
0000
0000
0000
,
0000
0000
0000
0000
,
0000
0000
0000
0000
0000
0000
0000
0101
,
0100
0000
0000
1100
0100
0000
0000
0110
,
0100
0000
0000
0000
0000
0000
1000
0100
0010
0000
0001
0000
0000
0000
0000
0000
,
0220
0000
0000
0000
,
0000
0000
0000
0000
,
0000
0000
0000
0000
,
0000
0000
0330
0000
,
1000
1000
0010
0010
,
0001
0001
0100
0100
,
1000
1000
0010
1000
0001
0001
0010
0001
,
0100
0010
0100
0000
0001
1000
0001
0000
1000
0010
1000
0000
0001
0100
0001
0100
,
0010
0000
0000
0000
1010
0000
0100
0001
1000
0000
0001
0000
1001
0000
0010
1000
,
0001
0000
0100
0000
0101
0000
1000
0001
0010
0000
0001
0000
1001
0000
0001
1000
,
0100
0100
0011
0000
0001
0100
0010
1000
,
0001
0000
0002
0000
0010
0000
0023
0000
0100
0000
0230
0000
1000
0000
1300
0001
,
0100
0000
0000
0000
0101
0000
0010
1000
0100
0000
1000
0000
1100
0000
0010
0001
,
0100
0000
0001
0000
0011
0000
0100
1000
0010
0000
1000
0000
1010
0000
0100
0001
,
0010
0001
1001
0000
1000
0100
0010
0001
,
1001
0000
0001
0100
0001
0000
0100
0001
0100
0000
0001
0100
0001
0000
0001
0100
,
0010
0000
0010
1000
0010
0000
1000
0010
1000
0000
0010
1000
0010
0000
1000
0001
,
1000
0000
1000
0100
1000
0000
0100
1000
0100
0000
1000
0100
1000
0000
1000
0100
,
0010
0000
0010
0001
0010
0000
0001
0010
0001
0000
0010
0001
0010
0000
0010
0001
,
2000
0000
3000
0010
2000
0000
3000
0001
2000
0000
3000
0100
2000
0000
3010
0100
,
0002
0000
0003
1000
0002
0000
0003
0010
0002
0000
0003
1000
0002
0000
0003
0100
,
0020
0000
0130
0001
0200
0000
0301
1000
0002
0000
1003
0100
2000
0000
3001
0000
,
0100
0001
0100
0000
0010
1000
0010
0000
1000
0100
1000
0001
0010
0001
1000
0100
,
0010
0000
0000
0000
0000
0000
0000
0000
0000
0000
0000
0000
0010
0000
0000
0000
0000
0000
0001
0000
0000
1000
0000
0000
0100
0000
0000
0000
0000
0000
0010
0000
0000
0000
0000
0000
0001
0000
0000
0000
0100
0000
0000
0000
0010
0000
0000
0000
,
1000
0000
0000
0000
0000
0000
0100
0000
0000
0000
0000
0000
0010
0000
0000
0000
0000
0000
0001
0000
0000
1000
0000
0000
0010
0000
0000
0000
0000
0000
0100
0000
0000
0000
0000
0000
0001
0000
0000
0000
0010
0000
0000
0000
0100
0000
0000
0000
,
1000
0000
0000
0000
0000
0000
0001
0000
0000
0000
0000
0000
0100
0000
0000
0000
0000
0000
0010
0000
0000
1000
0000
0000
0001
0000
0000
0000
0000
0000
0100
0000
0000
0000
0000
0000
0010
0000
0000
0000
1000
0000
0000
0000
0001
0000
0000
0000
,
0100
0000
0010
0000
1000
0000
0100
0010
0001
0000
1000
0000
1001
0000
0000
0000
,
0010
0000
0100
0000
0010
0000
0100
1000
0010
0000
0010
0000
0100
0000
0010
0000
,
0100
0000
0100
0000
0010
0000
0100
0001
0010
0000
0010
0000
0100
0000
0010
0100
,
0010
0000
0100
0000
0100
0000
1000
0001
1000
0000
0100
0000
0001
0000
0100
0000
,
1100
0011
0101
0110
,
2002
0000
0000
0000
,
0000
0000
0000
0000
,
3003
0000
0000
0000
,
0000
0000
0000
0000
0000
0000
0000
0000
0001
0100
0001
0100
0001
0000
0000
0000
,
2001
0000
3000
0002
1000
0000
0003
0000
0010
0000
0001
0000
0010
0000
0100
0000
,
1200
0000
0300
2000
0100
0000
3000
0000
0010
0000
1000
0000
0010
0000
0100
0001
,
0200
0000
0300
0002
0100
0000
0003
0000
1000
0000
0001
0000
0100
0000
0010
1000
,
0002
0100
2003
0100
3002
0100
0013
0000
,
1020
0000
0030
0002
0010
0000
0003
0000
0120
0000
0030
0200
1000
0000
0300
0000
,
2001
0000
3000
0002
0100
0000
0003
0000
0210
0000
0300
0020
1000
0000
0030
0000
,
1100
0000
1010
0000
0101
0000
0010
1000
,
0100
0001
0100
1000
0010
0000
0100
0010
,
1000
0100
0001
0010
0001
1000
0010
0001
,
0100
0000
1000
0000
0010
0000
1000
0000
0001
0000
0010
0000
0100
0000
0010
1000
,
0010
0000
0100
0000
0001
0000
0010
0000
1000
0000
0010
0000
0001
0000
1000
0001
,
0200
0010
0302
0010
2003
0010
3002
0100
,
2003
0100
3002
0010
0203
0010
0302
0010
,
2003
0010
3200
0001
0320
1000
0032
1000
,
0203
0010
0310
0000
0100
0001
0010
0100
,
1000
0001
0001
1000
1001
0000
0000
0000
,
0000
0000
0000
0000
,
0000
0000
0000
0000
,
0000
0000
0000
0000
,
0000
0000
0000
0000
,
1000
0000
0001
0000
,
1100
0100
0010
0001
0000
0000
1000
0100
0010
0011
0000
0000
,
1000
0000
0001
0000
,
1010
0010
0100
0001
0000
0000
1000
0010
0100
0101
0000
0000
,
1001
0000
0000
0100
0000
0000
0001
0000
1000
0000
0100
0000
0001
0000
0000
0100
0000
0000
1000
0000
0010
0000
0001
0000
,
0010
0000
0000
0100
0000
0000
0001
0000
0010
0000
1000
0000
0010
0000
0001
0000
1000
0000
0010
0000
0001
0000
0010
0000
,
1000
0000
0000
0001
0000
0000
0100
0000
0001
0000
0010
0000
0100
0000
0000
0001
0000
0000
0100
0000
1000
0000
0010
0000
,
0100
0000
0000
1000
0000
0000
0100
0000
0001
0000
0010
0000
0100
0000
0000
0001
0000
0000
0100
0000
0000
1000
0000
0000
,
0020
0000
0000
0000
,
0000
0000
0000
0100
,
2000
0000
0000
3030
,
0010
0000
0000
0000
0001
0000
0000
0000
0100
0000
0000
0000
0100
0000
0000
0000
1000
0000
0000
0000
0010
0000
0000
0000
0100
0000
0000
0000
0000
0000
0000
0000
0000
0000
0000
0000
0001
0000
0000
0010
0000
0000
0100
0000
0000
1000
0000
0000
,
0001
0000
0100
0010
0100
0000
0001
0000
0010
0100
0010
0000
0001
0000
1000
0010
,
0100
0000
0010
0100
0001
0000
0100
0001
1000
0000
0100
0000
0010
0000
0120
0000
,
0000
0000
0031
0000
1001
0000
0100
0000
0010
0000
1000
0000
0100
0000
0010
0001
,
1000
0000
0001
1000
0010
0000
1000
0010
0100
0000
0010
0100
0001
1000
0100
0010
,
0001
0000
0001
0000
1010
0000
0010
0100
0001
0000
0001
0000
1100
0000
0100
0010
,
0001
0000
0001
0000
1010
0000
0010
0100
0001
0000
0001
0000
1100
0000
0001
0000
,
0010
0000
1000
0000
0010
0000
0001
0010
1000
0000
0010
0000
0001
0000
0100
0000
,
1000
0000
0100
0000
0001
0000
1000
0000
0001
0000
0100
0000
1001
0000
0010
0100
,
0001
0000
1000
0100
1000
0000
0001
0000
0100
1000
0100
0000
0001
0000
1000
0100
,
0010
0000
0100
0010
0001
0000
0010
0001
1000
0000
0010
0000
0100
0000
0201
0000
,
0000
0000
0000
0310
0000
0000
1010
0000
0000
0001
0000
0000
0100
0000
0000
0001
0000
0000
0010
0000
1000
0000
0010
0000
,
0001
1000
0001
0100
0010
0110
0000
0100
,
1000
0100
0001
1000
0100
0001
0100
0010
0001
0100
0010
0001
,
1000
0000
0000
0000
0100
0000
0000
0000
0010
0000
0000
0000
1000
0000
0000
0000
0100
0000
0000
0000
0010
0000
0000
0000
0001
0000
0000
0000
0000
0000
0001
0000
0000
0000
0000
0000
0100
0000
0000
0000
0000
0000
0010
0000
0000
1000
0000
0000
,
0100
0000
0000
1000
0000
0000
0010
0000
0000
0100
0000
0000
0010
0000
0000
0000
0000
0000
1000
0000
0100
0000
0010
0000
,
0011
0001
1001
0000
0110
0000
1001
0000
,
2020
0000
0000
0000
,
0000
0000
0000
3030
,
0022
0000
0000
0000
,
0000
0000
0000
0000
0033
0000
0000
0000
0001
0010
0100
1000
0001
0000
0000
0000
,
1001
0000
0000
0000
0000
0000
1010
0101
,
0000
0000
1000
0001
,
0011
0000
0000
0110
1100
0000
0000
0000
,
0001
0000
0000
1000
0000
1000
0001
0010
0100
1000
0001
0100
,
0010
0000
1000
0000
0010
0000
0100
0001
1000
0001
0100
0000
0010
0000
1000
0001
,
0100
0000
0010
0000
1000
0001
0010
0100
1000
0000
0001
1000
0001
0100
0010
1000
,
0100
0000
0010
0001
0010
0100
1000
0001
0100
0000
0010
0100
0010
1000
0001
0100
,
0010
1000
0100
1000
0001
0100
1000
0100
0001
1000
0020
0000
0000
0000
0030
0000
,
2002
0000
0000
0000
,
0000
0000
3003
0000
;

//---------------dance-single - ----------------
#NOTEDATA:;
#CHARTNAME:;
#STEPSTYPE:dance-single;
#DESCRIPTION:;
#CHARTSTYLE:;
#DIFFICULTY:Medium;
#METER:12;
#RADARVALUES:0.592727,0.648487,0.430276,0.353441,0.015367,438.000000,56.000000,46.000000,0.000000,0.000000,0.000000,0.000000,0.000000,0.592727,0.648487,0.430276,0.353441,0.015367,438.000000,56.000000,46.000000,0.000000,0.000000,0.000000,0.000000,0.000000;
#CREDIT:;
#DISPLAYBPM:201.000000;
#NOTES:
0000
0000
0000
0000
,
0000
0000
0000
0000
,
0000
0000
0000
0000
,
0000
0000
0000
0000
,
0000
0000
0000
0000
,
0000
0000
0000
0000
,
0000
0000
0000
0000
0000
0000
0000
0001
,
1000
0000
0000
0010
0100
0000
0000
1000
,
0001
0000
0000
0100
0010
0100
0000
0000
,
2002
0000
0000
0000
,
0000
0000
0000
0000
,
3003
0000
0000
0000
,
0000
0000
0000
0000
,
0001
0001
0010
0100
,
1000
1000
0010
0100
,
0001
1000
0001
0000
1000
0010
1000
0000
,
0010
0100
0010
0000
1000
0100
0010
0001
,
1000
0000
0010
1000
0100
0000
1000
0000
,
0001
0000
0010
0001
0100
0000
0001
0000
,
1000
0000
0001
0000
0010
0001
0010
0001
,
0200
0320
2030
3001
,
0100
0000
0010
0100
0001
0000
1000
0000
,
2010
3001
0012
1003
,
1010
0000
0101
0000
1000
0100
0010
0001
,
1001
1001
1001
1001
,
1010
1010
1010
1010
,
1100
1100
1100
1100
,
0101
0101
0101
0101
,
0012
1000
0100
0103
,
2010
0001
0100
3100
,
0010
0001
0010
0000
0001
0010
0001
0000
,
1000
0001
1000
0001
1000
0100
0010
0001
,
0100
0000
0010
0000
0010
1000
0010
0000
,
0010
1000
0001
0000
0001
0010
0001
0000
,
0001
0100
0010
0000
0010
1000
0001
0000
,
0001
0100
0010
0100
0001
0100
0010
0000
,
1010
0000
0010
1000
0010
0000
0100
0000
,
0101
0000
0100
0001
0100
0000
0100
0001
,
1001
0000
1000
0001
1000
0001
1000
0000
,
1100
0000
1010
0000
0110
0001
1000
0000
,
2002
0000
0000
0000
,
0000
0000
0000
0000
,
3003
0000
0000
0000
,
0000
0000
0000
0000
,
0001
0000
0001
0000
0001
0100
0001
0100
,
1000
0000
1000
0000
0001
1000
0001
0000
,
0100
0000
0100
0000
1000
0000
1000
0010
,
1000
0001
1000
0100
1000
0001
1000
0000
,
0010
0000
1000
0000
0010
0001
0010
0000
,
1000
0000
0100
0000
0001
0100
0001
0000
,
0100
0000
0010
0000
0100
0000
1000
0001
,
1000
0000
0010
1000
0100
0000
0010
0000
,
0002
0000
1000
0000
1003
0010
1000
0002
,
0100
0100
1000
0013
,
0200
0000
0310
0001
0200
0000
0310
1000
,
0100
0101
1100
0002
,
0023
0230
2300
3020
,
0230
0320
2030
3002
,
0023
0000
0030
0000
0001
0010
0100
1000
,
0001
0000
0001
0100
1000
0000
0000
0000
,
0200
0000
0000
0001
,
0302
0000
0000
0010
,
0023
0000
1000
0000
,
2030
0000
3020
0000
,
0031
0000
1000
0000
,
0101
1100
0101
1100
,
0001
0000
1000
0000
,
0011
1010
0011
1010
,
0001
0000
0001
0010
0100
0000
0100
1000
,
0001
0000
0001
0100
0010
0000
0010
1000
,
0200
2300
3020
0230
,
0302
0023
0230
2300
,
0002
0000
0000
0000
,
0000
0000
3003
1100
,
0220
0000
0000
0330
,
0001
1000
1001
0000
,
0010
1000
0001
1000
0010
0100
0001
1000
,
0100
0010
0100
1000
0010
1000
0001
0010
,
0000
0010
0001
0100
0010
0100
0001
1000
,
0010
0100
0001
0010
0100
1000
0010
1000
,
0001
0000
0001
0100
0001
0000
0001
1000
,
0001
0000
0001
0010
0001
0000
0001
1000
,
0010
0001
0100
1000
,
0010
0110
0101
1010
,
1000
0010
0100
0001
0010
0100
1000
0001
,
0010
0100
0010
0001
0100
0010
1000
0001
,
0000
0001
1000
0001
0100
0010
1000
0001
,
0100
0010
0100
0000
0001
1000
0001
0000
,
0010
0000
1000
0001
0000
0000
0010
0000
0001
1000
0000
0000
,
0010
0000
1000
0100
0000
0000
0010
0000
0001
0100
0000
0000
,
0020
0130
1000
0001
,
0101
0110
1010
1001
,
0020
0001
0001
0001
,
0001
0001
0001
0031
,
0200
1000
1000
1000
,
1300
0000
1000
0000
1000
0001
1000
0000
,
1001
0000
0000
0000
0000
0000
0010
1010
,
0000
0000
0100
0010
,
0011
0000
0000
0001
0101
0000
0000
0000
,
1100
0000
0001
0000
1000
0001
0010
0000
,
0100
1000
0100
0010
0100
1000
0001
0100
,
0010
1000
0100
0010
0001
0000
0001
0010
,
0001
0100
0010
1000
0010
0100
0001
1000
,
0001
0100
1000
0100
0001
0100
1000
0000
,
2002
0000
0000
0000
,
0000
0000
3003
0000
;

//---------------dance-double - ----------------
#NOTEDATA:;
#CHARTNAME:;
#STEPSTYPE:dance-double;
#DESCRIPTION:;
#CHARTSTYLE:;
#DIFFICULTY:Medium;
#METER:12;
#RADARVALUES:0.565286,0.688202,0.315024,0.368808,0.026892,426.000000,41.000000,48.000000,0.000000,0.000000,0.000000,0.000000,0.000000,0.565286,0.688202,0.315024,0.368808,0.026892,426.000000,41.000000,48.000000,0.000000,0.000000,0.000000,0.000000,0.000000;
#CREDIT:;
#DISPLAYBPM:201.000000;
#NOTES:
// measure 0
00000000
00000000
00000000
00000000
,  // measure 1
00000000
00000000
00000000
00000000
,  // measure 2
00000000
00000000
00000000
00000000
,  // measure 3
00000000
00000000
00000000
00000000
,  // measure 4
00000000
00000000
00000000
00000000
,  // measure 5
00000000
00000000
00000000
00000000
,  // measure 6
00000000
00000000
00000000
00000000
00000000
00000000
00000000
00000010
,  // measure 7
00001000
00000000
00000000
00000100
00010000
00000000
00000000
00001000
,  // measure 8
00100000
00000000
00000000
00010000
01000000
00100000
00000000
00000000
,  // measure 9
20020000
00000000
00000000
00000000
,  // measure 10
00000000
00000000
00000000
00000000
,  // measure 11
30030000
00000000
00000000
00000000
,  // measure 12
00000000
00000000
00000000
00000000
,  // measure 13
01000000
01000000
00010000
00010000
,  // measure 14
00001000
00001000
00000010
00000010
,  // measure 15
00000100
00000001
00000100
00000000
00000001
00000010
00000001
00000000
,  // measure 16
00000010
00001000
00000010
00000000
00010000
00001000
00100000
00010000
,  // measure 17
20000000
00000000
00000000
30100000
00010000
00000000
00010000
00100000
,  // measure 18
20000000
00000000
00000000
31000000
00010000
00000000
00010000
01000000
,  // measure 19
10000000
00000000
00010000
00000000
01000000
00010000
00100000
00001000
,  // measure 20
00020000
00032000
00003020
00000032
,  // measure 21
00001003
00000000
00000001
00000100
00001000
00000000
00010000
00000000
,  // measure 22
00200000
01300000
00020000
10030000
,  // measure 23
01000000
00000000
00100000
00000000
00001000
00010000
00000100
00001000
,  // measure 24
00000010
00000110
00000100
00000101
,  // measure 25
00000001
00000011
00000010
00001010
,  // measure 26
00001000
00011000
00010000
00110000
,  // measure 27
00100000
10100000
10000000
11000000
,  // measure 28
01020000
00001000
01030000
10000000
,  // measure 29
01000000
00010000
00001000
00000100
,  // measure 30
00002100
00010000
00003100
00000001
,  // measure 31
00000100
00000001
00000100
00000010
00001000
00000010
00010000
00000000
,  // measure 32
00002000
00000000
00010000
00000000
00100000
00000000
01003000
00010000
,  // measure 33
00200000
00000000
00010000
00000000
00001000
00000000
01300000
10000000
,  // measure 34
00200000
00000000
00010000
00000000
10000000
00000000
01300000
00100000
,  // measure 35
00010000
00000000
00001000
00000000
00011000
00000000
00000000
00010000
,  // measure 36
00000010
00000000
00000100
00000001
00000200
00000000
00000000
00000301
,  // measure 37
00000010
00000000
00001000
00010000
00002000
00000000
00000000
00103000
,  // measure 38
00010000
00000000
01000000
00010000
10000000
00010000
01000000
00100000
,  // measure 39
10000000
11000000
00010000
00110000
,  // measure 40
00022000
00000000
00000000
00000000
,  // measure 41
00000000
00000000
00000000
00000000
,  // measure 42
00033000
00000000
00000000
00000000
,  // measure 43
00000000
00000000
00000000
00000000
,  // measure 44
00000100
00000000
00000001
00000000
00000100
00000000
00001000
00010000
,  // measure 45
00001000
00000000
00010000
00000000
01000000
00000000
10000000
00100000
,  // measure 46
00010000
00000000
00001000
00000000
00000010
00000000
00000001
00001000
,  // measure 47
00000001
00000000
00000010
00000000
00001000
00010000
00001000
00000000
,  // measure 48
00100000
00000000
00110000
00000000
00100000
00001000
00000000
00010000
,  // measure 49
00000100
00000000
00001100
00000000
00000010
00000001
00000000
00000100
,  // measure 50
00001000
00000000
00000001
00000000
00000010
00000000
00001000
00010000
,  // measure 51
00100000
00000000
00100000
10000000
01000000
00000000
01000000
10000000
,  // measure 52
00020000
00000000
00100000
00000000
00100000
00000000
00130000
00002000
,  // measure 53
00000010
00000010
00010000
01000000
,  // measure 54
00013000
00000000
00001000
00000100
00000001
00000000
00000010
00000000
,  // measure 55
00000001
00000100
00001001
00000002
,  // measure 56
00002003
00023000
20030000
30020000
,  // measure 57
00032000
00003002
00002003
00023000
,  // measure 58
20030000
00000000
30000000
00000000
10000000
00100000
01000000
00010000
,  // measure 59
00100000
00000000
00001000
00010000
00000100
00000000
00000000
00000000
,  // measure 60
00000010
00000001
00000001
00000000
,  // measure 61
00000100
00001000
00001000
00000000
,  // measure 62
00010000
00100000
00100000
00000000
,  // measure 63
10000000
01000000
01000000
00000000
,  // measure 64
00010000
00000000
00001000
00000000
,  // measure 65
00110000
00011000
00001100
00011000
,  // measure 66
00010000
00000000
00001000
00000000
,  // measure 67
00001010
00010100
00101000
00010100
,  // measure 68
00001000
00000000
00000000
00000100
00000000
00000100
00000010
00000000
00000000
00000001
00000000
00000001
,  // measure 69
00000100
00000000
00000000
00001000
00000000
00001000
00010000
00000000
00000000
01000000
00000000
01000000
,  // measure 70
20000000
30020000
20030000
30020000
,  // measure 71
00032000
00023000
00032000
00003002
,  // measure 72
00002000
00000000
00000000
00000000
,  // measure 73
00000000
00000000
00003003
00001010
,  // measure 74
00000202
00000000
00000000
00000303
,  // measure 75
00000100
00001000
00010000
00001000
00000100
00000000
00000000
00000000
,  // measure 76
00000110
00000000
00001000
00010000
00001000
00100000
00010000
01000000
,  // measure 77
00100000
01000000
00010000
10000000
01000000
00100000
00001000
00020000
,  // measure 78
00000000
00030100
00000010
00000000
00000010
00000100
00001000
00000001
,  // measure 79
00000100
00001000
00010000
00001000
00100000
00010000
01000000
00010000
,  // measure 80
00100000
00000000
00100000
10000000
00100000
00000000
00100000
00010000
,  // measure 81
00001000
00000000
00001000
00000100
00001000
00000000
00001000
00000010
,  // measure 82
00000001
00000000
00001000
00000000
00000100
00000010
00000100
00001000
,  // measure 83
00010000
00011000
01001000
01100000
,  // measure 84
10010000
00000000
10000000
00100000
10000000
01000000
00100000
01000000
,  // measure 85
00100000
00001000
00010000
00001000
00010000
00000100
00001000
00000020
,  // measure 86
00000000
00000130
00000001
00001000
00000010
00000100
00000001
00001000
,  // measure 87
00000100
00000000
00000100
00000010
00000100
00010000
00001000
00000000
,  // measure 88
00100000
00000000
00100000
00001000
00000000
00000000
01000000
00000000
01000000
00010000
00000000
00000000
,  // measure 89
10000000
00000000
00000000
00000000
10000000
00000000
00100000
00000000
00000000
00000000
00000000
00000000
01000000
00000000
00000000
00100000
00000000
00000000
01000000
00000000
00000000
00010000
00000000
00000000
,  // measure 90
10000000
00000000
10010000
00000000
01000000
00000000
00100000
00001000
,  // measure 91
00010000
00000000
01000000
00000000
10000000
01000000
00010000
00000000
,  // measure 92
01020000
00000000
00001000
00000000
,  // measure 93
00000100
00000000
00030010
00000110
,  // measure 94
00002100
00000000
00010000
00000000
,  // measure 95
00100000
00000000
00003000
00000000
01000000
00100000
01000000
00000000
,  // measure 96
10010000
00000000
00000000
00000000
00000000
00000000
00010000
00001000
,  // measure 97
00000000
00000000
00001000
00000001
,  // measure 98
00001001
00000000
00000000
00000010
00000100
00000000
00000000
00000000
,  // measure 99
00001000
00000000
00011000
00000000
00010000
01000000
10000000
00000000
,  // measure 100
00010000
10000000
00010000
01000000
00001000
01000000
00001000
00010000
,  // measure 101
00000010
00010000
00000010
00001000
00000001
00000000
00000001
00000010
,  // measure 102
00000001
00000100
00000010
00001000
00000100
00010000
00001000
00100000
,  // measure 103
00010000
01000000
00100000
10000000
01000000
00100000
00000000
00000000
,  // measure 104
00022000
00000000
00000000
00000000
,  // measure 105
00000000
00000000
00000000
00033000
00000000
00000000
00000000
00000000
;

//---------------dance-double - ----------------
#NOTEDATA:;
#CHARTNAME:;
#STEPSTYPE:dance-double;
#DESCRIPTION:;
#CHARTSTYLE:;
#DIFFICULTY:Challenge;
#METER:17;
#RADARVALUES:0.845185,1.000000,0.322707,0.576263,0.568579,653.000000,42.000000,75.000000,0.000000,0.000000,0.000000,0.000000,0.000000,0.845185,1.000000,0.322707,0.576263,0.568579,653.000000,42.000000,75.000000,0.000000,0.000000,0.000000,0.000000,0.000000;
#CREDIT:;
#DISPLAYBPM:201.000000;
#NOTES:
// measure 0
00000000
00000000
00000000
00000000
,  // measure 1
00000000
00000000
00000000
00000000
,  // measure 2
00000000
00000000
00000000
00000000
,  // measure 3
00000000
00000000
00000000
00000000
,  // measure 4
00000000
00000000
00000000
00000000
,  // measure 5
00000000
00000000
00000000
00000000
,  // measure 6
00000000
00000000
00000000
00000000
00000000
00000000
00000000
00010000
,  // measure 7
00100000
00000000
00000000
00100000
10000000
00000000
00000000
10000000
,  // measure 8
01000000
00000000
00000000
00000000
00000000
00000000
00010000
00001000
00000100
00000000
00000010
00000000
00000000
00000000
00000000
00000000
,  // measure 9
00000022
00000000
00000000
00000000
,  // measure 10
00000000
00000000
00000000
00000000
,  // measure 11
00000033
00000000
00000000
00000000
,  // measure 12
00000000
00000000
00000000
00000000
,  // measure 13
00000100
00000100
00001000
00001000
,  // measure 14
00010000
00010000
00100000
00100000
,  // measure 15
10000000
00000000
00100000
00000000
01000000
00000000
00010000
00000000
00100000
00000000
00001000
00000000
00010000
00000000
00000100
00001000
,  // measure 16
00000010
00001000
00000010
00000000
00000100
00000001
00000100
00000000
00000001
00001000
00000001
00000000
00000010
00000100
00000010
00000000
,  // measure 17
00000100
00000000
00001000
00000000
00000001
00000000
00000100
00000001
00001000
00000000
00000100
00000000
00000010
00000000
00000100
00010000
,  // measure 18
00001000
00000000
00010000
00000000
00000100
00000000
00010000
00001000
00100000
00000000
00001000
00000000
00010000
00000000
01000000
00100000
,  // measure 19
00010000
00100000
01000000
10000000
00100000
00100000
01000000
01000000
,  // measure 20
00010000
00000000
01000000
00000000
00001000
00000000
00010000
00000000
00000100
00000000
00001000
00000000
00010000
00000000
01000000
00100000
,  // measure 21
01000000
00000000
00010000
00000000
10000000
00000000
01000000
00100000
01000000
00000000
00010000
00000000
00001000
00000000
00000100
00000010
,  // measure 22
00000100
00000000
00000001
00000000
00001000
00000000
00000100
00000010
00000100
00000000
00001000
00000000
00000001
00000000
00000100
00000000
,  // measure 23
00000010
00000000
00000010
00000000
00000001
00000100
00001000
00010000
,  // measure 24
00022000
00000000
00033000
00200000
00002000
00000000
00303000
00020000
02000000
00000000
03030000
00200000
20000000
00000000
30300000
00000000
,  // measure 25
22000000
00000000
33000000
00200000
00020000
00000000
00330000
00002000
00020000
00000000
00033000
00000020
00002000
00000000
00003030
00000000
,  // measure 26
00000202
00000000
00000303
00000020
00000200
00000000
00000330
00020000
00000200
00000000
00030300
00002000
02000000
00000000
03003000
00000000
,  // measure 27
00220000
00000000
00330000
20000000
02000000
00000000
33000000
00020000
02000000
00000000
03030000
00000000
00202000
00000000
00303000
00000000
,  // measure 28
00011000
00000000
00000000
00001000
00000200
00000000
00000300
00000001
00000200
00000000
00000300
00000010
00000200
00000000
00001300
00010000
,  // measure 29
00002000
00000000
00003000
00000100
00002000
00000000
00003000
00100000
00020000
00000000
00030000
01000000
00020000
00000000
00030000
00100000
,  // measure 30
02000000
13000000
02000000
03010000
02000000
13000000
02000000
03010000
,  // measure 31
00001000
00010000
00001000
00000000
00010000
00000100
00010000
00000000
00000010
00001000
00000010
00001000
00000001
00000010
00000001
00000010
,  // measure 32
00000100
00000000
00000000
00000000
00000000
00000000
00001000
00000000
00000000
00000010
00000000
00000000
00000001
00000000
00000000
00000010
00000000
00000000
00000100
00000000
00001000
00000000
00010000
00000000
,  // measure 33
00100000
00000000
00000000
10000000
00000000
00000000
01000000
00000000
00000000
00100000
00000000
00000000
01000000
00000000
00000000
10000000
00000000
00000000
00100000
00000000
00010000
00000000
00001000
00000000
,  // measure 34
00000100
00000000
00000000
00000001
00000000
00000000
00000010
00000000
00000000
00000100
00000000
00000000
00000010
00000000
00000000
00000001
00000000
00000000
00000100
00000000
00001000
00000000
00010000
00000000
,  // measure 35
00100000
00000000
10000000
00000000
01000000
00000000
00100000
01000000
00100000
00000000
01000000
00000000
01100000
00000000
00000000
00000000
,  // measure 36
10000000
00000000
00100000
00000000
01000000
00000000
00010000
01000000
00100000
00000000
01000000
00000000
00001000
00000000
00010000
00001000
,  // measure 37
00010000
00000000
01000000
00000000
00010000
00000000
00001000
00010000
00001000
00000000
00000100
00000000
00000010
00000000
00001000
00000010
,  // measure 38
00000100
00000001
00000010
00000100
00001000
00000001
00000100
00000010
,  // measure 39
00000110
00001100
00011000
00110000
,  // measure 40
02200000
00000000
00000000
00000000
,  // measure 41
00000000
00000000
00000000
03300000
,  // measure 42
00000000
00000000
00000000
00000000
,  // measure 43
00000000
00000000
00000000
00000000
00000000
00000000
00000000
00000000
00010000
00001000
00010000
00001000
00010000
00000000
00000000
00000000
,  // measure 44
00001100
00000000
00001100
00000000
00000010
00000001
00000100
00001000
,  // measure 45
00001100
00000000
00000000
00000000
00001100
00000000
00000000
00000000
00001000
00000000
00010000
00000000
01000000
00000000
10000000
01000000
,  // measure 46
10000000
00000000
00000000
00000000
11000000
00000000
00000000
00000000
10000000
00000000
00100000
00000000
00010000
00000000
00001000
00010000
,  // measure 47
00002000
00000000
00000100
00000000
00013000
01000000
00010000
00000000
,  // measure 48
00001000
00000100
00000010
00000000
00010000
00001000
00000010
00000001
,  // measure 49
00001000
00000100
00000010
00000000
00001000
00010000
00100000
10000000
,  // measure 50
00010000
00100000
01000000
00000000
01000000
00010000
00001000
00000100
,  // measure 51
00000001
00001000
00000100
00000100
00000100
00000000
00000010
00000001
,  // measure 52
00000100
00000010
00000001
00001000
00000100
00000010
00001000
00000100
,  // measure 53
00000010
00000000
00010000
00000000
00001000
00000000
00000100
00000000
00010000
00000000
00001000
00000000
00000100
00000000
00001000
00010000
,  // measure 54
00001000
00000000
00010000
00000000
00100000
00000000
00001000
00000000
00010000
00000000
00100000
00000000
00010000
00000000
00100000
00010000
,  // measure 55
00100000
01000000
10000000
00100000
01000000
10000000
01000000
00010000
,  // measure 56
20000000
01000000
30020000
01000000
00230000
01000000
00302000
01000000
,  // measure 57
00023000
00000010
00030200
00000010
00002300
00000100
00003002
00000100
,  // measure 58
00000023
00000100
00000130
00000000
00000010
00000001
00000100
00001000
,  // measure 59
00010000
00000000
00001000
00010000
00022000
00000000
00033000
00000000
,  // measure 60
00000000
00010000
00020000
00030000
,  // measure 61
00000000
00000100
00000200
00000300
,  // measure 62
00000000
00001000
00002000
00003000
,  // measure 63
00000000
01000000
02000000
03000000
,  // measure 64
10000000
00000000
00010000
00000000
,  // measure 65
00001000
00010000
00100000
10000000
00000000
00000000
10000000
01000000
00010000
00001000
00000000
00000000
,  // measure 66
00001000
00000000
00000001
00000000
,  // measure 67
00000001
00000100
00001000
00010000
00000000
00000000
00010000
00001000
00000010
00000001
00000000
00000000
,  // measure 68
00000001
00000000
00000000
00000100
00000000
00000000
00000010
00000000
00001000
00000000
00000100
00000000
00010000
00000000
00000000
00001000
00000000
00000000
00100000
00000000
00001000
00000000
00010000
00000000
,  // measure 69
01000000
00000000
00000000
00100000
00000000
00000000
00010000
00000000
01000000
00000000
00100000
00000000
10000000
00000000
01000000
00000000
00100000
00000000
00001000
00000000
00010000
00000000
00000100
00000000
,  // measure 70
00001000
00000000
00000000
00001000
00000000
00000000
00000001
00000000
00000010
00000000
00000100
00000000
00001000
00000000
00000000
00001000
00000000
00000000
00000010
00000000
00000100
00000000
00001000
00000000
,  // measure 71
00010000
00000000
00000000
00010000
00000000
00000000
00001000
00000000
00010000
00000000
00100000
00000000
01000000
00000000
00000000
01000000
00000000
00000000
00010000
00000000
00000000
10000000
00000000
00000000
,  // measure 72
20020000
00000000
00000000
00000000
,  // measure 73
00000000
00000000
30000000
00130000
,  // measure 74
00022000
00000000
00000000
00033000
,  // measure 75
00001000
00000100
00001000
00010000
01000000
00010000
00001000
00000000
00000000
00000000
00000000
00000000
,  // measure 76
00011000
00000000
00000100
00000010
00000000
00000000
00001100
00000000
00000010
00000001
00000000
00000000
00001000
00000001
00001000
00000010
,  // measure 77
00000100
00000000
00001000
00010000
00000000
00000000
00010100
00000000
00001000
00100000
01000000
00000000
00100000
01000000
20000000
00000000
,  // measure 78
00000000
00000000
31000000
00000000
10010000
00000000
00000000
00000000
10000000
00000000
01000000
00000000
00100000
00000000
00010000
01000000
,  // measure 79
00001000
00000000
00001000
00010000
00000100
00000000
00000100
00001000
00000001
00000000
00000001
00000010
00000100
00001000
00000001
00000100
,  // measure 80
00000001
00000000
00000001
00000000
00000010
00000001
00001000
00000010
00000100
00000000
00000100
00000000
00000010
00001000
00000100
00010000
,  // measure 81
00001000
00000000
00001000
00000000
00010000
00001000
00100000
00010000
01000000
00000000
01000000
00000000
00100000
01000000
00010000
10000000
,  // measure 82
01000000
00000000
01000000
00000000
00100000
00000000
00010000
10000000
01000000
00000000
00010000
00000000
00001000
00000000
00000010
00000000
,  // measure 83
00000011
00000000
00000001
00000000
00000101
00000000
00000100
00000000
00001100
00000000
00001000
00000000
00011000
00000000
00001000
00010000
,  // measure 84
01000000
00000000
10000000
01000000
00000000
00000000
00110000
00000000
10000000
01000000
00000000
00000000
00100000
00010000
10000000
00100000
,  // measure 85
01000000
00000000
00100000
10000000
01000000
00000000
00100000
00010000
01000000
00000000
00100000
00000000
00010000
00000000
00002000
00000000
,  // measure 86
00000000
00000000
00000000
00003010
00000000
00000000
00000110
00000000
00000000
00000000
00000000
00000000
00000100
00000000
00000000
00000100
00000000
00000000
00001000
00000000
00000100
00000000
00000010
00000000
,  // measure 87
00000001
00000001
00000100
00000010
00001000
00001001
00000000
00000000
,  // measure 88
00000010
00000001
00000100
00001000
00010000
00100000
10000000
01000000
00010000
00001000
00000010
00000001
,  // measure 89
00000100
00000000
00000000
00000000
00001000
00000000
00000000
00000000
00010000
00000000
00000000
00000000
00100000
00000000
00000000
00000000
10000000
00000000
00000000
00000000
01000000
00000000
00000000
00000000
00010000
00000000
00000000
00000000
00000000
00000000
00001000
00000000
00000000
00000000
00000000
00000000
00000100
00000000
00000000
00000000
00000000
00000000
00000010
00000000
00000000
00000100
00000000
00000000
,  // measure 90
00000010
00000000
00000000
00000100
00000000
00000000
00001001
00000000
00000000
00000000
00000000
00000000
00000100
00000000
00000000
00000000
00000000
00000000
00000001
00000000
00000010
00000000
00001000
00000000
,  // measure 91
00010000
00010000
01000000
00100000
01000000
00100000
01000000
00000000
,  // measure 92
22000000
00000000
00000000
00000000
,  // measure 93
00000000
00000000
00000000
33000000
,  // measure 94
02020000
00000000
00000000
00000000
,  // measure 95
00000000
00000000
00000000
00000000
03030000
00000000
00000000
00000000
01000000
00010000
00100000
00001000
00010000
00000000
00000000
00000000
,  // measure 96
00011000
00000000
00000000
00000000
00000000
00000000
00001010
00000101
,  // measure 97
00000000
00000000
00001000
00010000
,  // measure 98
00010010
00000000
00000000
00100000
01001000
00000000
00000000
00000000
,  // measure 99
10100000
00000000
10010000
00000000
01000000
00010000
00000000
00001000
,  // measure 100
00010000
00000000
00000100
00000000
00001000
00000000
00000001
00000100
00000010
00000100
00000001
00000000
00000010
00000000
00001000
00000000
,  // measure 101
00100000
00000000
00010000
00000000
01000000
00100000
10000000
00100000
01000000
00000000
00100000
00000000
10000000
01000000
00100000
00010000
,  // measure 102
01000000
00000000
01000000
00000000
00010000
00100000
00001000
00010000
00000100
00000000
00000100
00000000
00000010
00000001
00001000
00000010
,  // measure 103
00000100
00000000
00000100
00000000
00000001
00001000
00000010
00000100
00001000
00010000
00001000
00100000
00010000
01000000
00100000
20000000
,  // measure 104
02000000
00000000
00000000
00000000
,  // measure 105
00000000
33000000
00000000
00000000
;
