#TITLE:I'M FOR REAL ;
#SUBTITLE:"Freeze" special;
#ARTIST:SLAKE;
#TITLETRANSLIT:;
#SUBTITLETRANSLIT:;
#ARTISTTRANSLIT:;
#CREDIT:;
#BANNER:I'M FOR REAL.png;
#BACKGROUND:I'M FOR REAL-bg.png;
#LYRICSPATH:;
#CDTITLE:./CDTITLES/BEATMANIA IIDX.PNG;
#MUSIC:I'M FOR REAL.mp3;
#OFFSET:-1.768;
#SAMPLESTART:34.320;
#SAMPLELENGTH:12.000;
#SELECTABLE:YES;
#DISPLAYBPM:140.000;
#BPMS:0.000=140.000;
#STOPS:;
#BGCHANGES:;

//---------------dance-double - ----------------
#NOTES:
     dance-double:
     :
     Easy:
     3:
     0.200,0.220,0.087,0.000,0.000:
00000000
00000000
00000000
00000000
,
00000000
00000000
00000000
00000000
,
00000000
00000000
00000000
00000000
,
00100000
00000000
00000000
00000000
,
10000000
00000000
00000000
00000000
,
00010000
00000000
00000000
00000000
,
01000000
00000000
00000000
00000000
,
00100000
00000000
10000000
00000000
,
01000000
00010000
00001000
00000000
,
00000010
00000001
00000100
00000000
,
00000010
00001000
00000100
00000000
,
00000010
00000000
00000001
00000000
,
00000100
00000000
00001000
00000000
,
00010000
00000000
01000000
00000000
,
10000000
00010000
01000000
00100000
,
10000000
00000000
01000000
00000000
,
00010000
00000000
00000010
00000000
,
00001000
00000000
00000001
00000000
,
00000100
00000010
00001000
00000001
,
00001001
00000000
00000010
00000000
,
00000100
00000000
00001000
00000000
,
00000001
00000010
00001000
00010000
,
00100000
00000000
10000000
00000000
,
10010000
00000000
01000000
00000000
,
00100000
00000000
10000000
00000000
,
01000000
00010000
00001000
00000100
,
00000001
00000000
00001000
00000000
,
00000110
00000000
00000001
00000000
,
00000010
00000100
00001000
00000000
,
00011000
00000000
01000000
00000000
,
00100000
10000000
01000000
00000000
,
00100000
00010000
10000000
01000000
,
00010000
00001000
00010000
00000000
,
00001000
00000100
00000001
00000010
,
00000100
00001000
00000001
00000000
,
00001001
00000000
00000010
00000000
,
00000001
00000100
00001000
00000000
,
00010000
01000000
10000000
00000000
,
00100000
00000000
01000000
00000000
,
10010000
00000000
00100000
00000000
,
10000000
01000000
00010000
00000000
,
00001000
00000010
00000001
00000000
,
00000100
00000000
00000010
00000000
,
00001001
00000000
00000010
00000000
,
00000100
00000000
00000001
00000000
,
00000010
00001000
00010000
00100000
,
10000000
00000000
00010000
00000000
,
10010000
00000000
00100000
00000000
,
01000000
00000000
10000000
00000000
,
00100000
00010000
00001000
00000010
,
00000001
00001000
00000100
00000010
;

//---------------dance-double - ----------------
#NOTES:
     dance-double:
     :
     Medium:
     4:
     0.321,0.358,0.141,0.119,0.000:
00000000
00000000
00000000
00000000
,
00000000
00000000
00000000
00000000
,
00000000
00000000
00000000
00000000
,
00002000
00000000
00000000
00003000
,
00000002
00000000
00000000
00000003
,
00000200
00000000
00000000
00000300
,
00002000
00000000
00000000
00003000
,
00020000
00030000
02000000
03000000
,
10000000
00020000
01030000
00000000
,
00100000
20000000
31000000
00000000
,
00100000
00000000
00010000
00000000
10000000
01000000
00010000
00000000
,
00001000
00010000
00000100
00000010
,
00000001
00001000
00000010
00000100
,
00000001
00000001
00000010
00001000
,
00010000
00010000
01000000
10000000
,
00010000
00100000
10000000
00100000
,
00010000
01000000
01000000
00100000
,
10000000
01000000
00010000
00001000
,
00000010
00000000
00000100
00001000
00000001
00000000
00000110
00000000
,
00001001
00000000
00000010
00000000
00001000
00000100
00000001
00000000
,
00000100
00001000
00000010
00000100
,
00000000
00001000
00010000
01000000
,
10000000
00000000
00100000
00000000
01000000
00010000
10000000
00000000
,
01100000
00010000
10000000
00100000
,
00010000
00001000
00000010
00000001
,
00001000
00000010
00000100
00000001
,
00000000
00000010
00000001
00001000
,
00000110
00000001
00001000
00000011
,
00000100
00001000
00010000
01001000
,
00100000
10000000
00010000
00100000
,
01000000
10000000
00100000
01010000
,
10000000
00000000
00100000
00010000
00001000
00000000
00001100
00000000
,
00000010
00000000
00000001
00000100
00001000
00000000
00011000
00000000
,
00100000
00000000
10000000
00010000
01000000
00000000
11000000
00000000
,
00100000
00000000
00001000
00010000
00001000
00000000
00001010
00000000
,
00000000
00000001
00000100
00000010
,
00001000
00000000
00000100
00000000
00000010
00000001
00000100
00000000
,
00000010
00001000
00100000
01000000
,
00010000
00000000
10000000
00000000
01000000
00100000
00010000
00000000
,
10000000
00100000
01000000
00010000
,
00001000
00000000
00000010
00000000
00000100
00000001
00000010
00000000
,
00000200
00000300
00002000
00003000
,
00000002
00000003
00000010
00001000
,
00011000
00100000
10000000
00010000
,
00100000
00000000
01000000
00000000
10000000
00010000
01000000
00000000
,
00000000
00001000
00010000
00000100
,
00000010
00000000
00000001
00000000
00001000
00000001
00000100
00000000
,
00001100
00010000
00100000
10000000
,
01000000
00000000
00010000
00000000
00001000
00000100
00000001
00000000
,
00000000
00000001
00000010
00001000
,
00010000
00000000
00100000
10000000
01000000
00000000
00100000
00000000
;

//---------------dance-double - ----------------
#NOTES:
     dance-double:
     :
     Hard:
     6:
     0.373,0.442,0.228,0.173,0.000:
00000000
00000000
00000000
00000000
,
00000000
00000000
00000000
00000000
,
00000000
00000000
00000000
00000000
,
20000000
00000000
00000000
30000000
,
00020000
00000000
00000000
00030000
,
00002000
00000000
00000000
00003000
,
00000000
00000020
00000200
00000030
,
00000002
00000300
00001003
00000000
,
00000110
00000001
00001000
00000100
,
00000011
00001000
00010000
00100000
,
11000000
00010000
01000000
00100000
,
10010000
01000000
00100000
00010000
,
20000000
01000000
00010000
30100000
,
01000000
00010000
00001000
00000010
,
00000100
00000001
00000010
00000100
,
00001001
00000100
00000010
00001000
,
00000002
00000100
00001000
00000013
,
00000100
00001000
00010000
01000000
,
10000000
00010000
00100000
01000000
,
10000000
00010000
01000000
00100000
,
10010000
00000000
01000000
00000000
00100000
10000000
01000000
00000000
,
00100000
00010000
00001000
00000010
,
00000101
00001000
00000100
00000010
,
00000001
00001000
00000010
00000100
,
00001001
00000000
00000010
00000000
00000001
00000100
00001000
00000000
,
00010000
00100000
10000000
01000000
,
00100000
00010000
10000000
00010000
,
01100000
00000000
10000000
01000000
00010000
00000000
00011000
00000000
,
00001000
00000000
00010000
00000100
00000010
00000000
00001001
00000000
,
00000010
00000100
00001000
00100000
,
00010000
01000000
00100000
00000000
10000000
01000000
00100000
00000000
,
00011000
00000000
00000010
00001000
00000100
00000000
00000101
00000000
,
00000010
00000000
00001000
00010000
01000000
00000000
10010000
00000000
,
00100000
00000000
01000000
00000000
00100000
10000000
01000000
00000000
,
00110000
00001000
00001100
00000010
,
00000002
00000103
00002000
00003100
,
00000010
00000001
00000100
00000000
00000010
00001000
00000100
00000000
,
00010000
00001000
01000000
00100000
,
10000000
01000000
00010000
00000000
01000000
10000000
00010000
00000000
,
00100000
00000000
01000000
00000000
10000000
00010000
01000000
00000000
,
00100000
00000000
00010000
00000000
00001000
00000100
00000001
00000000
,
00000010
00000100
00001000
00000010
,
00000100
00000001
00002100
00003010
,
00001002
00000000
00000103
00000000
00000010
00001000
00000100
00000000
,
00020010
00000000
00031000
00000000
00100000
01000000
10000000
00000000
,
00100000
01000000
00010000
10000000
,
00100000
01000000
00010000
00100000
10000000
00100000
00010000
00000000
,
00102000
00000000
01003000
00000000
00100000
10000000
01000000
00000000
,
00210000
00000000
00301000
00000000
00000100
00000010
00001000
00000000
,
00000001
00000010
00001000
00010000
,
00100000
10000000
01000000
00100000
00010000
01000000
00200000
00000000
,
00300000
00000000
00000000
00000000
;

//---------------dance-single - ----------------
#NOTES:
     dance-single:
     :
     Challenge:
     12:
     0.547,0.608,0.217,1.000,0.136: // measure 1
2002
0000
3003
0000
0010
0100
0000
0012
,  // measure 2
0000
0000
2000
0023
3000
0000
0230
0000
,  // measure 3
0302
0000
1003
0020
0230
0000
0301
0020
,  // measure 4
0000
2000
0030
0000
3200
0000
0320
0000
,  // measure 5
0032
0000
1003
0020
0000
0000
0200
0000
,  // measure 6
0000
0000
0300
0000
0000
0200
0000
0030
,  // measure 7
0000
2300
0000
0000
0000
0002
3000
0000
,  // measure 8
0000
0020
0000
0000
0003
0200
0030
0000
,  // measure 9
0000
2300
0000
0020
3000
0000
0032
0000
,  // measure 10
2003
3002
2003
3002
,  // measure 11
0023
0000
0230
0300
0010
0100
0010
0110
,  // measure 12
0000
0010
0110
0100
0000
0110
0110
0110
,  // measure 13
0220
0000
0000
0000
0000
0000
0000
0300
,  // measure 14
0001
0001
1000
1000
0100
0100
0001
0001
,  // measure 15
1000
0000
1000
0000
0001
1000
0001
0000
,  // measure 16
0001
0000
0001
0030
0010
0100
0110
0000
,  // measure 17
0020
0000
0100
0200
0000
0000
0000
0030
,  // measure 18
2000
0000
0000
0000
3002
0000
0000
0020
,  // measure 19
0003
0000
0000
0330
0100
0000
0010
0100
,  // measure 20
0010
0100
0010
0100
0010
0100
0010
0100
,  // measure 21
0010
0100
0010
0100
0020
0000
0000
0000
,  // measure 22
0000
0000
1000
1000
1000
1000
1000
0000
,  // measure 23
0000
0001
0001
0001
0001
0001
0000
0030
,  // measure 24
0010
0010
0010
0000
0010
0010
0010
0000
,  // measure 25
0100
0100
0100
0100
0100
0000
0000
0000
0010
0100
0010
0100
0010
0000
0000
0000
,  // measure 26
0000
0001
0010
0100
1000
0001
0010
0100
,  // measure 27
1000
0010
0000
2002
0000
3003
0220
0000
,  // measure 28
0330
2002
3003
0220
,  // measure 29
0330
0200
0300
0010
,  // measure 30
0200
2300
3020
0230
,  // measure 31
0320
0230
2300
3200
,  // measure 32
0320
0230
2300
0000
,  // measure 33
3000
0002
0000
0200
0000
0000
0000
0000
,  // measure 34
0320
0000
0000
0230
0000
0000
0000
2300
,  // measure 35
0000
0000
3200
0000
0320
0000
0000
0030
,  // measure 36
0000
0000
1000
0003
0010
0100
0010
0100
,  // measure 37
0010
0001
1000
0010
0100
0010
0101
2000
,  // measure 38
0000
3020
0230
0302
,  // measure 39
2003
0000
0000
0000
0000
0000
0000
0000
3000
0000
0010
0000
1001
1001
1001
0000
,  // measure 40
0010
0000
0000
0000
0000
0000
0000
0000
0000
0000
0000
0000
0000
0000
0000
0000
0100
0000
0000
0000
0000
0000
0000
0000
0000
0000
0000
0000
0000
0000
0000
0000
0000
0000
0000
0000
0000
0000
0000
0000
0010
0000
0000
0000
0000
0000
0000
0000
0100
0000
0000
0000
0000
0000
0000
0000
0000
0000
0002
0000
0000
0000
0000
2000
,  // measure 41
0000
0000
3000
0000
0200
0000
0000
0000
0300
0000
0000
0000
0000
0000
0000
0000
0000
0000
0000
0000
0000
0000
0000
0003
0000
0000
0000
0000
0000
0000
0000
0000
0000
0000
0000
0000
0000
0000
0000
0000
1000
0000
0000
0000
0000
0000
0000
0000
0100
0000
0000
0000
2000
0000
0000
0000
0010
0000
0000
0000
3000
0000
0000
0000
,  // measure 42
0001
0000
1000
0000
0100
2000
0010
3000
0001
0000
1000
0000
0100
2000
0010
3000
,  // measure 43
0001
1000
0100
0010
0001
2000
0000
0000
,  // measure 44
0001
0000
0001
0000
0001
0000
0001
0000
0001
0000
0000
0000
0010
0010
0010
0000
,  // measure 45
0100
0100
0100
0100
,  // measure 46
3000
0010
0000
0010
0000
0010
0000
0010
,  // measure 47
0100
0000
0000
0100
0100
0100
0100
0000
0000
0000
0100
0000
0000
0000
0100
0000
,  // measure 48
0000
0000
0000
0000
0000
0000
0000
0000
0100
0000
0000
0000
0000
0000
0000
0000
0000
0000
0000
0000
0000
0000
0000
0000
0100
0000
0000
0000
0000
0000
0000
0000
0000
0000
0000
0000
0000
0000
0000
0000
0010
0000
0000
0000
0000
0000
0000
0000
0010
0000
2000
0000
0000
0000
0000
0000
0000
0000
0000
3000
0000
0002
0000
0000
,  // measure 49
0010
0000
0000
0000
0000
0000
0003
0200
0000
0000
0000
0000
0000
0000
0000
0000
0010
0300
0000
0000
0000
0000
0002
0000
0000
0000
0000
0000
0000
0000
0000
0003
0010
0000
0000
2000
0000
0000
0000
0000
0000
0000
0000
0000
0000
0000
0000
0000
0010
0000
0000
0000
0000
0000
0000
0000
0000
3000
0000
0000
0000
0000
0000
0000
,  // measure 50
0002
0000
0000
0000
0000
0000
0000
0000
0000
0000
0000
0000
0000
0000
0000
0000
0000
0000
0000
0000
0000
0000
0000
0000
2000
0000
0000
0000
0000
0000
0000
0000
0000
0000
0000
0000
0000
0000
0000
0000
0000
0000
0000
0000
0000
0000
0000
0000
0000
0000
0000
0000
0000
0000
0000
0000
0000
0000
0000
0000
0000
0000
0000
0003
,  // measure 51
0000
0020
0000
0000
0000
0000
0000
0000
3030
0000
0000
0000
2000
0000
3200
0000
0320
0000
0032
0000
0003
0000
0000
2002
0000
3003
2002
0000
3003
2002
0000
3003
;
