#TITLE:I Shit Oneself;
#SUBTITLE:;
#ARTIST:Kusokade feat.布亜糞悠;
#TITLETRANSLIT:;
#SUBTITLETRANSLIT:;
#ARTISTTRANSLIT:;
#CREDIT:;
#BANNER:I Shit Onese.png;
#BACKGROUND:I Shit Oneself_b;
#LYRICSPATH:;
#CDTITLE:;
#MUSIC:I Shit Oneself.mp3;
#OFFSET:-0.020;
#SAMPLESTART:15.015;
#SAMPLELENGTH:12.000;
#SELECTABLE:YES;
#BPMS:0.000=128.000;
#STOPS:;
#BGCHANGES:;

//---------------dance-single - ----------------
#NOTES:
     dance-single:
     :
     Hard:
     14:
     0.549,0.580,0.211,0.138,0.000:
0000
0000
0000
0000
,
0000
0000
0000
0000
,
0000
0000
0000
0000
,
0000
0000
0000
0000
,
0010
0001
0010
0001
0010
0001
0010
0001
,
1000
0100
1000
0100
1000
0100
1000
0100
,
0010
0100
0010
0100
0010
0100
0010
0100
,
1000
0001
1000
0001
1000
0001
1001
0000
,
0010
0001
0010
0002
0000
0103
0100
0010
,
0200
0001
0000
0001
0000
0301
1000
0100
,
1000
0020
0000
0100
0000
0130
0010
1000
,
0200
0010
0000
0010
0000
0310
0000
0001
,
0100
0020
0000
1000
0000
1000
0000
1030
,
0200
0001
0000
0001
0000
0001
0000
0310
,
1000
0002
0000
0100
0000
1000
0000
0100
,
0000
1000
0000
0100
0000
1000
0000
0103
,
0020
1000
0000
1000
0000
1000
0000
0130
,
0002
0100
0000
0100
0000
0203
0000
0310
,
2000
0001
0000
0100
0000
0001
0000
3100
,
0020
0001
0000
1000
0000
1000
0000
0031
,
0200
0010
0000
1000
0000
0001
0000
0310
,
0200
0001
0000
1000
0000
1000
0000
0301
,
0020
1000
0000
0100
0000
0001
0000
0100
,
0000
1000
0000
0100
0000
0031
1001
0000
,
0001
0010
0001
0010
0100
1000
0010
0100
,
0001
1000
0100
0010
0001
0010
1000
0010
,
0001
0100
0010
1000
0001
0100
1000
0100
,
0010
1000
0001
0010
0100
1000
0010
0100
,
0001
1000
0100
1000
0001
0100
0010
1000
,
0100
1000
0001
0100
0010
1000
0001
0010
,
1000
0010
0001
1000
0010
0100
0001
0010
,
0001
0010
0100
1000
0001
0100
0010
1000
,
0001
0100
0010
1000
0001
0010
0100
1000
,
0001
1000
0100
0001
0100
0010
0001
1000
,
0010
0100
0001
1000
0010
0100
0001
0010
,
1000
0001
0100
1000
0010
0100
0001
1000
,
0010
0001
1000
0100
0001
1000
0010
1000
,
0001
0010
0100
1000
0100
0010
0001
0010
,
0100
1000
0010
0100
0001
1000
0010
0100
,
0001
0010
0100
1000
0001
1000
1001
0000
,
0010
1010
1000
0001
0100
0001
0100
0010
,
1000
1100
0010
0001
0010
0100
1000
0010
,
0100
0101
0010
1000
0100
0010
0001
1000
,
0010
1001
0001
0100
0010
1000
0100
0010
,
0001
0011
0001
1000
0010
0100
0001
1000
,
0001
1010
0001
0100
0001
0010
0100
1000
,
0010
1001
0001
0100
0010
1000
0001
1000
,
0001
1001
0001
0010
0100
1000
0010
0100
,
0010
0110
0001
1000
0001
0010
0100
1000
,
0001
0011
0100
1000
0010
0100
0001
1000
,
0001
1001
0001
0010
0001
0010
0100
1000
,
0010
1010
0001
0100
1000
0100
0001
1000
,
1010
0001
0010
0001
0011
0100
1000
0010
,
1010
0001
0100
0001
0101
0010
1000
0010
,
0110
0001
0010
0100
0110
0001
1000
0010
,
1010
0001
0100
0001
0101
0100
1001
0000
,
1000
0100
1000
0100
0001
0100
0001
0100
,
1000
0001
1000
0001
1000
0100
1000
0100
,
0010
0001
1000
0100
0010
0001
0010
1000
,
0010
0001
0100
0001
0010
1000
0001
0010
,
0100
0001
1000
0001
0100
1000
0010
1000
,
0100
0001
0010
0001
0100
1000
0010
1000
,
0100
0001
0010
1000
0001
0100
1000
0010
,
0100
0001
1000
1000
0100
0010
1001
0000
,
2002
0000
0000
0000
,
3003
0000
0000
0000
;

//---------------dance-single - ----------------
#NOTES:
     dance-single:
     :
     Medium:
     10:
     0.374,0.395,0.381,0.243,0.000:
0000
0000
0000
0000
,
0000
0000
0000
0000
,
0000
0000
0000
0000
,
0000
0000
0000
0000
,
0010
0000
0010
0000
0010
0000
0010
1000
,
0100
0000
0100
0000
0100
0000
0010
0001
,
0100
0000
0100
0000
0100
0000
0010
1000
,
0001
0001
1000
1001
,
0020
0000
0000
0030
,
2002
0000
0000
3003
,
0002
0000
0000
0003
,
2200
0000
0000
3300
,
0020
0000
0000
0030
,
0220
0000
0000
0330
,
2002
0000
0000
3003
,
0220
0000
0000
0330
,
2020
0000
0000
3030
,
0022
0000
0000
0033
,
2002
0000
0000
0000
0000
0000
0000
3003
,
2200
0000
0000
3300
,
2020
0000
0000
3030
,
0022
0000
0000
0033
,
2002
0000
0000
0000
,
0000
0000
0000
3003
,
0010
1000
0100
0000
0010
0001
0100
0000
,
0010
1000
0010
1000
0001
0100
0001
0000
,
0001
0000
0010
0000
0100
0010
0001
0000
,
0001
0100
1000
0010
0100
0000
0010
0010
,
0001
0000
0001
0010
0100
0000
1000
0001
,
1000
0001
0000
1001
0000
0010
0100
0010
,
1000
0000
0001
0001
1000
0000
1100
0000
,
0010
0001
0010
0001
1000
0100
1000
0000
,
0010
0000
0001
0010
0100
0000
1000
0010
,
0100
0001
0100
0000
0010
0000
1000
0010
,
1000
0000
0001
0000
0100
0010
0100
0000
,
0001
0000
1000
0000
0001
0100
1000
0100
,
0001
0000
1000
0100
0001
0100
1000
0000
,
0010
0000
0100
0000
0010
0100
0001
0100
,
0002
1000
1000
1000
,
1000
1000
1000
1003
,
1010
0000
0010
0000
0100
0001
0100
0000
,
0110
0000
0001
0000
1000
0100
0010
0000
,
0011
0000
0001
0000
1000
0010
1000
0000
,
0101
0000
0010
0000
1000
0001
0010
0000
,
0110
0000
0001
0000
0100
0010
1000
0000
,
0110
0000
1000
0000
0010
0001
0100
0000
,
1001
0000
0010
0000
1000
0100
0001
0000
,
0110
0000
0001
0000
0100
0010
1000
0000
,
0011
0000
0100
0000
0001
0100
1000
0000
,
1010
0000
0001
0000
0100
0010
1000
0000
,
0011
0000
0100
0000
1000
0010
0001
0000
,
0110
0000
0001
0000
0001
0010
1000
0000
,
0110
0001
0110
1000
,
0110
0001
0110
1000
,
0110
0001
0110
1000
,
0010
0001
0100
0001
0010
0001
0100
0000
,
1000
0100
1000
0000
0001
0100
0001
0000
,
1001
1010
1100
1000
,
1000
0100
1000
0000
0001
0100
0001
0000
,
1001
1100
0101
1010
,
1000
0100
1000
0000
0001
0100
0001
0000
,
1001
1010
1100
1000
,
1000
0100
1000
0000
0001
0100
0001
0000
,
1001
1100
0101
0010
,
2002
0000
0000
0000
,
3003
0000
0000
0000
;

//---------------dance-single - ----------------
#NOTES:
     dance-single:
     :
     Easy:
     9:
     0.268,0.369,0.203,0.195,0.000:
0000
0000
0000
0000
,
0000
0000
0000
0000
,
0000
0000
0000
0000
,
0000
0000
0000
0000
,
0010
0010
0010
0010
,
0100
0100
0100
0100
,
1000
0001
1000
0001
,
2002
0000
3003
0000
,
0020
0000
0130
0000
,
2002
0000
3003
0000
,
0020
0000
0130
0000
,
0022
0000
0033
0000
,
0200
0000
1300
0000
,
2020
0000
3030
0000
,
0002
0000
0103
0000
,
2002
0000
3003
0000
,
0010
0000
0100
0000
,
0022
0000
0033
0000
,
1000
0000
0010
0000
,
0220
0000
0330
0000
,
0010
0000
1000
0000
,
0202
0000
0303
0000
,
0010
0000
0100
0000
,
2200
0000
3300
0000
,
0010
0000
0010
0000
,
0100
0001
0100
0010
,
1000
0000
1000
0000
,
0001
0010
0001
0010
,
0100
0000
0100
0000
,
0010
0001
1000
0001
,
1000
0000
0100
0000
,
0010
0001
0100
0010
,
1000
0000
1000
0000
,
0010
0100
0010
0100
,
0001
0000
0001
0000
,
0010
0001
1000
0100
,
0001
0000
0001
0000
,
0100
1000
0010
0100
,
0001
0000
0001
0100
,
1000
0100
0001
0000
,
0010
0000
0010
0000
1000
0001
1000
0000
,
0100
0010
0001
0000
,
0001
0000
0010
0000
0100
1000
0010
0000
,
0100
0010
0100
0000
,
0001
0000
1000
0000
0010
1000
0001
0000
,
0100
0010
1000
0000
,
0001
0000
0100
0000
0001
0100
1000
0000
,
0010
1000
0100
0000
,
0010
0000
0001
0000
0100
0010
1000
0000
,
0100
0100
0010
0000
,
0001
0000
0100
0000
0010
1000
0100
0000
,
1000
0000
0001
0000
0010
0001
0100
0000
,
0001
0000
0100
0000
,
1010
0010
0010
0000
,
0101
0100
0100
0100
,
0100
0100
0101
0000
,
1000
0010
0100
0000
0001
0000
0001
0000
,
1001
0110
1001
0110
,
1000
0010
0100
0000
0001
0000
0001
0000
,
1001
1100
0101
0000
,
1000
0010
0100
0000
0001
0000
0001
0000
,
0110
1001
0100
1000
,
1000
0010
0100
0000
0001
0000
0001
0000
,
1010
0110
0101
0000
,
2002
0000
0000
0000
,
3003
0000
0000
0000
;

//---------------dance-single - ----------------
#NOTES:
     dance-single:
     :
     Beginner:
     4:
     0.125,0.259,0.170,0.000,0.000:
0000
0000
0000
0000
,
0000
0000
0000
0000
,
0000
0000
0000
0000
,
0000
0000
0000
0000
,
1000
0000
0000
0000
,
0001
0000
0000
0000
,
0010
0000
0000
0000
,
1001
0000
0000
0000
,
0100
0000
0000
0000
,
0100
0000
0000
0000
,
0100
0000
0000
0000
,
0100
0000
0000
0000
,
0010
0000
0000
0000
,
0010
0000
0000
0000
,
0010
0000
0000
0000
,
0010
0000
0000
0000
,
0001
0000
0000
0000
,
0001
0000
0000
0000
,
1000
0000
0000
0000
,
1000
0000
0000
0000
,
0001
0000
0000
0000
,
0001
0000
0000
0000
,
0110
0000
0000
0000
,
0000
0000
0000
0000
,
1000
0000
1000
0000
,
0001
0000
0001
0000
,
0010
0000
0010
0000
,
0100
0000
0100
0000
,
1000
0000
1000
0000
,
0010
0000
0010
0000
,
0100
0000
0100
0000
,
0001
0000
0001
0000
,
0010
0000
0001
0000
,
1000
0000
0010
0000
,
0100
0000
0001
0000
,
1000
0000
0100
0000
,
0010
0000
0100
0000
,
1000
0000
0001
0000
,
0010
0000
0100
0000
,
0010
0000
0001
0000
,
1001
0000
0000
0000
,
1010
0000
0000
0000
,
0011
0000
0000
0000
,
0101
0000
0000
0000
,
1010
0000
0000
0000
,
0011
0000
0000
0000
,
1100
0000
0000
0000
,
0110
0000
0000
0000
,
1001
0000
0000
0000
,
0011
0000
0000
0000
,
1100
0000
0000
0000
,
0011
0000
0000
0000
,
0101
0000
0101
0000
,
1010
0000
1010
0000
,
0110
0000
0110
0000
,
1001
0000
0000
0000
,
0010
0000
0010
0000
,
0001
0000
1000
0000
,
0001
0000
0001
0000
,
0100
0000
0001
0000
,
0010
0000
0010
0000
,
0100
0000
0001
0000
,
1000
0000
1000
0000
,
0100
0000
1000
0000
,
0100
0000
0000
0000
;

//---------------dance-double - ----------------
#NOTES:
     dance-double:
     :
     Challenge:
     15:
     0.569,0.684,0.284,0.122,0.130: // measure 1
00000000
00000000
00000000
00000000
,  // measure 2
00000000
00000000
00000000
00000000
,  // measure 3
00000110
00011000
01100000
00000000
00000000
00000000
00000000
00000000
,  // measure 4
00000000
00000000
00000000
00000000
,  // measure 5
00100000
10000000
00100000
10000000
00010000
01000000
00010000
01000000
,  // measure 6
00001000
00100000
00001000
00100000
00000100
00010000
00000100
00010000
,  // measure 7
00000010
00001000
00000010
00001000
00000001
00000100
00000001
00000100
,  // measure 8
00000010
00001000
00000010
00000100
00001000
00100000
10010000
00000000
,  // measure 9
01000000
00100000
00010000
00001000
00000000
00000001
00000010
00000200
,  // measure 10
00000000
00000000
00000000
00000000
00000300
00001000
00000010
00000200
,  // measure 11
00000000
00000000
00000000
00000300
00000000
00000100
00010000
00002000
,  // measure 12
00000000
00000000
00000000
01003000
00000000
00000000
00100000
00000000
,  // measure 13
10000000
01000000
00100000
00010000
00000000
00001000
00000100
00000002
,  // measure 14
00000000
00000000
00000003
00000110
,  // measure 15
01001000
00000000
00000000
02000000
00000000
00100000
00000000
00010000
,  // measure 16
00000000
00001000
00000000
00010000
00000000
03100000
01100000
00000000
,  // measure 17
01000000
00010000
00000000
00100000
00000000
00001000
00010000
00002000
,  // measure 18
00000000
00000000
00000000
00000000
00003000
00000010
00000001
00000200
,  // measure 19
00000000
00000000
00000000
00000000
00000300
00001000
00100000
02000000
,  // measure 20
00000000
00000000
03000000
00110000
,  // measure 21
00000220
00000000
00000000
00000330
00000000
00001000
00010000
01000000
,  // measure 22
00020000
00000000
00000000
00000000
00030000
00001000
00000100
00000022
,  // measure 23
00000000
00000000
00000000
00000033
,  // measure 24
00001000
00010000
00001000
00011000
,  // measure 25
00010000
00100000
00010000
00100000
00001000
01000000
00001000
01000000
,  // measure 26
00010000
10000000
00010000
10000000
00100000
01000000
00100000
01000000
,  // measure 27
00010000
00100000
00010000
00100000
00001000
00010000
00001000
00010000
,  // measure 28
00000100
00001000
00000100
00001000
00000010
00000100
00000010
00000100
,  // measure 29
00000001
00001000
00000001
00001000
00000010
00000100
00000010
00000100
,  // measure 30
00000001
00001000
00000001
00001000
00000100
00010000
00000100
00010000
,  // measure 31
00001000
00100000
00001000
00100000
00010000
01000000
00010000
01000000
,  // measure 32
00001000
00100000
00001000
00100000
00000100
00000010
00000100
00000010
,  // measure 33
00000001
00000100
00000010
00010000
00001000
00100000
01000000
00010000
,  // measure 34
00001000
00000100
00000010
00001000
00000100
00010000
01000000
10000000
,  // measure 35
00100000
01000000
00010000
00100000
01000000
10000000
01000000
00100000
,  // measure 36
00010000
01000000
00001000
00010000
00000100
00000010
00000001
00000010
,  // measure 37
00000100
00001000
00000010
00010000
00001000
01000000
00010000
10000000
,  // measure 38
00010000
01000000
00001000
00100000
00000100
00010000
00000010
00001000
,  // measure 39
00000001
00000100
00000010
00001000
00000001
00000100
00001000
00010000
,  // measure 40
00100000
10000000
00010000
01000000
00100000
01000000
10010000
00000000
,  // measure 41
00100000
00110000
00010000
01000000
00010000
00100000
01000000
00100000
,  // measure 42
00010000
00011000
00001000
00000100
00000001
00000010
00000100
00001000
,  // measure 43
00000010
00010010
00001000
00000100
00010000
00001000
00100000
01000000
,  // measure 44
10000000
10100000
01000000
00010000
00100000
00001000
00000100
00000001
,  // measure 45
00000010
00000011
00000001
00000010
00001000
00010000
01000000
10000000
,  // measure 46
00100000
10100000
10000000
00100000
00010000
00001000
00000100
00000001
,  // measure 47
00001000
00001010
00000100
00000010
00000100
00000001
00000100
00000010
,  // measure 48
00001000
00000110
00000001
00000100
00000010
00001000
00010000
01000000
,  // measure 49
00100000
10100000
01000000
00010000
00100000
00001000
00000100
00000001
,  // measure 50
00001000
00001010
00010000
00000100
00100000
00010000
10000000
00010000
,  // measure 51
01000000
01100000
00010000
00100000
00001000
00000010
00000001
00000100
,  // measure 52
00001000
00110000
01000000
10000000
00100000
01000000
00010000
01000000
,  // measure 53
10100000
00010000
00100000
00010000
00011000
00000100
00000010
00000100
,  // measure 54
00001001
00000010
00000100
00001000
00001100
00010000
00001000
00100000
,  // measure 55
00110000
00001000
00100000
01000000
01100000
00010000
10000000
00100000
,  // measure 56
01100000
00010000
00100000
00001000
00011000
00000100
00000011
00000000
,  // measure 57
00001100
00000000
00000000
00000010
00000000
00000100
00000001
00000000
00000000
00001000
00000000
00000010
00010000
00000000
00000000
00001000
00000000
00100000
01000000
00000000
00000000
10000000
00000000
00010000
,  // measure 58
01000000
00000000
00000000
00100000
00000000
01000000
00010000
00000000
00000000
00100000
00000000
00001000
00010000
00000000
00000000
00000100
00000000
00000010
00000001
00000000
00000000
00000100
00000000
00000010
,  // measure 59
00010000
00000000
00000000
00001000
00000000
00100000
01000000
00000000
00000000
10000000
00000000
00010000
00100000
00000000
00000000
00001000
00000000
00010000
00000100
00000000
00000000
00000010
00000000
00000001
,  // measure 60
00001000
00000000
00000000
00000010
00000000
00010000
00001000
00000000
00000000
01000000
00000000
00100000
10000000
00000000
00000000
00010000
00000000
00100000
00001000
00000000
00000000
00010000
00000000
00000100
,  // measure 61
00000010
00000000
00000000
00000001
00000000
00001000
00000100
00000000
00000000
00010000
00000000
01000000
10000000
00000000
00000000
00100000
00000000
01000000
00001000
00000000
00000000
00010000
00000000
01000000
,  // measure 62
00100000
00000000
00000000
00001000
00000000
00010000
00000100
00000000
00000000
00000010
00000000
00000001
00001000
00000000
00000000
00000100
00000000
00010000
00001000
00000000
00000000
00100000
00000000
01000000
,  // measure 63
10000000
00000000
00000000
00010000
00000000
00100000
00001000
00000000
00000000
00010000
00000000
00000100
00000010
00000000
00000000
00000001
00000000
00000100
00010000
00000000
00000000
00100000
00000000
01000000
,  // measure 64
10000000
00000000
00000000
00010000
00000000
00100000
00001000
00000000
00000000
00000100
00000000
00000001
00000010
00000000
00000000
00000100
00000000
00010000
01000000
00000000
00000000
10000000
00000000
00100000
,  // measure 65
00022000
00000000
00000000
00000000
00000000
00000000
00000000
00000000
00000000
00000000
00000000
00033000
;
