#VERSION:0.81;
#TITLE:I love you;
#SUBTITLE:(DvF Stepmania Edit);
#ARTIST:OMFG;
#TITLETRANSLIT:;
#SUBTITLETRANSLIT:;
#ARTISTTRANSLIT:;
#GENRE:Dubstep;
#ORIGIN:;
#CREDIT:DvF;
#BANNER:omfg-iloveu_dvf - banner.png;
#BACKGROUND:omfg-iloveu_dvf - BG.png;
#PREVIEWVID:;
#JACKET:;
#CDIMAGE:;
#DISCIMAGE:;
#LYRICSPATH:;
#CDTITLE:;
#MUSIC:omfg-iloveu_dvf.mp3;
#OFFSET:0.000000;
#SAMPLESTART:46.588802;
#SAMPLELENGTH:30.253086;
#SELECTABLE:YES;
#BPMS:0.000=103.200;
#STOPS:;
#DELAYS:;
#WARPS:;
#TIMESIGNATURES:0.000=4=4;
#TICKCOUNTS:0.000=4;
#COMBOS:0.000=1;
#SPEEDS:0.000=1.000=0.000=0;
#SCROLLS:0.000=1.000;
#FAKES:;
#LABELS:0.000=Song Start;
#BGCHANGES:;
#KEYSOUNDS:;
#ATTACKS:
;

//---------------dance-single - ----------------
#NOTEDATA:;
#CHARTNAME:;
#STEPSTYPE:dance-single;
#DESCRIPTION:;
#CHARTSTYLE:;
#DIFFICULTY:Beginner;
#METER:4;
#RADARVALUES:0.268935,0.344036,0.338859,0.065889,0.000000,157.000000,36.000000,7.000000,0.000000,0.000000,0.000000,0.000000,0.000000,0.268935,0.344036,0.338859,0.065889,0.000000,157.000000,36.000000,7.000000,0.000000,0.000000,0.000000,0.000000,0.000000;
#CREDIT:;
#NOTES:
0000
0000
0000
0000
,
0011
0000
0000
0000
,
1100
0000
0000
0000
,
0000
0000
0001
1000
,
0010
0100
0000
0000
,
0101
0000
0000
0000
,
1010
0000
0000
0000
,
0110
0000
0000
0000
,
1001
0010
0100
0100
,
1000
1000
1000
0001
,
0001
0001
0010
0100
,
0100
0100
0010
0010
,
0010
1100
0000
0011
,
1100
0000
0010
0100
,
0011
0000
1000
0100
,
0000
1100
0010
0001
,
1100
0100
0100
0010
,
0110
0001
1000
1000
,
0001
0010
0100
0100
,
0001
1000
0001
1000
,
0001
1000
0110
0001
,
1000
1000
1000
0001
,
0001
0001
1000
1000
,
1000
0000
0000
0000
0000
1001
0000
1001
,
0000
1001
1001
1001
1001
1001
0000
0000
,
0000
2000
3000
0100
0010
0001
0101
0000
,
0110
0000
0000
1000
0000
0100
0000
0011
,
0100
0100
0000
1000
0100
0010
0000
0010
,
0000
0110
0000
0001
1000
0001
0000
0110
,
0000
0001
1000
0001
0000
0010
0100
0000
,
1100
0000
0001
0000
0000
0100
0001
1000
,
0001
0000
0000
0010
0100
0001
1000
0000
,
0000
0100
0010
0001
1000
0100
0000
0220
,
0330
0001
1000
0001
1000
0100
0100
0000
,
0010
0001
0000
1000
0000
0001
0000
1001
,
1000
0000
0000
0100
0010
0001
0000
1000
,
0110
0000
0000
0110
0000
0001
0000
1001
,
1000
0000
0000
0100
0000
0010
0000
0001
,
1000
0100
0000
0010
0001
0000
0000
1000
,
0100
0010
0000
1001
0000
0100
0101
0000
,
0000
1000
0000
0100
0000
0110
0000
0001
,
0000
2000
0000
0000
3002
0000
0000
0000
,
2003
0000
3002
0003
,
1001
0000
0000
0000
;

//---------------dance-single - ----------------
#NOTEDATA:;
#CHARTNAME:;
#STEPSTYPE:dance-single;
#DESCRIPTION:;
#CHARTSTYLE:;
#DIFFICULTY:Easy;
#METER:5;
#RADARVALUES:0.381888,0.382275,0.320033,0.640066,0.000000,182.000000,34.000000,68.000000,0.000000,4.000000,0.000000,0.000000,0.000000,0.381888,0.382275,0.320033,0.640066,0.000000,182.000000,34.000000,68.000000,0.000000,4.000000,0.000000,0.000000,0.000000;
#CREDIT:;
#NOTES:
0000
0000
0000
0000
,
0000
0011
0000
0000
0000
1000
1000
0000
,
0110
0000
0001
0001
,
0000
1100
0000
0000
0000
0001
0001
0000
,
0000
1000
1000
1000
0000
0001
0001
0001
,
0000
0110
0000
0000
1000
0001
1000
0000
,
0000
0110
0000
0001
0000
1000
0001
0000
,
0000
0101
0000
0000
0010
0010
0010
0000
,
0100
0100
0000
0001
0000
1000
1000
0100
,
0000
0010
0000
0001
1000
0001
0000
1000
,
0000
0100
0000
0001
1000
0001
0000
0100
,
0000
1000
0000
1000
0001
0010
0100
0000
,
0000
0101
0101
0010
0000
0101
0101
0010
,
0000
1000
0000
0100
0010
1000
1000
0000
,
0000
0110
0000
0001
0000
1000
1000
0000
,
0000
0110
0001
0000
0000
1000
1000
0000
,
0110
0110
0000
0001
0001
1000
0000
0100
,
0000
0010
0000
0101
0000
0010
0010
0000
,
0000
0101
0000
0010
0000
0010
0010
0000
,
0000
1100
0000
0000
0010
0100
0100
0000
,
0000
1010
0000
0000
0000
0101
0101
0000
,
0000
1010
0000
0000
0000
0101
0000
0000
,
0000
1010
0000
0000
0000
0101
0000
0000
,
0000
0110
0000
1001
0000
0110
0000
1001
,
0000
0110
1001
0110
0001
1000
0000
0000
,
0200
0000
0000
0320
0000
0032
2000
0003
,
0200
3000
0000
0320
0000
0032
2000
0003
,
3200
0000
0020
0300
0000
0032
0000
2003
,
0020
3000
0230
0000
0000
0302
0000
2003
,
0000
3200
0000
0320
0002
0030
2003
0000
,
3200
0000
0320
0000
0002
0030
2000
0003
,
0000
3002
0000
2003
0000
3020
0000
0230
,
0000
0320
0000
0230
0000
0302
0000
2003
,
0000
3200
0000
0320
0000
0032
2000
0003
,
0000
3200
0020
0300
0002
0030
2000
0003
,
0000
3200
0000
0320
0000
0032
0000
2003
,
0200
3000
0000
0320
0002
0030
2000
0003
,
0000
3202
0000
0323
0000
0230
2300
0000
,
0000
3200
0000
0320
0000
0232
0000
2303
,
0000
3020
0000
0230
0000
0302
2003
0000
,
0000
3200
0000
0320
0000
0032
0000
2003
,
3000
0001
1000
0001
1000
0001
1000
0001
,
1000
0001
1000
0001
1000
0001
1000
0001
,
1000
2002
0000
0000
0000
0000
0000
0000
,
0000
0000
0000
0000
,
0000
3003
0000
0000
0000
0000
0000
0000
;

//---------------dance-single - ----------------
#NOTEDATA:;
#CHARTNAME:;
#STEPSTYPE:dance-single;
#DESCRIPTION:;
#CHARTSTYLE:;
#DIFFICULTY:Hard;
#METER:9;
#RADARVALUES:0.562075,0.598768,0.696543,0.677717,0.470637,272.000000,74.000000,72.000000,0.000000,9.000000,0.000000,0.000000,0.000000,0.562075,0.598768,0.696543,0.677717,0.470637,272.000000,74.000000,72.000000,0.000000,9.000000,0.000000,0.000000,0.000000;
#CREDIT:;
#NOTES:
0000
0000
0000
1000
0000
0100
0000
0010
0000
0001
0000
0010
0100
0000
0000
0000
,
0000
0202
0000
0000
0000
0000
0000
0000
0303
0000
1010
0000
0010
1000
0000
0000
,
0000
0202
0000
0000
0000
0000
0000
0000
0303
0000
1010
0000
0000
1010
0000
0000
,
0000
0202
0000
0000
0000
0000
0000
0000
0303
0000
1010
0000
0000
1010
0000
0000
,
0101
0101
0000
0000
0000
1010
1010
0000
0000
0101
0000
0101
0000
1010
0000
1010
,
0000
0202
0000
0000
0000
0000
0000
0300
0003
0010
1000
0000
0000
1010
0000
0000
,
0101
0000
0020
0000
0000
0000
0000
0000
0030
0200
0000
0000
0000
0000
0300
1000
,
0100
1000
0000
0000
0200
0000
0000
0000
0000
0000
0000
0000
0000
0000
0300
0000
,
0001
0001
0000
0001
0000
0001
0100
0000
0100
0100
0000
0100
0100
0000
0000
0010
,
0100
0010
0000
0000
0001
1000
0100
0000
0010
0000
0010
0000
0000
0010
0000
0100
,
0000
0200
0000
0000
0000
0000
0000
0000
0000
0300
0001
0000
0001
0000
0000
1000
,
0100
0010
0100
0000
0000
0002
0000
0000
0000
0000
0000
0000
0000
0000
0003
0000
,
0100
0000
0100
1000
0100
0000
0010
0000
0100
0000
0100
0000
0010
0100
0010
0100
,
0010
0001
0000
0000
1000
0100
0010
0100
0000
0010
0000
0000
0000
0010
0000
0100
,
0000
0010
0000
0001
1000
0001
0000
0000
1000
0001
1000
0000
0000
1000
0000
0100
,
0010
0100
0010
0000
0100
1000
0100
0000
0010
0001
0000
0000
0000
0001
0000
0000
,
1000
0000
1000
0000
1000
0100
0010
0000
0001
0000
0001
0000
0001
0010
0100
0010
,
0100
0010
0100
0000
0001
0000
1000
0100
0000
0000
0010
0000
0000
0010
0000
0001
,
0000
2000
0000
0000
3100
0010
0000
0001
0000
0000
0010
0000
0000
0010
0000
0000
,
0100
0000
2000
0000
3100
0010
0000
0001
0000
0000
1000
0000
0000
1000
0000
0100
,
0000
0002
0000
0000
0010
0000
0100
0000
1000
0000
0100
0000
0000
0100
0000
0000
,
0013
0000
0200
0000
0000
0000
0000
0000
0000
2300
0000
0000
0000
0000
0000
0000
,
0000
0000
3002
0000
0000
0000
0000
0000
0003
0020
0000
0000
0000
0000
0000
0000
,
0030
0202
0000
0303
0000
1010
0000
0000
0000
0101
0000
0000
0000
0000
1010
0000
,
0000
0000
0101
0110
0000
0000
0110
0000
0110
0000
0000
0000
0101
0101
0101
0101
,
0000
0020
0000
0000
0000
0000
1030
0200
0000
0020
0300
0000
0000
0000
0032
0000
,
0000
0000
2003
0000
0000
0000
0200
3000
0000
0000
0020
0300
0000
0000
0032
0000
,
0000
2003
0000
3001
1000
0002
0000
0023
,
0000
0000
0130
0000
0100
0010
0100
0000
0010
0000
0010
0000
0100
0010
0100
0010
,
0100
0010
0100
0000
0001
0000
0001
0000
1000
0200
0000
0000
0000
0000
0020
0300
,
0000
0000
0032
0000
0000
0000
0020
0003
0000
0000
0230
0000
0000
2000
0300
0000
,
0000
3200
0000
0310
0002
0023
0000
0230
,
0000
0000
2300
0000
0000
3000
0101
0000
0101
0000
0110
0000
0110
0000
0202
0000
,
0000
0000
2303
0000
0000
0000
3200
0000
0000
0000
0000
0300
0000
0000
0110
0000
,
0101
0000
1000
0000
0110
0000
0010
0000
0101
0000
1000
0000
0110
0000
0010
0101
,
0000
1000
0000
0110
0000
0101
0000
0010
0000
0000
0110
0000
1000
0000
0101
0000
,
0010
0000
0110
0000
1000
0101
0000
0000
0010
0000
0110
0000
1000
0000
0110
0000
,
0010
0000
0101
0000
1000
0000
0110
0000
0110
0000
0101
0000
0000
1000
0000
0000
,
0010
0200
0000
0320
0000
0232
0000
0000
,
0000
0303
0110
0000
0110
0000
0110
0000
0110
0000
0101
0000
0000
0000
0110
0000
,
0101
0110
0101
0110
0101
0110
0101
0110
,
0000
0202
0000
0323
0000
0232
0000
2303
,
0000
0000
3202
0000
0000
0020
0303
0000
0000
0200
0000
0000
0000
0000
2330
0000
,
0000
0000
3220
0000
0000
0000
0000
0030
0000
0300
0102
0000
0000
0000
0020
0003
,
0000
0000
0230
0000
0000
0000
2300
0000
0000
0000
3200
0000
0000
0000
0020
0300
,
0000
0002
0030
0000
0000
0000
0000
0003
0000
0000
0000
0000
0000
0000
0000
0000
;

//---------------dance-single - ----------------
#NOTEDATA:;
#CHARTNAME:;
#STEPSTYPE:dance-single;
#DESCRIPTION:;
#CHARTSTYLE:;
#DIFFICULTY:Medium;
#METER:6;
#RADARVALUES:0.414161,0.382275,0.564764,0.461224,0.305914,199.000000,60.000000,49.000000,0.000000,0.000000,0.000000,0.000000,0.000000,0.414161,0.382275,0.564764,0.461224,0.305914,199.000000,60.000000,49.000000,0.000000,0.000000,0.000000,0.000000,0.000000;
#CREDIT:;
#NOTES:
// measure 0
0000
0000
0001
0000
0010
0000
0000
0100
0000
0010
0000
0100
0010
0000
0000
0000
,  // measure 1
0000
0202
0000
0000
0000
0000
0000
0303
0000
0000
0101
0000
0000
0101
0000
0000
,  // measure 2
0000
2020
0000
0000
0000
0000
0000
3030
0000
0000
1010
0000
0000
1010
0000
0000
,  // measure 3
0000
0000
0220
0000
0000
0000
0000
0000
0330
0000
0101
0000
0100
0001
0000
0000
,  // measure 4
0000
0000
0110
0110
0000
0000
0101
0000
0000
0000
0110
0000
0000
0000
0000
0000
,  // measure 5
0000
0000
2200
0000
0000
0000
0000
3300
0000
0000
0101
0000
0101
0000
0000
0101
,  // measure 6
0000
0220
0000
0000
0000
0000
0030
0300
0000
0000
0110
0000
0000
0110
0000
0000
,  // measure 7
0101
1000
0000
0000
0000
0200
0000
0000
0000
0000
0000
0000
0000
0300
0000
0000
,  // measure 8
0000
0020
0000
0000
0000
0000
0000
0030
0000
2000
0000
0000
0000
0000
0000
3000
,  // measure 9
0000
0101
0000
0000
0000
1010
0000
0000
0000
0000
0110
0000
0000
0110
0000
0000
,  // measure 10
0000
0101
0000
0000
0000
0000
0000
0000
0000
0000
0110
0000
0000
0110
0000
0000
,  // measure 11
0000
1000
0000
0000
0000
0101
0000
0000
0000
0000
0110
0000
0000
0110
0000
0000
,  // measure 12
0000
0000
0001
0000
0101
0000
0010
0000
0000
0000
0100
0000
0100
0010
0000
0000
,  // measure 13
0000
0000
2000
0000
0000
0000
0000
3000
0000
0200
0000
0000
0000
0300
0000
0000
,  // measure 14
0000
0000
0101
0000
0000
0010
0000
0000
0000
0200
0000
0000
0000
0000
0300
1000
,  // measure 15
0100
0000
0010
0000
0000
0002
0000
0000
0000
0000
0000
0003
0000
0000
0000
0000
,  // measure 16
1000
1000
0000
0100
0010
0100
0000
0000
0000
0000
0001
0001
0000
0100
0010
0100
,  // measure 17
0000
0010
0000
0000
0000
0000
0000
0000
0101
0000
0010
0000
0000
0100
0000
0010
,  // measure 18
0000
0200
0000
0000
0000
0000
0000
0300
0000
0000
1000
0000
0000
0100
0000
0010
,  // measure 19
0000
0202
0000
0000
0303
0000
0000
0000
0010
0000
1000
0000
0000
0110
0000
0101
,  // measure 20
0000
0000
0202
0000
0303
0000
0000
0000
0010
0000
1000
0000
0000
0110
0000
0000
,  // measure 21
0010
0000
0000
0000
0000
0110
0000
0000
0000
0000
1000
0000
0000
0000
0001
0000
,  // measure 22
0000
0000
1000
0000
0000
0000
1000
0000
0000
0000
0001
0000
0000
0001
0000
0000
,  // measure 23
0000
0101
0000
0000
0000
0101
0000
0000
0000
0101
0000
0000
0000
0000
0101
0000
,  // measure 24
0000
0000
0101
0000
0110
0000
0101
0000
0110
0000
0000
0000
0000
0110
1000
0000
,  // measure 25
0100
0000
0100
0000
0000
0000
0100
0000
0100
0000
0100
0000
0000
0001
0000
0000
,  // measure 26
1000
0000
0100
0000
0000
0000
0010
0000
0100
0010
0000
0000
0000
0001
0000
0000
,  // measure 27
0000
0000
1000
0000
0000
0000
0001
0000
1000
0001
0000
0000
0000
0100
0000
0000
,  // measure 28
0000
0010
0100
0010
0100
0010
0100
0010
,  // measure 29
0100
0001
0000
1000
0100
1000
0000
0100
,  // measure 30
0010
0000
0001
0000
0000
0000
0010
0000
0001
0000
0010
0000
0000
0100
0000
0000
,  // measure 31
0000
0000
1000
0000
0000
0000
0100
0000
0010
0000
0001
0000
0000
0100
0001
0000
,  // measure 32
0101
0000
0110
0000
0000
0000
2000
0000
0000
3000
0100
0000
0010
0000
0002
0000
,  // measure 33
0000
0003
0100
0000
0000
0000
0110
0000
0110
0000
0110
0000
0000
0000
0001
0000
,  // measure 34
1000
0000
0200
0000
0300
0000
0020
0000
0000
0030
0200
0000
0000
0300
0020
0000
,  // measure 35
0000
0030
0001
0000
0000
0000
1001
0000
1001
0000
1001
0000
0000
0000
0200
0000
,  // measure 36
0000
0300
0020
0000
0000
0030
0200
0000
0000
0300
0020
0000
0030
0002
0000
0000
,  // measure 37
0003
0000
2000
0000
0000
3000
0100
0000
0010
0000
0001
0000
0000
0000
2000
0000
,  // measure 38
0000
3000
0200
0000
0000
0300
0010
0000
0100
0000
0010
0000
0000
0000
0002
0000
,  // measure 39
0003
0000
2000
0000
0000
3000
0100
0000
0010
0000
0101
0000
0000
0000
0110
0000
,  // measure 40
0000
0000
0202
0000
0000
0303
0110
0000
0000
0000
1000
0000
0000
0000
0200
0000
,  // measure 41
0000
0300
0002
0000
0000
0000
0000
0000
0000
0003
2000
0000
0000
0000
0000
0000
,  // measure 42
0000
3002
0000
0000
0000
0000
0000
0000
0003
2000
0000
0000
0000
0000
0000
0000
,  // measure 43
0000
3000
0002
0000
0000
0000
0000
0000
0000
2003
0000
0000
0000
0000
0000
0000
,  // measure 44
0000
3002
0000
0000
0000
0000
0000
0000
0003
2000
0000
0000
0000
0000
0000
0000
,  // measure 45
0000
3001
0000
0000
0000
0000
0000
0000
;
