#TITLE:Healing Vision(Angelic Mix);
#SUBTITLE:FromNonstopMegamix;
#ARTIST:ANAGOSUN-MAXX EDIT;
#TITLETRANSLIT:;
#SUBTITLETRANSLIT:;
#ARTISTTRANSLIT:;
#CREDIT:;
#BANNER:hvamfnm-bn.png;
#BACKGROUND:hvamfnm-bg.png;
#LYRICSPATH:;
#CDTITLE:;
#MUSIC:Healing Vision (Angelic Mix) (From Nonstop Megamix).ogg;
#OFFSET:-4.890;
#SAMPLESTART:39.142;
#SAMPLELENGTH:18.000;
#SELECTABLE:YES;
#BPMS:0.000=49.000,4.000=196.000,196.000=392.000,198.000=196.000,201.000=392.000,203.000=196.000,206.000=392.000,208.000=196.000,211.000=392.000,213.000=196.000,216.000=392.000,218.000=196.000,221.000=392.000,223.000=196.000,226.000=392.000,228.000=196.000,231.000=392.000,233.000=196.000,234.000=392.000,235.500=196.002,348.000=392.004,350.000=196.002,353.000=392.004,355.000=196.002,358.000=392.004,360.000=196.002,363.000=392.004,365.000=196.002,368.000=49.000,368.250=196.001;
#STOPS:235.500=0.240
;
#BGCHANGES:;

//---------------dance-single - Copied from----------------
#NOTES:
     dance-single:
     :
     Challenge:
     19:
     1.000,1.000,0.671,0.040,1.000: // measure 1
0000
0000
0000
0000
,  // measure 2
1001
0000
0000
0000
1010
0000
0000
0000
0001
0100
0010
0100
0001
0000
0000
0000
,  // measure 3
1010
0000
0000
0000
0110
0000
0000
0000
1000
0001
0100
0010
0100
0000
0000
0000
,  // measure 4
1100
0000
0000
0000
0011
0000
0000
0000
1000
0010
0100
0001
0010
0000
0000
0000
,  // measure 5
1001
0000
0000
0000
1010
0000
0000
0000
0001
0010
0100
1000
0010
0000
0000
0000
,  // measure 6
1000
0001
0100
0001
1000
0000
0000
0000
0001
0100
0001
1000
0100
0000
0000
0000
,  // measure 7
1000
0001
0100
0010
0100
0001
0010
0001
0010
0100
0010
0100
1000
0000
0000
0000
,  // measure 8
0001
1000
0010
1000
0001
0000
0000
0000
0010
0001
0100
0001
1000
0000
0000
0000
,  // measure 9
0100
1000
0001
0100
0010
1000
0100
0010
0100
1000
0001
0100
0001
0000
0000
0000
,  // measure 10
1000
0100
0010
0100
1000
0000
0000
0000
0001
0010
0100
0010
0001
0000
0000
0000
,  // measure 11
1000
0100
0010
0001
0010
0100
1000
0100
0010
0001
0010
0100
1000
0000
0000
0000
,  // measure 12
0001
1000
0010
0100
0001
0000
0000
0000
1000
0100
0010
0001
0100
0000
0000
0000
,  // measure 13
0001
1000
0010
1000
0001
0100
0010
1000
0100
0010
0001
0010
0100
0000
0000
0000
,  // measure 14
0010
0001
1000
0001
0100
0000
0000
0000
0010
1000
0001
0100
0010
0000
0000
0000
,  // measure 15
0001
1000
0010
0100
0010
1000
0001
0010
0001
0010
0100
1000
0100
0000
0000
0000
,  // measure 16
0100
0010
0001
0010
0100
0000
0000
0000
1000
0100
0010
0100
1000
0000
0000
0000
,  // measure 17
1000
0010
0100
0010
1000
0001
0100
0010
0100
0001
0010
0100
0010
0100
1000
0100
,  // measure 18
1001
0000
0000
0000
0101
0000
0000
0000
1000
0100
1000
0100
1000
0000
0000
0000
,  // measure 19
0001
1000
0010
1000
0001
0100
0010
1000
0100
0010
0001
0010
0100
0000
0000
0000
,  // measure 20
0001
0010
0001
0010
0001
0000
0000
0000
0010
0100
0010
0100
0010
0000
0000
0000
,  // measure 21
1000
0100
0010
0100
1000
0001
0010
0100
0010
0001
1000
0100
0010
0000
0000
0000
,  // measure 22
1010
0000
0000
0000
0001
0000
0110
0000
0000
0001
1000
0000
1001
0000
0000
0000
,  // measure 23
1001
0000
0000
0000
0100
0000
0011
0000
0000
0010
1000
0000
1010
0000
0000
0000
,  // measure 24
1001
0000
0000
0000
0110
0000
1001
0000
0000
0010
0100
0000
1001
0000
0000
0000
,  // measure 25
0001
0000
1000
0000
0010
0000
0100
0000
1000
0000
0001
0000
0010
0100
0010
0100
,  // measure 26
0010
0000
0000
0000
1001
0000
0000
0000
0100
0010
1000
0001
0100
0001
0010
0100
,  // measure 27
0010
0001
0100
0010
1000
0100
0010
0001
0010
0001
0010
0100
1000
0010
0100
0001
,  // measure 28
1000
0100
0010
0100
1000
0001
0100
0010
0100
0010
1000
0001
0010
0100
0010
0100
,  // measure 29
1000
0100
0010
0100
1000
0100
0010
0001
1000
0010
0100
0001
0100
0000
0000
0000
,  // measure 30
1001
0000
0000
0000
0100
0000
0000
0000
0001
0010
0001
0010
0100
1000
0100
1000
,  // measure 31
0001
1000
0100
0010
0100
0010
0001
1000
0010
1000
0001
0010
0100
1000
0010
1000
,  // measure 32
0010
0100
0001
0010
0100
1000
0100
0010
0100
1000
0001
0010
0100
0010
0001
1000
,  // measure 33
0100
0001
0100
1000
0010
0100
0001
0100
1000
0100
0001
1000
0001
0000
0000
0000
,  // measure 34
0100
0000
0000
0000
1001
0000
0000
0000
1000
0100
1000
0100
0010
0001
0010
0001
,  // measure 35
1000
0010
0100
0001
1000
0100
0010
0100
1000
0001
0100
0010
1000
0100
0010
0100
,  // measure 36
0010
0001
0100
0001
0100
0010
1000
0100
0010
0001
0010
0100
1000
0010
0100
0001
,  // measure 37
1000
0100
1000
0010
0100
0001
1000
0100
0010
1000
0010
0100
1000
0000
0000
0000
,  // measure 38
0010
0000
0000
0000
1001
0000
0000
0000
0100
0001
0100
0001
0010
0100
0010
0100
,  // measure 39
0010
0001
0100
0010
0001
0010
0100
0001
0010
0100
0010
0100
1000
0010
0100
0001
,  // measure 40
0010
1000
0010
0100
0010
0001
1000
0010
0100
0010
0001
0010
0100
0001
1000
0010
,  // measure 41
0100
0001
0010
0100
1000
0100
1000
0010
0100
0010
1000
0001
1000
0010
0100
0001
,  // measure 42
1010
0000
0101
0000
1200
1000
0010
0310
,  // measure 43
1001
0000
0101
1010
0101
0000
0010
0000
,  // measure 44
1010
0000
0010
0000
0021
0001
1000
1030
,  // measure 45
1100
0000
0000
0000
1010
0000
0100
0000
0011
0000
0010
0000
0100
1000
0100
1000
,  // measure 46
0100
0000
0110
0000
2001
0001
0010
3010
,  // measure 47
0110
0000
0011
1010
0110
0000
1001
0000
,  // measure 48
0001
0000
0110
0000
2010
0010
0100
3001
,  // measure 49
0101
0000
0000
0000
1000
0001
0100
0010
1000
0001
0100
0010
0100
0001
0010
0100
,  // measure 50
1000
0001
1000
0001
1000
0001
0000
0000
,  // measure 51
1001
0000
0001
1000
0001
1000
0001
1000
,  // measure 52
0000
0000
1010
0000
0010
0100
0010
0100
,  // measure 53
0010
0100
0000
0000
1010
0000
0100
0010
,  // measure 54
0100
0010
0100
0010
0000
0000
1001
1001
,  // measure 55
0001
1000
0010
0100
1000
0100
0000
0000
,  // measure 56
1010
1010
0010
0100
0001
0100
0010
1000
,  // measure 57
0000
0000
0101
0101
0010
0100
0001
0010
,  // measure 58
0100
1000
0000
0000
0110
1001
1000
0100
,  // measure 59
0010
0100
1000
0000
1001
0000
0000
0000
,  // measure 60
0001
0100
0010
1000
0100
0010
0001
1000
,  // measure 61
0010
0100
0001
1000
0100
1000
0001
0100
,  // measure 62
0010
1000
0010
0001
0010
0100
1000
0100
,  // measure 63
0010
1000
0001
0100
0010
1000
0010
0001
,  // measure 64
0100
0010
1000
0100
1000
0010
0100
0001
,  // measure 65
0010
1000
0010
0100
0001
0100
0010
1000
,  // measure 66
0001
0010
0100
0001
0010
1000
0001
0100
,  // measure 67
0110
0000
1001
0000
0101
1100
0000
0010
,  // measure 68
0001
0010
0001
1000
0010
0100
1000
0100
0001
0010
0100
1000
0001
0100
0010
0100
,  // measure 69
0001
0010
0100
0010
0001
0100
0010
1000
0001
0010
0100
1000
0100
0010
0100
1000
,  // measure 70
0001
0100
0010
1000
0001
0010
0100
0010
1000
0010
0100
0010
0001
0100
0010
1000
,  // measure 71
0100
0010
0001
0010
0100
0010
1000
0010
0100
0010
0001
1000
0010
0100
0001
0010
,  // measure 72
0100
1000
0100
1000
0010
1000
0001
0100
,  // measure 73
0010
1000
0010
0100
0001
1000
0010
0100
,  // measure 74
0010
1000
0010
0001
0010
0100
1000
0001
,  // measure 75
0100
1000
0100
0010
0001
1000
0100
0010
,  // measure 76
0100
0001
1000
0010
0100
0001
1000
0001
0100
0010
1000
0100
0010
0100
1000
0001
,  // measure 77
0010
0001
0010
0100
1000
0001
0100
0001
0100
0010
1000
0010
1000
0100
0001
0100
,  // measure 78
0010
0100
1000
0100
0010
0100
0001
0100
0010
0001
1000
0010
0100
0001
1000
0010
,  // measure 79
0100
0001
0010
0100
0010
0001
0010
0100
1000
0100
0010
0100
1000
0010
0100
0001
,  // measure 80
1000
0010
1000
0010
0001
0100
0010
0100
,  // measure 81
0001
0100
0001
0010
1000
0100
0010
0100
,  // measure 82
1001
0010
1100
0001
1001
0010
1010
0001
,  // measure 83
1100
0001
1001
0100
1010
0100
1001
0010
,  // measure 84
0101
0000
0000
0000
1010
0000
0000
0000
0001
1000
0010
0100
0001
0000
0000
0000
,  // measure 85
0001
0010
0001
0000
1000
0100
1000
0000
0010
1000
0100
1000
0001
0000
0000
0000
,  // measure 86
0100
0001
0100
0010
1000
0000
0000
0000
0001
0100
0010
1000
0001
0000
0000
0000
,  // measure 87
0100
0001
0100
0010
1000
0001
0100
0010
1000
0100
0010
0100
0010
0000
0000
0000
,  // measure 88
1000
0001
1000
0001
1000
0001
0000
0000
,  // measure 89
1001
0010
1000
0100
1000
0100
1000
0101
,  // measure 90
0000
0000
1001
0100
0001
0010
0001
0010
,  // measure 91
0001
0011
0000
0000
1100
0010
0100
0010
,  // measure 92
0100
0010
0100
0010
0100
1001
0110
1001
,  // measure 93
0110
0120
0000
0000
0000
0000
0000
0000
0000
0000
0000
0000
0000
0000
0000
0000
,  // measure 94
0000
0000
0000
1000
0000
0100
0000
0000
,  // measure 95
0000
1000
0000
0100
0000
0000
0000
0000
,  // measure 96
0000
0001
0000
1000
0000
0000
0000
0001
,  // measure 97
0000
0000
1000
0000
0000
0000
0000
0000
0000
0000
0000
0030
1001
0000
0000
0000
;
