#TITLE:Healing Vision (Angelic mix);
#SUBTITLE:;
#ARTIST:EVOLUTION;
#TITLETRANSLIT:;
#SUBTITLETRANSLIT:;
#ARTISTTRANSLIT:;
#CREDIT:;
#BANNER:Healing Vision (Angelic mix).png;
#BACKGROUND:Healing Vision (Angelic mix)-bg.png;
#LYRICSPATH:;
#CDTITLE:215edit.png;
#MUSIC:Healing Vision (Angelic mix).ogg;
#OFFSET:-1.283;
#SAMPLESTART:64.940;
#SAMPLELENGTH:12.440;
#SELECTABLE:YES;
#DISPLAYBPM:46.000:196.000;
#BPMS:0.000=49.000,4.000=196.000,291.000=49.000;
#STOPS:226.000=0.306
;
#BGCHANGES:;

//---------------dance-single - EVOLUTION----------------
#NOTES:
     dance-single:
     EVOLUTION:
     Challenge:
     19:
     1.000,1.000,0.923,0.165,1.000:
0000
0000
0000
0000
,
1001
0000
0110
0000
1001
0000
0010
0100
0001
0100
0010
1000
0100
1000
0010
0100
,
0010
0000
1010
0000
0101
0000
1000
0010
0100
0010
1000
0001
0010
0100
1000
0010
,
0100
0000
1010
0000
0101
0000
0001
0100
0010
1000
0100
0010
0001
0010
0100
1000
,
0001
0000
1001
0000
1010
0000
0100
0001
0010
0100
1000
0100
0010
0100
1000
0001
,
0100
0000
1010
0000
0101
0000
0010
0100
1000
0100
0010
0100
0001
0010
0100
1000
,
0100
0000
0011
0000
0110
0000
1000
0100
0010
0001
0010
0001
0010
0100
1000
0100
,
1000
0000
0101
0000
0110
0000
0001
0010
0001
0010
0100
1000
0010
0100
0001
0100
,
0010
0000
1010
0000
0110
0000
0100
0001
0100
0001
1000
0010
1000
0010
0100
0001
,
0100
0000
1001
0000
0110
0000
0010
1000
0001
1000
0001
0100
0010
1000
0100
0010
,
0001
0000
0011
0000
1100
0000
0100
0010
0100
0001
1000
0010
1000
0100
0010
0100
,
1000
0000
1100
0000
0011
0000
0010
0100
1000
0100
1000
0001
0010
0001
0010
0100
,
1000
0000
0110
0000
1001
0000
0010
1000
0010
1000
0001
0010
0001
0010
0100
1000
,
0001
0000
0011
0000
1100
0000
0010
0100
0001
0100
0010
1000
0001
0010
0001
1000
,
0100
0000
1001
0000
0101
0000
0100
0010
1000
0001
0010
0001
0100
0010
1000
0001
,
0100
0000
0110
0000
1001
0000
1000
0010
1000
0001
0100
0001
0010
0100
0010
0001
,
0100
0000
1010
0000
0101
0000
1000
0010
1000
0100
1000
0010
0100
0001
0010
0001
,
1010
0000
0011
0000
1100
0000
0010
1000
0100
1000
0010
1000
0001
0010
0001
0100
,
0001
0000
1010
0000
0101
0000
0001
0010
0001
0100
0001
0010
0100
1000
0100
1000
,
0010
0000
1010
0000
0101
0000
0010
0100
0001
0010
0001
0010
0001
0100
0010
1000
,
0100
0000
1010
0000
0101
0000
0100
0001
0010
0001
1000
0001
0010
0100
1000
0010
,
1001
0000
0100
0000
0010
0000
1000
0000
0001
0010
0001
0010
0001
0000
0000
0000
,
1010
0000
0100
0000
0010
0000
0101
0000
1000
0010
1000
0010
1000
0000
0000
0000
,
1010
0000
0100
0000
0010
0000
1001
0000
0010
0001
0010
0001
0010
0000
0000
0000
,
0010
1000
0001
0100
0010
0100
0001
1000
0001
0010
0001
0010
0100
1000
0010
0100
,
0110
0000
0000
0000
1001
0000
0000
0000
0001
0010
0001
0010
0100
1000
0100
1000
,
0001
0010
0001
0100
0001
1000
0001
0100
0001
0010
0001
1000
0100
1000
0010
1000
,
0001
0000
0010
1000
1001
1000
0100
0000
,
1000
0100
0010
0001
0010
0100
1000
0100
0010
0001
0010
0100
1001
0000
0000
0000
,
0101
0000
0000
0000
0110
0000
0000
0000
0100
0010
0100
0010
1000
0100
1000
0100
,
1000
0001
1000
0001
0100
0010
0100
0010
1000
0100
0010
0001
0100
0010
1000
0001
,
1000
0000
0101
0001
1000
0010
1010
0000
,
1000
0100
0010
0001
0100
0010
0100
0001
0100
0001
1000
0100
0010
0000
0000
0000
,
1001
0000
0000
0000
1100
0000
0000
0000
0100
0010
1000
0001
0010
0100
1000
0100
,
0010
0001
1000
0010
0001
0010
1000
0001
0100
0010
1000
0001
0100
0010
1000
0100
,
0010
0000
0100
0001
1001
1000
0100
0000
,
0010
0001
0010
0001
1000
0100
1000
0100
1000
0100
0010
0001
1001
0000
0000
0000
,
1100
0000
0000
0000
0101
0000
0000
0000
1000
0100
1000
0001
1000
0100
1000
0001
,
0100
0010
0100
0001
1000
0001
0010
0100
1000
0010
1000
0001
0010
0100
1000
0100
,
0010
0000
0100
1000
0011
1000
0010
0000
,
0100
1000
0100
1000
0010
0100
0001
0010
0100
0010
0001
1000
0100
0010
0100
1000
,
1010
0000
1100
0000
0210
0001
1000
1000
,
0310
0000
1000
1002
0103
0000
1001
0000
,
0110
0000
1001
0000
0120
1000
0001
1000
,
0130
0000
0000
0000
0010
0000
0100
0000
0001
0000
1000
0000
0100
1000
0100
1000
,
1010
0000
0000
0000
0101
0000
0000
0000
0100
0010
0100
0010
0001
0010
0001
0010
,
0100
0000
0001
1000
0101
0000
1001
0000
,
0011
0000
0000
0000
0101
0000
0000
0000
0001
0100
0001
0100
0010
0100
0010
1000
,
1001
0000
0020
0100
0001
1000
0001
0130
,
1010
0000
0100
0000
0001
0000
1010
0000
0100
0001
0100
0001
0100
0000
0000
0000
,
1010
0000
0100
0000
0010
0000
0101
0000
0010
0001
0010
0001
0010
0000
0000
0000
,
1001
0000
1000
0000
0010
0000
0110
0000
0001
0100
0001
0100
0001
0000
0000
0000
,
1010
0000
0100
0000
0010
0000
0101
0000
1000
0010
1000
0010
1000
0000
0000
0000
,
1001
0000
1010
0000
0101
0000
1000
0010
0100
0001
0100
0010
1000
0001
0100
0010
,
0100
0000
0011
0000
1100
0000
0010
0100
0010
0100
0001
1000
0001
0100
0010
1000
,
0100
0000
0011
0000
1100
0000
0010
0100
0010
0001
1000
0100
1000
0001
0010
0001
,
0010
0100
1000
0100
0010
0100
1000
0100
0011
0000
0001
0010
0100
0100
1000
0010
,
0010
0000
0100
0010
1000
1000
0001
0000
0100
0010
1000
1000
0001
0100
0010
0010
,
1000
0100
1000
1000
0010
0100
0001
0001
0100
0010
1000
0100
1000
0001
0100
0010
,
0010
0000
1000
0010
0100
0100
0001
0000
0010
1000
0100
0100
1000
0010
0100
0100
,
0001
0100
0010
1000
0001
0001
0100
0010
0010
1000
1000
0001
1000
0100
1000
0100
,
0010
0001
0010
0001
1000
0010
1000
0001
1000
0100
1000
0010
1000
0100
0010
0001
,
0100
0010
1000
0010
0100
0001
0100
0010
0100
0001
1000
0100
0010
0001
0010
0001
,
0010
0001
1000
0100
1000
0100
1000
0100
0021
0000
0000
0000
0031
0010
0100
1000
,
0010
0100
0001
1000
0100
0010
0001
0100
0010
1000
0001
0100
0001
0001
1000
0000
,
0010
0100
0001
0001
1000
0000
0010
0100
0001
0001
0100
0010
1000
1000
0100
1000
,
0010
0000
0100
0001
0100
0100
0010
0100
0001
1000
0100
1000
0001
0100
0010
0001
,
1000
0000
0010
0010
1000
0000
0100
0100
0010
0000
1000
0001
0100
0010
1000
0001
,
0001
0100
0010
1000
0100
0000
1000
1000
0100
1000
0010
0100
0001
0010
0001
0010
,
0001
0010
0001
0010
0100
1000
0100
1000
0100
1000
0100
1000
0001
0010
0100
1000
,
0010
0100
0001
1000
0100
0010
0001
0100
0010
1000
0001
0100
0010
1000
0100
1000
,
0010
1000
0100
1000
0010
0100
0001
0100
0001
0100
0001
0100
0002
0013
0100
2000
,
3020
0130
0002
2003
3100
0010
0002
0203
0310
2000
3001
0100
0201
0002
0000
0000
,
0300
0000
1000
1000
0000
1000
2000
3000
0000
1000
1000
0000
1000
2000
0000
0000
,
0000
3003
0000
0000
0000
0000
0000
0000
0000
0000
0000
0000
0000
0000
0000
0000
;
