#TITLE:HELL SCAPER;
#SUBTITLE:(SLASHING MIX);
#ARTIST:L.E.D. LIGHT-G;
#TITLETRANSLIT:;
#SUBTITLETRANSLIT:;
#ARTISTTRANSLIT:;
#CREDIT:;
#BANNER:heel_b.png;
#BACKGROUND:hell_bk.jpg;
#LYRICSPATH:;
#CDTITLE:215edit.png;
#MUSIC:HELL SCAPER (SLASHING MIX).mp3;
#OFFSET:-2.780;
#SAMPLESTART:18.939;
#SAMPLELENGTH:12.000;
#SELECTABLE:YES;
#DISPLAYBPM:*;
#BPMS:0.000=190.000,116.000=195.000,124.000=200.500,132.000=195.000,148.000=205.000,156.000=200.000,220.000=320.000;
#STOPS:;
#BGCHANGES:4.500=HELL SCAPER (SLASHING MIX).avi=1.000=1=0=1,
256.000=hell_bk.jpg=1.000=1=0=1,
99999=-nosongbg-=1.000=0=0=0 // don't automatically add -songbackground-
;

//---------------dance-single - ----------------
#NOTES:
     dance-single:
     :
     Hard:
     17:
     1.000,1.000,1.000,0.386,0.444: // measure 1
0220
0000
0000
0330
,  // measure 2
2002
3003
0011
1010
,  // measure 3
1000
1100
0010
0011
0100
0110
0001
1001
,  // measure 4
1000
0110
0001
0011
0100
1100
0010
1001
,  // measure 5
0100
0100
0100
0100
0010
0010
0010
0010
,  // measure 6
0001
0001
1000
1000
0001
0001
1000
1000
,  // measure 7
1001
0000
0000
0000
1001
0000
0000
0000
0100
0010
0100
0000
0001
1000
0100
0000
,  // measure 8
1001
0000
1001
0000
1001
0000
1001
0000
0000
0000
0010
0100
0010
0000
1001
0000
,  // measure 9
1002
0000
0000
1003
,  // measure 10
2000
0000
0000
0001
0000
0000
0001
0001
,  // measure 11
3010
0000
0000
0110
0000
0000
0001
0000
0000
0101
0000
0000
0010
0000
0010
0000
,  // measure 12
0210
0000
0000
0010
0000
0000
0010
0310
,  // measure 13
0220
0000
0000
0330
,  // measure 14
0001
0000
0000
1001
0000
0000
0100
0010
1000
0000
0000
1010
0000
0000
0100
0001
,  // measure 15
0010
0000
0000
1010
0000
0000
0010
1000
0100
0000
0100
0000
0100
0000
0101
0000
,  // measure 16
0010
0000
0000
1010
0000
0000
0100
0001
1000
0000
0000
0110
0000
0000
1000
0001
,  // measure 17
0100
0000
0000
1010
0000
0000
0100
0001
0010
0000
0010
0000
0010
0000
0110
0000
,  // measure 18
1000
0000
0000
1010
0000
0000
0001
0010
0100
0000
0000
1100
0000
0000
0100
0010
,  // measure 19
0001
0000
0000
1100
0000
0000
1000
0100
0001
0000
0001
0000
0001
0000
1001
0000
,  // measure 20
0110
0000
0000
1001
0000
0000
1000
0010
0001
0000
0000
0011
0000
0000
0100
0001
,  // measure 21
0010
0001
0010
1000
0010
0001
0100
1000
,  // measure 22
0110
0000
0010
0000
0110
0101
1001
1001
,  // measure 23
0110
0000
0010
0000
1010
1001
0101
1010
,  // measure 24
0100
0000
0101
0000
0010
1001
1100
1100
,  // measure 25
0011
0000
0100
0000
1010
0011
0110
1010
,  // measure 26
0100
0000
0101
0000
0010
1100
0110
1100
,  // measure 27
0011
0000
1000
0000
0001
1010
0101
0011
,  // measure 28
1100
0000
0010
0000
0100
1001
0110
1001
,  // measure 29
0110
0000
0000
0000
0101
0000
0000
0000
1001
0000
1000
0001
1000
0000
1001
0000
,  // measure 30
1001
0010
1001
0100
0011
0100
1010
0001
,  // measure 31
0011
0000
1000
0000
0110
0000
0001
0000
1001
0000
0000
1001
0000
0000
1001
0000
,  // measure 32
1001
0010
1010
0001
1100
1000
0011
0100
,  // measure 33
1001
0010
1100
0010
1001
0110
1001
1001
,  // measure 34
1001
0010
1001
0100
1001
0010
1001
0100
,  // measure 35
0011
0000
0100
0000
1010
0000
0100
0000
0011
0000
0000
0011
0000
0000
0011
0000
,  // measure 36
1001
0000
1001
0000
0100
0010
0100
0010
0100
0000
1001
0000
1000
0100
0010
0100
,  // measure 37
1001
0100
1100
0010
0101
0010
0110
1001
,  // measure 38
0100
0110
1001
0000
0010
0110
1001
0000
,  // measure 39
0110
0000
1000
0010
1000
0000
0110
0000
0101
0000
1100
0000
1001
0000
0000
0000
,  // measure 40
1001
0110
1001
0000
0110
1001
0110
0000
,  // measure 41
2002
0000
0000
3003
,  // measure 42
1001
1001
1001
1001
1001
0000
0000
0110
,  // measure 43
0000
0110
0000
1001
1001
1001
1001
1001
,  // measure 44
1001
1001
1001
1001
1001
0000
0110
0110
,  // measure 45
0000
0110
0000
1001
1001
1001
1001
1001
,  // measure 46
2002
0000
0000
3003
0022
0000
0000
0033
,  // measure 47
2200
0000
0000
0000
0000
0000
3300
0000
0001
1000
0010
1000
0001
0100
0010
1000
,  // measure 48
0001
0000
0000
0011
0000
0000
0001
0020
0100
0030
0000
1010
0000
0000
1000
0002
,  // measure 49
0010
0003
0000
1001
0000
0000
0100
0002
0010
0000
0013
0000
0010
0000
0101
0000
,  // measure 50
1000
0000
0000
1010
0000
0000
1000
0020
0001
0030
0000
0011
0000
0000
0001
0020
,  // measure 51
1000
0030
0000
0110
0000
0000
1000
0002
0100
0000
0103
0000
0100
0000
1001
0000
,  // measure 52
0100
0000
0000
1001
0000
0000
0001
2000
0100
3000
0000
0011
0000
0000
1000
0020
,  // measure 53
0100
0030
0000
0011
0000
0000
0010
2000
0100
0000
3100
0000
0100
0000
1100
0000
,  // measure 54
0001
0000
0000
1100
0000
0000
0001
0020
1000
0030
0000
0110
0000
0000
1000
0001
,  // measure 55
0010
0001
1000
0100
0010
0100
1000
0001
0010
1000
0010
0001
0100
0010
1000
0100
,  // measure 56
2000
0000
0000
0000
,  // measure 57
0000
0000
0000
0000
,  // measure 58
0000
0000
0000
0000
,  // measure 59
0000
0000
0000
0000
,  // measure 60
0000
0000
0000
0000
,  // measure 61
0000
0000
0000
0000
,  // measure 62
3000
0000
0000
0001
0100
1000
0100
0001
,  // measure 63
0010
1000
0010
0001
0100
1000
0100
0202
,  // measure 64
0000
0000
0000
0000
,  // measure 65
0303
0000
0000
0000
;

//---------------dance-single - Copied from----------------
#NOTES:
     dance-single:
     Copied from:
     Medium:
     14:
     0.735,0.890,0.540,0.141,0.058:
1001
0000
0000
0000
,
1001
0000
1001
0000
,
1000
0100
1000
0010
1000
0100
1000
0010
,
0100
0001
0010
0001
0100
0001
0010
0001
,
0100
0100
0100
0000
0001
0001
0001
0000
,
0001
0011
0100
1100
,
1001
0000
2002
0000
0000
3003
0000
0000
,
0001
0001
1000
1000
0000
0000
0000
0000
,
2002
0000
0000
3003
,
0220
0000
0000
0030
,
0301
0000
0000
0001
0000
0000
0001
0000
0000
0001
0000
0000
0001
0000
0001
0000
,
0210
0000
0000
0000
0000
0000
0000
0300
,
1020
0001
0100
1030
,
0010
1000
0100
0001
0100
0010
0001
0100
,
0001
0010
0001
0100
1000
0100
0001
0010
,
0001
1000
0010
1000
0100
0001
0100
1000
,
0010
0100
0001
1000
0010
0001
0010
1000
,
0100
0010
0100
0010
0001
0010
1000
0010
,
0001
0100
0010
1000
0010
0001
0010
0100
,
0001
1000
0001
1000
0010
0100
0010
0100
,
0010
0001
0010
1000
0010
0001
0010
0100
,
1000
0000
0001
0000
1000
0010
0010
0100
,
0010
0000
1000
0000
0001
1000
1000
0010
,
0100
0000
0010
0000
0100
1000
1000
0010
,
0001
0000
0010
0000
1000
0001
0001
1000
,
0100
0000
0010
0000
0100
1000
1000
0001
,
0001
0000
0010
0000
0001
1000
1000
0010
,
0100
0000
0010
0000
0100
0010
0010
0100
,
0001
1100
1001
1001
,
0001
0001
1000
1000
0001
0001
1000
1000
,
0001
0000
0001
0000
1000
0000
1000
0000
0001
0000
0000
0001
0000
0000
0001
0000
,
0100
0100
0010
0010
0100
0100
0010
0010
,
0100
0100
0010
0010
1000
1000
0001
0001
,
1000
1000
0100
0100
0010
0010
0001
0001
,
0010
0000
0010
0000
0100
0000
0100
0000
1001
0000
0000
1001
0000
0000
1001
0000
,
0011
1100
1010
0101
,
1001
0110
1010
0011
,
1001
0001
0101
0000
1010
1000
1100
0000
,
0110
0100
0101
0000
0110
0010
0011
0000
,
1100
0100
0101
0000
0011
0010
1010
0000
,
2010
0010
0010
3010
,
0100
0100
0100
0100
0100
0000
0000
0010
,
0000
0010
0000
1000
1000
1000
1000
0001
,
0001
0001
0001
0100
0100
0000
0010
0010
,
0000
0010
0000
1000
1000
0001
0001
0001
,
2002
0000
0000
0000
,
0000
0000
0000
3003
1000
1100
0010
0011
,
0100
0001
0010
1000
0010
0100
1000
0001
,
0100
0000
0010
0000
0001
0000
0010
0000
1000
0000
0001
0000
0100
0000
0010
1000
,
0100
0010
0100
1000
0001
0100
0010
1000
,
0010
0000
0001
0000
0010
0000
0100
0000
0001
0000
0010
0000
0100
0000
0010
0100
,
1000
0001
0010
0001
0010
0100
0010
0001
,
1000
0000
0010
0000
0100
0000
1000
0000
0100
0000
0010
0000
0001
0000
0010
1000
,
0100
0010
0100
1000
0001
1000
0010
0100
,
0001
0000
0010
0000
0100
0000
1000
0000
0010
0100
0001
0000
1000
0001
0100
0000
,
1001
0000
0000
0000
,
0000
0000
0000
0000
,
0000
0000
0000
0000
,
0000
0000
0000
0000
,
0000
0000
0000
0000
,
0000
0000
0000
0000
,
0000
0000
0000
0001
1000
0001
1000
0001
,
1000
0001
1000
0001
1000
0001
1000
0001
;

//---------------dance-single - Copied from Copied f----------------
#NOTES:
     dance-single:
     Copied from Copied f:
     Easy:
     12:
     0.603,0.728,0.463,0.309,0.013:
1000
0000
0000
0000
,
0001
0000
1000
0000
,
0100
0000
0001
0000
1000
0010
0100
0000
,
0010
0000
1000
0000
0001
0010
0100
0000
,
1000
0100
1000
0000
0001
0100
0001
0000
,
1001
0110
1001
0110
,
1001
0000
2002
0000
0000
3003
0000
0000
,
0010
1000
0010
1000
0000
0000
0001
0000
,
0200
0000
0000
0001
,
0001
0000
0000
0010
0000
0000
0010
0010
,
1000
1000
0010
0010
,
1000
0000
1000
0000
0001
0000
0001
0301
,
2002
0000
0000
3003
,
0010
0000
1000
0000
0001
0100
0010
0000
,
1000
0010
0100
0001
0010
0100
0010
0000
,
0001
0000
0100
0000
0010
1000
0100
0000
,
1000
0010
0100
0001
0010
0001
0010
0000
,
0001
0000
1000
0000
0100
1000
0010
0000
,
0001
0100
1000
0100
0001
0100
1000
0000
,
0010
0000
1000
0000
1000
0100
0001
0000
,
0010
0001
0010
0100
0010
1000
0010
0100
,
0010
1000
1100
1100
,
0100
0100
0110
0110
,
0001
0001
1010
1010
,
0100
0100
0011
0011
,
0001
0001
1100
1100
,
0010
0010
1001
1001
,
0100
0100
0110
0110
,
1001
0110
1001
0110
,
0010
1000
0010
0000
1000
0100
1000
0000
,
0001
0000
1000
0000
0001
0000
0000
0000
0100
0000
0000
0001
0000
0000
0100
0000
,
0010
0100
0010
0000
1000
0001
1000
0000
,
0001
0100
0001
0000
1000
0100
1000
0000
,
0010
0100
0010
0000
0001
0100
0001
0000
,
1000
0000
0010
0000
1000
0000
0010
0000
0100
0000
0000
0100
0000
0000
1001
0000
,
0002
0000
2003
0000
,
3020
0000
0230
0000
,
0320
0030
0110
0000
0002
0003
1001
0000
,
2000
3000
1100
0000
0020
0030
0110
0000
,
0200
0300
0101
0000
0020
0030
1010
0000
,
2200
0000
0000
3300
,
0001
1000
0010
0100
0001
0000
0000
1000
,
0000
0001
0000
1000
0100
1000
0100
0010
,
0001
0010
0001
1000
0010
0000
0100
0001
,
0000
0010
0000
1000
0001
0100
0001
1000
,
2002
3003
2002
3003
,
2002
3003
0100
0100
,
0010
0000
1000
0000
0010
0100
0001
0000
,
0010
1000
0100
0001
0100
1000
0010
0000
,
0100
0000
0100
0000
0010
1000
0100
0000
,
0010
0001
0010
1000
0010
0001
0010
0000
,
0100
0000
1000
0000
0001
0100
0001
0000
,
0010
0001
0100
1000
0100
0001
0010
0000
,
0100
0000
1000
0000
0010
0100
0010
0000
,
0001
1000
0001
1000
0010
0100
0010
0100
,
0020
0000
0000
0000
,
0000
0000
0000
0000
,
0000
0000
0000
0000
,
0000
0000
0000
0000
,
0000
0000
0000
0000
,
0000
0030
0000
0000
,
0000
0000
0000
0001
0000
1000
0000
0001
,
0000
1000
0000
0001
0000
1000
0000
0001
;

//---------------dance-single - ----------------
#NOTES:
     dance-single:
     :
     Beginner:
     5:
     0.169,0.243,0.141,0.167,0.000:
0100
0000
0000
0000
,
0000
0000
0000
0000
,
0010
0000
0010
0000
,
0010
0000
0010
0000
,
1000
0000
1000
0000
,
1000
0000
1000
0000
,
2002
0000
0000
0000
,
0000
0000
3003
0000
,
0010
0000
0000
0000
,
0010
0000
0000
0000
,
0100
0000
0000
0000
,
1001
0000
0000
0000
,
0000
0000
0000
0000
,
0001
0000
1000
0000
,
0001
0000
1000
0000
,
0010
0000
0100
0000
,
0010
0000
0100
0000
,
0001
0000
1000
0000
,
0001
0000
1000
0000
,
0010
0000
0100
0000
,
2002
0000
3003
0000
,
0100
0000
0000
0000
,
0100
0000
0000
0000
,
0100
0000
0000
0000
,
0100
0000
0000
0000
,
0100
0000
0000
0000
,
0100
0000
0000
0000
,
0100
0000
0000
0000
,
0100
0000
0000
0000
,
2002
0000
0000
0000
,
3003
0000
0000
0000
,
0022
0000
0000
0000
,
0033
0000
0000
0000
,
2200
0000
0000
0000
,
3300
0000
0000
0000
,
0110
0000
1001
0000
,
1001
0000
0000
0000
,
0001
0000
0001
0000
,
0001
0000
0000
0000
,
1000
0000
1000
0000
,
1000
0000
0000
0000
,
0200
0000
0000
0000
,
0000
0000
0000
0000
,
0000
0000
0000
0000
,
0000
0000
0000
0000
,
0300
0000
0000
0000
,
0000
0000
0000
0000
,
0010
0000
0100
0000
,
0010
0000
0100
0000
,
0001
0000
1000
0000
,
0001
0000
1000
0000
,
0100
0000
0010
0000
,
0100
0000
0010
0000
,
1000
0000
0001
0000
,
1000
0000
0001
0000
,
1001
0000
0000
0000
,
0000
0000
0000
0000
,
0000
0000
0000
0000
,
0000
0000
0000
0000
,
0000
0000
0000
0000
,
0000
0000
0000
0000
,
0000
0000
0000
2002
0000
0000
0000
0000
,
0000
0000
0000
0000
,
3003
0000
0000
0000
;
