#TITLE:[HEAT-BIT-HIT-BEAT];
#SUBTITLE:;
#ARTIST:Unknown artist;
#TITLETRANSLIT:;
#SUBTITLETRANSLIT:;
#ARTISTTRANSLIT:;
#CREDIT:;
#BANNER:bn.png;
#BACKGROUND:bg.png;
#LYRICSPATH:;
#CDTITLE:cdtitle.png;
#MUSIC:[HEAT-BIT-HIT-BEAT].mp3;
#OFFSET:0.000;
#SAMPLESTART:100.050;
#SAMPLELENGTH:12.000;
#SELECTABLE:YES;
#BPMS:0.000=180.700;
#STOPS:57.688=0.020
,57.688=0.060
,57.875=0.060
,58.063=0.060
,58.250=0.060
,58.438=0.060
,326.000=0.180
,326.188=0.080
,326.563=0.820
,326.938=0.060
,327.500=0.040
,328.063=0.620
,328.438=0.420
,328.813=0.020
,329.063=0.020
,329.500=0.020
;
#BGCHANGES:;

//---------------dance-single - ----------------
#NOTES:
     dance-single:
     :
     Beginner:
     4:
     0.374,0.560,0.254,0.188,0.000:
0000
0000
0000
2000
,
0000
3010
0010
0000
,
0010
0010
0010
0001
,
0001
1000
0001
1000
,
0001
0001
1000
0000
,
0000
0100
0000
0010
,
0000
0001
0000
0010
,
0000
0100
0000
1000
,
0000
0100
0000
0110
,
0000
0001
0000
0000
,
0000
1000
0100
0010
,
0001
0010
0100
1000
,
0100
0000
0010
0001
,
1001
1001
0000
2002
,
0000
3003
0000
1000
,
1000
1000
1000
1000
,
1000
1000
1000
1000
,
1000
0001
0001
0001
,
0001
0001
0001
1000
,
0001
1000
0001
1000
,
0020
0000
0130
0100
,
0010
0012
0000
0000
,
0003
2200
0000
0300
,
3000
2020
0000
0000
,
0030
3000
0202
0000
,
0000
0300
0020
0000
,
1033
1000
0100
0100
,
0010
0010
0001
1000
,
0001
0100
0100
0010
,
0010
2000
0000
0000
,
0000
3200
0000
0000
,
0000
0320
0000
0000
,
0000
0032
0000
0000
,
0000
0000
0000
0003
,
0000
0000
1000
0100
,
0000
0010
0001
0000
,
0000
1000
0100
0010
,
0001
0010
0100
1000
,
0100
0010
0001
0010
,
0100
1000
0100
0010
,
0001
0010
0100
0010
,
0100
0010
0100
0010
,
0100
0010
0100
0010
,
0100
0010
0100
0010
,
0100
0010
0001
0001
,
1000
1000
0001
1000
,
1001
1001
0011
1100
,
1010
0000
0101
1010
,
1010
0100
0100
0010
,
0010
0000
0001
1000
,
0010
0100
0001
0001
,
0010
0010
0100
0100
,
1000
1000
0100
0100
,
0010
0010
0000
0001
,
0001
0010
0010
0100
,
1000
0100
0100
0010
,
0001
0010
1000
0100
,
0100
0010
0000
0000
,
0000
1000
0000
0000
,
0001
0000
0000
0010
,
0100
0100
0100
0100
,
0100
0100
0100
0100
,
0100
0100
0100
0001
,
0001
0100
0001
0000
,
0010
0100
1000
0100
,
0010
0001
0010
0100
,
1000
0100
0010
0100
,
0100
0010
0001
0010
,
0010
1000
0100
0010
,
0001
0001
0010
0010
,
0100
0100
1000
1000
,
0100
0010
2002
3003
,
0010
0010
1002
0003
,
0011
0100
1100
2200
,
3300
1010
0101
0010
,
0100
0010
0100
0011
,
0010
0100
1000
0011
,
0100
1000
0100
1000
,
0000
0011
0100
1000
,
1100
0010
0001
0011
,
0100
1100
0010
0011
,
1100
0000
1000
1000
,
1000
0000
1000
0000
,
0001
0001
0010
0010
,
0100
0100
1000
1000
,
0020
0230
0300
0000
;

//---------------dance-single - ----------------
#NOTES:
     dance-single:
     :
     Easy:
     8:
     0.516,0.771,0.565,0.327,0.000:
0000
0000
0000
2000
,
0000
3000
0010
0010
0000
0000
0000
0001
,
0000
0001
0001
1000
0101
0000
0000
0010
,
0000
0010
0010
0010
,
0000
0101
0000
0101
0000
0010
0000
0010
,
0000
0000
1000
1000
1000
0000
1000
0000
,
1000
0000
0010
0010
0000
0100
0000
0100
,
0000
0001
0000
0001
0000
1000
0100
0010
,
0001
0010
0100
1000
0000
1000
0100
0100
,
0000
0010
0001
0010
0100
0010
0000
0100
,
0010
0100
0100
0010
0000
0010
0000
0100
,
0001
0000
0010
1000
0000
0100
0000
0100
,
0000
0100
0100
0000
0000
0020
0000
0000
,
0030
0001
0000
0001
0000
1000
0000
0000
,
0000
0000
0000
0000
1001
0001
0000
0000
,
1000
0000
1000
0001
0000
0010
0000
0010
,
0000
0001
0000
0001
0010
0000
0010
0000
,
0100
0000
0100
0100
0000
0010
0000
0010
,
0000
0001
0000
0001
0000
0001
0000
1000
,
0000
1000
0000
1000
0010
0010
0010
0010
,
0001
0000
0010
0010
,
0010
0000
0010
0010
0010
0010
0001
0000
,
0000
0000
1000
1000
0000
0000
0100
0100
,
0100
0000
0010
0010
0010
0000
0001
0001
,
0001
0000
1000
1000
1000
0000
0000
0000
,
1000
1000
1000
0000
0100
0100
0100
0000
,
0010
0010
0010
0000
0001
0001
0001
0000
,
0010
0010
0010
0000
0100
0100
0100
0000
,
1000
0000
1000
0100
0100
0100
0000
0000
,
0000
0000
1000
0001
1000
0001
1000
0000
,
0001
1000
0001
1000
0001
1000
1001
0001
,
1000
0000
0010
0010
0000
0100
0010
0000
,
0100
0010
0100
1010
,
1100
0000
1010
0000
1010
0000
0000
0011
,
0000
0011
0100
1000
1100
0000
1010
0000
,
1001
1001
0110
0110
,
0000
0000
1000
0000
1100
0000
0000
0010
,
0000
0100
0010
0000
1000
0000
0000
0000
,
0000
1000
0000
1100
0000
0110
0000
0010
,
0000
0001
0000
1000
1000
0000
0000
1100
,
0000
0100
0000
0010
0000
0011
0000
0011
,
0100
0000
1000
0000
0000
1100
0000
1100
,
0000
0011
0000
1100
0000
1000
0000
1000
,
0000
1000
1000
0000
1000
0000
1000
0000
,
1000
0000
0000
1000
0000
0002
0000
0000
,
0003
0010
0000
0010
0000
0010
0010
0000
,
0000
0010
0000
0000
0000
0000
0000
0000
,
1000
0000
0200
0000
0000
0310
0000
0002
,
0000
0013
0000
0200
0000
2300
0000
3200
,
0000
0320
0000
0031
0000
0020
0000
0230
,
0000
2300
0000
3200
0000
0320
0000
0031
,
0000
0020
0000
0130
0000
1000
0000
0200
,
0000
0000
0320
0000
,
0032
0000
0000
0000
0000
0003
0000
0000
,
2000
0000
0000
0000
0200
3000
0000
0000
,
0000
0320
0000
0000
0000
0032
0000
0000
,
0000
0200
0000
0000
0003
0000
0000
2000
,
0300
0000
0000
0000
3000
1000
1000
1000
,
0000
0010
0010
0010
0000
0001
0001
0001
,
0000
0000
1100
1000
1000
0000
1000
0000
,
0000
1100
1100
1100
0000
0011
0011
0011
,
0000
0000
1100
1100
0000
1010
1010
1010
,
0000
0101
0101
0101
0000
1010
1010
1010
,
0000
0000
1001
1001
0000
0110
0100
0110
,
0000
1000
0000
0000
1000
0000
0000
0000
,
0000
0000
0110
0110
0000
0000
0000
0000
,
0000
0000
0110
0100
0010
0000
0000
0000
,
0000
0000
0110
0000
0000
0010
0000
0000
,
0010
0010
0000
0000
0000
0000
0110
0110
,
0000
0010
0000
0000
0000
0000
0110
0110
,
0100
0000
0000
0000
0000
0000
0110
0100
,
0110
0000
0000
0000
0000
0110
0100
0010
,
0000
0000
0000
0000
0000
0000
0110
0100
,
0110
0000
0000
0000
,
0000
0000
0000
0110
,
1001
0000
0101
0000
0110
0000
0000
0110
,
0110
1000
0001
2000
,
0000
0000
0000
0000
0000
0020
3000
0000
,
0000
0200
0030
0000
0302
0000
2003
0000
,
3020
0230
0302
0023
,
0230
0320
0230
0310
,
0100
0000
0010
0000
1000
1000
1000
1000
,
1000
1000
1000
1000
1000
0000
0001
0000
,
0001
0010
0200
0000
,
0000
0000
0000
0000
2000
0000
0000
3300
,
0000
2002
0000
0000
0000
3003
0000
0000
;

//---------------dance-single - ----------------
#NOTES:
     dance-single:
     :
     Medium:
     11:
     0.588,0.706,0.434,0.123,1.000:
0000
0000
0000
0000
0000
2002
0000
0000
0000
0000
0000
0003
,
3000
0000
0100
0000
0000
0100
0000
0000
0000
0000
0000
0100
,
0000
0000
0100
0000
0100
0001
0000
0000
1000
0000
0000
1000
,
0000
0000
1000
1000
0000
1000
0000
0000
0100
0000
0100
0100
,
0000
0000
1000
1000
0000
0000
0000
0010
0010
0010
0000
0000
,
0000
0000
0001
0001
0001
0000
0000
0001
0000
1000
1000
1000
,
0000
0000
0010
0000
0010
0010
0000
1000
0001
0001
0001
0000
,
0000
0000
1000
1000
1000
1000
0000
0000
0010
0000
0010
0010
,
0010
0000
0000
0001
0001
0001
0000
0000
0000
1000
1000
1000
,
0000
0001
0000
0000
0100
0100
0100
0000
0000
0010
0010
0000
,
0010
0000
0000
0001
0000
0001
1000
0000
0000
1000
0000
0001
,
0000
0000
1000
0000
0000
0001
0000
0000
1000
0000
0001
1000
,
0001
0000
1000
0001
1000
0000
0001
0000
1000
0001
1000
0000
,
0001
0000
1000
0000
0000
0001
0000
0000
1000
0000
0000
0100
,
0000
0000
0000
0000
0000
0000
0000
0000
0000
0000
0000
0000
0000
0000
0000
0000
0000
0000
0000
0000
0000
0000
0000
0000
0000
0000
0000
0000
0000
0000
0000
0000
0000
0000
0000
0000
0000
0000
0000
0000
0000
0000
0000
0000
0000
0000
0000
0000
0000
0000
0000
0000
0000
0000
0000
0000
0000
0000
0000
0000
0000
0000
0000
0000
0000
0000
0000
0000
0000
0000
0000
0000
0000
0000
0000
0000
0000
0000
0000
0000
0000
1000
0000
0000
0000
0000
0000
0000
0000
0000
0001
0000
0000
0000
0000
0000
0000
0000
0000
1000
0000
0000
0000
0000
0000
0000
0000
0000
0000
0000
0000
0000
0000
0000
0001
0000
0000
0000
0000
0000
0000
0000
0000
0000
0000
0000
0000
0000
0000
0000
0000
0000
0000
0000
0000
0000
0000
0000
0000
0000
0000
0000
0000
0000
0000
0000
0000
0000
0000
0000
0000
0000
0000
0000
0000
0000
0000
0000
0000
0000
0000
0000
0000
0000
0000
0000
0000
0000
0000
0000
0000
0000
0000
0000
0000
0000
0010
0000
0000
0000
0000
0000
0000
0000
0000
0000
0000
0000
0000
0000
0000
0000
,
0000
0010
0000
0000
0110
0010
0000
0100
0000
0000
0000
0110
,
0000
0010
0000
0000
0100
0000
0000
0010
0000
0000
0100
0000
,
0010
0000
0000
0100
0000
0000
0100
0000
0001
0000
0000
0000
,
1000
0100
0000
0010
0000
0001
0000
0001
0000
0000
0000
0000
,
0010
0010
0000
0010
0000
1000
0000
1000
1000
0100
0000
0000
,
0000
0000
0000
0000
0000
0000
1000
0100
0000
0010
0001
0000
,
0010
0000
0100
1000
0100
0000
0010
0000
0001
0010
0000
0010
,
0000
0010
1000
0001
0000
0001
1000
0010
0000
0010
0100
0001
,
0001
0000
1000
0010
0010
0000
0010
0100
0000
1001
0000
1001
,
0001
0000
0000
0100
0000
0000
0010
0000
0100
0000
0000
0000
,
1001
0000
1001
0000
0001
0000
1001
0000
0000
0000
0000
0000
,
1001
0001
0000
1001
0000
0000
0001
0000
0000
1001
0000
0000
,
0001
0000
1001
0001
,
1001
0001
1001
0001
,
1001
0000
0000
1001
0000
0001
0000
0000
1001
0000
0001
0000
,
0000
1001
0001
0000
0000
1001
0001
0000
0000
1001
0001
0000
,
0000
0000
0001
0001
0001
0000
0001
0001
0000
0001
0001
0000
,
0000
0000
0000
0000
0010
0010
0010
0000
0000
0000
1000
1000
,
1000
0000
0000
0000
0010
0010
0010
0000
0000
0100
0000
0100
,
0100
0000
0000
0010
0000
0010
0010
0000
0000
0001
0001
0001
,
0000
0000
0000
1000
1000
1000
0000
0000
0000
0000
0010
0000
,
0000
1000
0100
0010
,
0001
0010
0100
1000
,
0000
1000
0100
0010
0000
0001
0000
0010
0100
0000
1000
0100
,
0000
0100
0100
0000
0010
0000
0001
0000
0001
0000
0010
0000
,
1000
0000
0000
0100
0000
0000
0000
1000
0100
0000
0010
0001
,
0000
0010
0100
0000
0000
0000
0000
1000
0000
0000
0100
0000
,
0000
1000
0000
0010
0000
0000
0000
1000
0000
0010
0000
0000
,
0000
1000
0000
0100
0000
0000
1000
0000
0000
0000
0010
0000
,
0000
1000
0100
0010
0000
0001
0000
0010
0000
0000
0000
0000
,
1000
0100
1000
0100
,
0000
1000
0100
0000
0010
0001
0000
0010
0000
0000
0000
0000
,
0000
1000
0010
0000
0010
0000
0000
0100
0100
0000
0100
0000
,
0000
0001
0001
0000
0000
0000
0000
0000
0001
0001
0001
0000
,
0000
0010
0010
0010
0000
0000
0000
0100
0100
0100
0000
0000
,
0000
0000
1000
0000
0000
0000
0000
1000
0000
1000
0000
0000
,
0000
0010
0000
0010
0000
0000
0000
0100
0100
0000
0100
0000
,
0000
0001
0000
0000
0000
0000
0000
1000
0000
0000
1000
0000
,
0000
0010
0000
0100
0000
0000
0000
0000
0000
0000
0000
0000
,
0000
0000
0000
0000
0000
0000
0000
1000
0000
0000
1000
0000
,
0000
0000
0100
0000
0100
0000
0000
0000
0010
0000
0010
0000
,
0000
0001
0000
0000
0000
0001
0000
1000
0000
0100
0010
0100
,
0000
0010
0000
0100
0010
0000
0100
0000
0010
0100
0000
0010
,
0100
0000
0010
0000
0100
0000
0010
0000
0010
0100
0000
0000
,
0000
0010
0200
0000
0300
0000
0000
0010
0100
0000
0000
0000
,
0000
0010
0200
0000
0000
0000
0300
0010
0200
0000
0000
0000
,
0300
0000
0210
0000
0000
0000
0300
0000
0210
0000
0000
0000
,
0300
0000
0000
1000
0000
0010
0000
0000
1000
0000
0000
0010
,
0000
0000
1000
0000
0000
1000
0000
0000
1000
0000
0100
0010
,
0000
0001
0010
0000
0000
0010
0000
0100
0000
0010
0000
0100
,
0000
0010
0100
0000
0010
0000
0100
0000
0010
0100
0000
0010
,
0000
0010
0000
0101
0000
1000
0100
1000
0010
0000
0010
1000
,
0100
0000
1100
0100
0000
0000
0000
0000
0110
0100
0000
0100
,
0100
0000
1000
0100
0100
0000
1000
0100
0000
0100
1000
0001
,
0001
0000
1000
0010
0010
0000
0010
1000
0100
0000
0100
0100
,
0010
0100
0000
0100
0100
0000
0010
0100
0100
0000
0100
0010
,
0000
0000
1100
0000
1000
0100
0000
0000
0110
0000
0100
0010
,
0000
1000
0001
0000
1001
0000
0000
0000
1010
0000
0000
1010
,
0000
0000
1010
0000
1010
0000
0000
0101
0101
0000
0000
1010
,
0000
1010
0000
0000
0000
0000
0000
0000
0000
1001
0000
1001
,
0000
0000
0000
1001
0000
0000
1001
0000
0000
1001
0000
0010
,
0000
1001
0000
0010
0000
0000
1001
0000
0000
1001
0000
0000
,
1001
0000
0000
1001
0000
1001
0000
0000
0000
0010
0000
0000
,
1001
0000
0000
0010
0000
0001
1000
0000
0000
1001
0000
1001
,
0000
0000
0000
1001
0010
0000
0000
1001
0000
0010
0000
0000
,
0000
0000
2000
0000
0000
0000
0000
0000
0000
0002
0000
0000
,
0000
0000
0003
3000
0000
0000
2000
0000
0002
0000
0003
0000
,
3020
0200
0000
0000
0030
0000
0000
0000
0000
0300
0000
0000
,
1000
1000
0100
0100
,
0001
0001
0010
0100
,
0010
2002
0000
0000
,
0000
3003
0000
0000
;

//---------------dance-single - ----------------
#NOTES:
     dance-single:
     :
     Hard:
     15:
     0.476,0.524,0.156,0.450,0.725: // measure 1
0000
0000
0000
0000
0000
0002
2000
0000
0000
0000
0000
0000
0000
0000
0000
0000
,  // measure 2
3003
0000
0000
0010
0000
0000
0000
0010
0000
0000
0000
0000
0000
0010
0000
0000
,  // measure 3
0010
0000
0010
0010
0000
0100
0000
0100
,  // measure 4
0000
0000
0000
0001
0000
0000
0000
0000
0000
0000
0000
0001
0000
0001
0000
0000
,  // measure 5
1000
0000
0000
0000
0000
1000
0000
0100
,  // measure 6
0000
0000
0010
0000
0000
0000
0001
0000
0000
0000
0000
0010
0000
0000
0000
0100
,  // measure 7
0000
0000
0000
1000
0000
0000
0000
0100
0000
0000
0000
0010
0000
0000
0001
0000
,  // measure 8
0000
0000
0000
1000
0000
0000
0000
0100
0000
0000
0000
0010
0000
0000
0000
0001
,  // measure 9
0000
0000
0000
0010
0000
0000
0000
0100
0000
0000
0000
1000
0000
0000
0000
0001
,  // measure 10
0000
0000
0000
1000
0000
0001
0000
0001
,  // measure 11
0000
0000
0001
0000
0000
0000
0001
0000
0000
0000
0000
0001
0000
0000
0001
0000
,  // measure 12
0000
0000
0001
0000
0000
0000
0000
0000
0000
0000
2000
0000
0000
0000
0000
3200
,  // measure 13
0000
0000
0000
0020
0300
0000
0000
0000
0032
0000
0000
0000
0023
0000
0000
0000
,  // measure 14
0000
0130
0000
0000
1000
0000
0000
0200
0000
0000
0000
0302
0000
0000
0000
0000
,  // measure 15
0003
0000
0000
0000
0000
0000
1000
0001
1001
1000
0001
1000
0001
0000
0000
0000
,  // measure 16
1000
0001
0000
0000
0001
0000
0000
0001
0000
0000
0000
0000
0001
0000
0000
1000
,  // measure 17
0000
0000
0000
0000
1000
0000
0100
0000
0010
0000
0001
0000
0010
0000
0000
0100
,  // measure 18
0000
1000
0000
0000
0100
0000
0000
1000
0000
0100
0000
0000
1000
0000
0000
0000
,  // measure 19
1000
0000
0000
0100
0000
0010
0000
0001
0000
1000
0000
0010
0000
0000
0100
0000
,  // measure 20
0001
0000
0000
0000
0000
0000
0000
1000
0000
1000
0000
1000
0000
1000
0000
0000
,  // measure 21
0100
0000
0000
0100
0000
0000
0000
1000
0000
0100
0000
0000
0010
0000
0001
0000
,  // measure 22
0000
1000
0000
0100
0000
0010
0000
0000
0001
0000
1000
0000
0000
0100
0000
0010
,  // measure 23
0000
0001
0000
0000
1000
0000
0100
0000
0000
0010
0000
0001
0000
0000
1000
0000
,  // measure 24
0100
0000
0000
0010
0000
0001
0000
0010
0000
0000
0100
0000
0000
0010
0000
0100
,  // measure 25
0000
0010
0000
0100
0000
0000
0010
0000
0100
0000
0010
0000
0000
0100
0000
1000
,  // measure 26
0000
0000
0100
0000
0010
0000
0001
0000
0000
0000
0000
0000
0000
1000
0000
1000
,  // measure 27
0000
0100
0100
0000
0010
0010
0010
0001
,  // measure 28
0000
0000
0001
0000
0000
0000
0000
0000
1000
1000
0000
1000
0000
0000
0000
0010
,  // measure 29
0010
0010
0000
0010
0010
0010
0000
0000
,  // measure 30
0000
0000
0000
0000
0000
0001
0000
0000
1000
0000
0000
0000
0001
0000
0000
0000
,  // measure 31
1000
0000
0000
0000
0001
0000
1000
0000
0001
0000
0000
1000
0000
0001
1000
0001
,  // measure 32
0000
1000
0001
1000
,  // measure 33
0001
0000
0000
0000
0000
1001
0000
0000
0000
1001
0000
0000
0000
1001
0000
0000
,  // measure 34
0000
1001
0000
0000
0000
1001
0000
0000
0000
0010
0001
0000
0000
0011
0000
0000
,  // measure 35
0000
0011
0000
0000
0000
0010
0000
0000
0000
0001
0010
0000
0000
0000
0000
0000
,  // measure 36
0000
0001
0000
0010
0000
0000
0000
0000
0001
0000
0000
0010
0000
0000
0000
0000
,  // measure 37
0000
0000
0000
0002
0000
0000
0000
0000
0000
0000
0000
0000
0000
0000
0020
0000
,  // measure 38
0000
0000
0000
0000
0000
0000
0000
0000
0000
0000
0000
0000
0000
0000
0000
0033
,  // measure 39
0200
0000
0000
2000
,  // measure 40
0000
0000
0000
0000
0000
0000
0000
3300
0000
0000
0000
0000
2000
0000
0000
0000
,  // measure 41
0000
0000
0000
0000
0000
0000
0000
0020
0000
0000
0000
0000
0000
0000
0000
0000
,  // measure 42
0000
0000
0000
0000
0000
3030
0000
0000
0000
0200
0000
0000
0000
0000
0000
0000
,  // measure 43
0000
0000
0000
0000
0002
0000
0000
0000
0000
0000
0000
0000
0000
0000
0000
0303
,  // measure 44
0000
0000
0000
0000
0000
2002
0000
0000
0000
0000
0000
0000
0000
0000
0000
3003
,  // measure 45
0000
0001
0000
0001
0000
0001
0000
0001
0000
0000
0000
0010
0000
0000
0000
0000
,  // measure 46
0000
2000
0000
0000
0000
0000
0000
0000
0000
0002
0000
0000
0000
0000
0000
3003
,  // measure 47
0000
0001
0001
0001
0001
0000
0001
0000
,  // measure 48
0000
2000
0000
0000
0000
0000
0000
0000
0000
0020
3000
0000
0000
0000
0000
0000
,  // measure 49
0000
0200
0030
0000
0000
0000
0000
0000
0000
0000
0002
0300
0000
0000
0003
0000
,  // measure 50
0000
2000
0000
0000
0000
0000
3200
0000
0000
0000
0020
0300
0000
0000
0032
0000
,  // measure 51
0000
0000
0023
0000
0000
0000
0000
0130
0000
0000
2000
0000
0000
0000
3200
0000
,  // measure 52
0000
0000
0320
0000
0000
0000
0001
0030
0000
0020
0000
0000
0000
0000
0230
0000
,  // measure 53
0000
0000
2300
0000
0000
0200
3000
0000
0000
0000
2300
0000
0000
0000
3100
0000
,  // measure 54
0000
0000
0000
0000
0000
1000
0000
0000
0000
2000
0000
0000
0000
0000
0000
0000
,  // measure 55
0020
3000
0000
0000
0000
0130
0000
0000
0000
0000
0001
0000
1000
0000
0000
0001
,  // measure 56
0000
1000
0000
0000
0001
0000
0000
0000
0000
0000
1001
0000
0000
0000
0110
0000
,  // measure 57
0000
0001
0000
0000
0000
0011
0000
0000
0000
0000
1100
0000
0000
0000
1010
0000
,  // measure 58
0000
0000
1010
0000
0000
0000
0000
1010
0000
0000
1010
0000
0000
0000
1010
0000
,  // measure 59
0000
0000
1000
0000
0000
0100
0010
0000
0001
0000
0000
0001
0000
0001
0000
0010
,  // measure 60
0000
0000
0010
0000
0010
0000
1000
0000
0000
1000
1000
0000
0000
0100
0000
0100
,  // measure 61
0000
0100
0000
0000
0010
0000
0000
0000
0000
0000
0010
0010
0000
0010
0000
0000
,  // measure 62
0000
0000
0010
0010
0000
0010
0010
0000
0000
0000
0010
0010
0000
0010
0000
0000
,  // measure 63
0000
0000
0010
0000
0000
0010
0010
0000
0000
0000
0010
0000
0010
0000
0010
0000
,  // measure 64
0000
0000
0000
0000
0000
0000
0010
0010
0000
0000
0010
0000
0000
0000
0000
0000
,  // measure 65
0000
0000
0000
0010
0010
0000
0010
0000
0000
0000
0000
0010
0000
0010
0000
0010
,  // measure 66
0000
0000
0000
0010
0000
0010
0000
0010
0000
0000
0000
0000
0010
0000
0010
0010
,  // measure 67
0000
0000
0000
0001
0000
0001
0000
0001
0000
0000
0000
0010
0000
0010
0000
0010
,  // measure 68
0000
0000
0000
1000
0000
1000
0000
1000
0000
0000
0000
0000
0000
0000
0000
0000
,  // measure 69
0000
0000
0000
1000
0000
1000
0000
0000
0000
0000
0000
0100
0000
0100
0000
0000
,  // measure 70
0000
0000
0000
0000
0010
0010
0000
0000
0000
0000
0000
0000
0001
0001
0000
0000
,  // measure 71
0000
0000
0000
0000
0000
0000
0001
0001
0001
0000
0000
0000
0000
0000
0000
0000
,  // measure 72
0000
0000
0000
0010
0010
0010
0000
0000
0000
0000
0000
0000
0000
0000
0000
1000
,  // measure 73
0000
0000
0000
0100
0000
0000
0000
0010
0000
0000
0000
0001
0000
0000
0000
0010
,  // measure 74
0000
0000
0000
0000
0100
0000
0000
0010
0000
0000
0000
0200
0000
0000
0000
0020
,  // measure 75
0300
0000
0000
0000
0000
0230
0000
0000
0000
0320
0000
0000
0000
0200
0030
0000
,  // measure 76
0000
0000
0002
0000
,  // measure 77
0000
0000
0300
0000
0000
0000
0000
0000
0000
0020
0000
0003
0000
0000
0000
0000
,  // measure 78
0000
0000
0000
0200
0000
0000
0000
0030
0000
0000
0000
0000
0000
2000
0300
0000
,  // measure 79
0000
0000
0000
0000
0000
0000
0000
0200
3000
0000
0000
0000
0000
0000
0000
0020
,  // measure 80
0300
0000
0000
0000
0000
0000
0002
0030
0000
0000
0000
0000
0000
0000
0203
0000
,  // measure 81
0000
0000
0000
0000
,  // measure 82
0000
0000
0300
0000
0000
0000
0000
0000
0001
1000
0001
0000
0000
1000
0000
0000
,  // measure 83
0001
1000
0001
0000
0000
0000
0000
0000
0000
1000
0000
0000
0001
0000
0000
0000
,  // measure 84
0000
1000
0000
0000
2000
0000
0000
0000
0000
0000
0000
0002
0000
0000
0000
0000
,  // measure 85
0000
0000
0000
0000
,  // measure 86
0000
3003
0000
0110
0000
0000
0000
0000
;
