#TITLE:Gruntilda's lair;
#SUBTITLE:Grant Kirkhope;
#ARTIST:Unknown artist;
#TITLETRANSLIT:;
#SUBTITLETRANSLIT:;
#ARTISTTRANSLIT:;
#CREDIT:;
#BANNER:bn.png;
#BACKGROUND:bg.png;
#LYRICSPATH:;
#CDTITLE:;
#MUSIC:GRUNTY.mp3;
#OFFSET:0.040;
#SAMPLESTART:0.050;
#SAMPLELENGTH:12.000;
#SELECTABLE:YES;
#BPMS:0.000=97.860;
#STOPS:;
#BGCHANGES:;

//---------------dance-single - ----------------
#NOTES:
     dance-single:
     :
     Beginner:
     1:
     0.333,0.526,0.416,0.362,0.000:
0000
0000
0000
0000
,
0000
0000
0000
0000
,
0000
0000
1000
0000
0001
0000
0000
1000
,
0000
0001
0000
1000
,
0001
0000
0010
0000
0100
0010
0000
0100
,
0010
0001
1000
0010
,
2002
0000
0000
3003
0000
0000
0010
0100
,
0001
1000
0010
0100
0010
1001
0010
0000
,
0000
0000
0010
1001
1001
1001
0010
0100
,
0010
0001
1000
0010
0100
0001
0010
0100
,
1000
0100
0010
0001
1000
0010
0100
0001
,
1010
2200
3300
0022
,
0033
0000
1000
0100
0010
0001
0110
0000
,
1100
0010
0001
0000
0110
0000
1100
0000
,
0110
0001
0011
0011
,
0101
2200
0000
0000
,
0000
3300
0000
1000
1000
1000
1000
0000
,
0000
0001
0001
0001
0000
0001
0000
0000
,
0000
1000
1100
0000
0010
0000
0000
0011
,
0000
0000
0000
0001
0011
0000
0000
0100
,
1100
0000
0000
0010
0110
0000
0000
0100
,
0110
0000
0000
0000
0010
0110
0000
0000
,
0100
0110
0000
0010
0100
0001
0000
1000
,
0010
0100
0000
0002
0000
0023
0000
0230
,
0000
2300
0000
3000
0000
1000
0000
0000
,
0000
1000
0000
0000
0000
1000
0000
0000
,
0000
1001
0000
0110
0000
1001
0000
0110
,
0000
0000
0000
1001
0000
0110
0000
1001
,
1001
0110
0000
1001
1001
1001
0000
0110
,
0110
0110
0110
1001
1001
1001
0000
2002
,
0000
3003
0000
0010
0000
0100
0000
0010
,
0000
0001
1000
0000
0001
0000
1000
0001
,
0000
2000
0000
0020
0000
3000
0000
0230
,
0000
0000
0000
0302
0000
0000
0000
0023
,
0000
0000
0230
2000
0300
0000
0000
0000
,
0000
0000
0000
0200
3000
0000
0000
0002
,
0300
0000
0023
0000
0230
2000
0300
0000
,
3200
0000
0320
0032
0000
0000
0000
0000
,
0023
0230
0000
2300
0000
3200
0000
0000
,
0320
0031
0002
0023
,
0230
2300
3000
1000
,
0000
1000
0000
1000
,
0000
1000
1000
1000
,
1000
0000
1000
0000
1000
0100
0010
0001
,
1000
0000
0000
0000
0000
0000
0000
0000
0000
0000
0000
0000
0000
0000
0000
0000
0000
0000
0000
0000
0000
0000
0000
0000
0100
0000
0000
0000
0000
0000
0000
0000
0000
0000
0000
0000
0000
0000
0000
0000
0000
0000
0000
0000
0000
0000
0000
0000
0010
0000
0000
0000
0000
0000
0000
0000
0000
0000
0000
0000
0000
0000
0000
0000
0000
0000
0000
0000
0000
0000
0000
0000
0001
0000
0000
0000
0000
0000
0000
0000
0000
0000
0000
0000
0000
0000
0000
0000
0000
0000
0000
0000
0000
0000
0000
0000
2002
0000
0000
0000
0000
0000
0000
0000
0000
0000
0000
0000
0000
0000
0000
0000
0000
0000
0000
0000
0000
0000
0000
0000
0000
0000
0000
0000
0000
0000
0000
0000
0000
0000
0000
0000
0000
0000
0000
0000
0000
0000
0000
0000
0000
0000
0000
0000
0000
3003
0000
0000
0000
0000
0000
0000
0000
0000
0000
0000
0000
0000
0000
0000
0000
0000
0000
0000
0000
0000
0000
0000
0000
0000
0000
0000
0000
0000
0000
0000
0000
0000
0000
0000
0000
0000
0000
0000
0000
0000
0000
0000
0000
0000
0000
0000
;

//---------------dance-single - ----------------
#NOTES:
     dance-single:
     :
     Easy:
     3:
     0.404,0.488,0.597,0.425,0.000:
0000
0000
1001
0010
1100
0001
0010
1100
,
0100
0110
0010
0100
0010
0110
0000
0110
,
0000
0001
0000
0110
0000
1010
0010
0010
,
0000
1010
0010
0000
1010
0010
1000
0000
,
0010
0000
1000
0100
0011
0010
0100
1000
,
1100
1100
0010
0001
0110
0020
0000
0230
,
0000
0302
0000
0213
2300
0000
0000
0000
,
3200
0000
0000
0000
0302
0000
0000
0020
,
0003
0030
0002
0000
0223
0000
2330
0000
,
3220
0332
0223
2330
,
3220
0332
0223
2330
,
3220
0030
0301
0110
1000
0001
0010
1100
,
0000
0000
0010
0110
0110
0110
0001
0110
,
0110
0110
1000
0110
0110
0000
0110
0000
,
0110
0000
1100
0000
0011
0000
0000
1000
,
1100
0000
0010
0100
0010
0110
0100
0010
,
0100
0001
1010
0100
,
0011
0000
1000
0000
0000
1000
0000
0100
,
0000
1100
0000
0010
0000
0001
0000
0010
,
0000
1000
0000
0100
0000
0011
0000
0010
,
0000
1100
0000
0010
0000
0100
0000
0001
,
0000
1000
0000
0010
0000
0100
0000
0001
,
0000
1000
0000
0010
0000
0100
0000
0001
,
0000
1000
0000
0010
0000
0100
0000
0001
,
0000
0010
0000
0100
0000
1000
0000
0001
,
0000
0100
0000
0010
0000
1000
0000
0100
,
0000
1001
1001
0010
0000
0100
0000
0010
,
0000
0100
0000
1000
0001
1000
0001
1000
,
0001
1000
0001
0010
0100
0010
0100
0010
,
0110
0100
0010
0100
0010
0110
0100
0110
,
0000
0220
0000
0000
0330
0002
0000
0000
,
0000
2000
0000
3003
0010
0110
0000
1001
,
0000
0220
0000
2332
0000
0000
0000
0000
,
0000
0000
0000
0000
,
3003
1000
0000
0100
0010
0000
0001
0000
,
1000
0100
0000
0010
0000
0001
0000
0000
,
1100
0000
1000
1010
,
0100
0000
1010
0000
0100
1010
0100
1010
,
0100
1010
0100
1010
0100
1010
0100
0010
,
0100
0000
0000
0000
1000
0100
0000
0000
,
0001
0010
0000
0000
2002
0000
0000
3003
,
0220
0000
0000
0330
0022
0000
0000
0033
,
2200
0000
0000
3300
2020
0000
0000
0030
,
0002
0000
0000
3003
1000
0100
0000
0000
,
0000
1000
0100
0000
2002
0000
0000
0000
,
3003
0000
0000
0000
;

//---------------dance-single - ----------------
#NOTES:
     dance-single:
     :
     Medium:
     7:
     0.548,0.563,0.533,0.416,0.940:
0000
0000
2002
0000
0000
0000
0000
3003
0220
0000
0000
0000
,
0330
0000
0022
0000
0000
0000
0033
0000
2200
0000
0000
0000
,
3300
0000
0220
0000
0330
2002
0000
3003
0220
0000
0000
2332
,
0000
0000
3223
0000
0000
0000
0000
0330
2002
0000
0000
0000
,
0000
0000
3003
0010
0000
0100
1000
0001
0010
0100
0000
0011
,
0000
1001
0010
0000
0100
0010
0100
1000
0001
0000
0000
1000
,
0000
0000
1100
0010
0000
0001
0010
0100
1000
0010
0000
0100
,
0010
0000
0001
1000
0001
0000
0010
0100
0010
0101
0000
0000
,
0000
0000
0000
0010
0000
0101
0010
0100
1000
1010
0000
0100
,
0010
0000
0101
0010
0000
1001
1000
0000
1010
0110
0000
0110
,
0110
0000
0000
1010
1010
0110
0110
0000
1010
1010
0110
0110
,
0000
0000
0000
1000
0100
0001
0010
0100
0010
0000
1000
0001
,
0011
0010
0100
0020
0000
0130
0001
1000
0010
0200
0000
0301
,
2000
0000
0010
3200
0000
0002
0300
0000
0000
0020
0003
0000
,
0000
0230
0000
0000
2300
0000
0000
3200
0000
0320
0000
0000
,
0032
0000
0003
0002
0000
0000
0020
0000
0000
0000
0000
0000
,
0000
0000
0033
0000
0011
0011
0011
0000
0000
0000
1100
1100
,
1100
0000
0000
0000
0110
0010
0100
0010
0100
0010
0000
0000
,
0000
0000
0000
0000
0110
0100
0110
0000
0010
0100
0110
0010
,
0000
0100
0000
0000
0110
0100
0110
0000
0110
0110
0000
0000
,
0000
0000
0000
0000
0110
0000
0010
0110
0100
0000
0110
0010
,
0100
0000
0110
0000
0010
0000
0100
0010
0000
0001
1000
0000
,
0010
0100
0000
0001
1000
0000
0010
0100
0010
0100
0010
0000
,
0001
1000
0000
0000
1000
0100
0010
0001
1000
0000
0100
0010
,
0001
1000
0100
0010
0001
1000
0010
0000
0100
0010
0001
0000
,
1000
0100
0010
0001
1000
0000
0100
0010
0000
0001
0010
0000
,
0000
2002
0000
0000
3013
0000
0100
0010
0000
0100
0010
0000
,
0100
0010
0000
0100
0010
0000
0100
0010
0000
0100
0010
0000
,
0001
1000
0000
0000
0010
0100
0010
0100
0010
0000
0001
1000
,
0000
0001
1000
0000
0001
1000
0000
0001
1000
0000
0001
1000
,
0000
0001
1000
0000
0001
1000
0000
0001
0000
1000
0000
1001
,
0000
0000
0001
0000
0000
1000
0100
0010
0001
1000
0100
0010
,
0001
1000
0100
0010
0001
1000
0100
0010
0001
0010
0100
1000
,
0100
0010
0001
0010
0100
0010
0100
0010
0100
0010
0100
1000
,
0100
0010
0001
0010
0100
1000
0001
0010
0100
1000
0001
0010
,
0100
1000
0100
0010
0001
0010
0100
0010
0001
0010
0001
0010
,
0100
1000
0100
0000
0010
0110
0000
0010
0010
0000
0110
0001
,
0010
0000
0001
0000
0010
0001
0000
0010
0100
0000
0000
1000
,
0100
0000
0010
0001
0000
0000
1000
0000
0010
0100
0010
0010
,
0000
0000
0000
0000
0000
0000
1000
0110
0001
0110
1000
0110
,
0000
0001
1100
0010
0000
0000
2002
0000
0000
0000
0000
3000
,
0023
0000
0230
2300
,
0000
3002
0000
0023
0000
0000
0230
0000
0000
2300
0000
0000
,
3200
0000
0000
0320
0000
0030
0001
0010
0100
0001
0010
0100
,
1000
0000
0001
0010
0100
0110
0010
0000
0000
0000
0000
0000
;

//---------------dance-single - ----------------
#NOTES:
     dance-single:
     :
     Hard:
     14:
     0.594,0.608,0.389,0.190,1.000: // measure 1
0000
0000
0000
2002
0000
0000
0000
0000
0000
0000
0000
0000
0000
3003
0000
0000
0000
2002
0000
0000
0000
0000
0000
0000
,  // measure 2
0000
0000
3003
0000
0000
2002
0000
0000
0000
0000
0000
0000
0000
0000
3003
0000
0000
2002
0000
0000
0000
0000
0000
0000
,  // measure 3
3003
0000
0000
0000
0000
1000
0000
0000
0010
0000
0100
0000
0001
0000
1000
0000
0010
0000
0100
0000
0010
0000
0001
0000
,  // measure 4
1000
0000
0010
0000
0100
0000
0010
0000
0000
0100
0000
0000
0010
0100
0010
0000
0001
0000
0000
1000
0000
0000
0010
0000
,  // measure 5
0100
0000
0000
0000
0001
0000
0000
0000
0010
0000
0100
0000
0010
0000
0100
0010
0000
0000
0000
0000
0001
0000
0000
1001
,  // measure 6
0000
0000
0000
1000
0000
0001
0000
0000
0000
1000
0000
0001
0000
0010
0000
0100
0000
0010
0000
0000
0000
0000
0000
1000
,  // measure 7
0000
0000
0000
1000
0100
0011
0000
0000
0000
0010
0000
0100
0000
0010
0000
1000
0000
0100
0000
0000
0000
0001
0000
0010
,  // measure 8
0000
0000
0000
0100
0000
0001
0000
0000
0000
0010
0000
0100
0000
1000
0000
0010
0000
0100
0000
0000
0000
0000
0000
0000
,  // measure 9
0000
0000
0000
0000
0000
0000
1100
0000
0000
0000
0010
0001
0000
1000
0000
0000
0000
0000
1100
0001
0000
0000
0000
0010
,  // measure 10
0000
0100
0000
0000
0000
1100
0001
0000
0000
0000
0000
0010
0000
0100
0000
0000
0000
1000
0101
0000
0000
0000
0000
0000
,  // measure 11
1000
0000
0000
0000
0000
0000
1100
0001
0000
0000
0000
0000
1100
0000
0001
0000
1000
0100
0000
0000
0000
0000
0000
0000
,  // measure 12
0000
0000
0000
1100
0001
1000
1100
0001
1000
0100
0001
1000
,  // measure 13
0010
0000
0000
0000
0000
0000
0000
0101
1000
0000
0000
0000
0000
0100
0000
0000
0000
0000
0000
1100
0000
0001
0000
0000
,  // measure 14
1100
0001
0000
0000
0000
0100
1000
0001
0000
0000
0000
1100
0001
0000
0000
0000
0100
1000
0001
0000
0000
0000
0100
1000
,  // measure 15
0001
0000
0000
0000
0000
1100
0000
0001
0000
0000
0000
1100
0000
0001
0000
0000
0000
1100
0000
0001
0000
0000
0000
1000
,  // measure 16
0100
0000
0000
0000
0000
0000
0000
1000
0010
0000
0100
0000
0010
0000
0100
0000
0010
0000
0000
0001
1000
0000
1001
0000
,  // measure 17
0001
1000
0001
1000
0000
0000
0000
0020
0000
0000
0000
0000
1030
0000
0001
1000
0000
0010
0000
1000
0000
0000
0000
0100
,  // measure 18
1000
0101
1000
0000
0000
0010
0000
0000
1000
0000
0000
0000
0100
0000
1000
0100
1000
0100
0000
0000
1000
0000
0000
0000
,  // measure 19
0000
0000
0010
0000
0000
0000
1001
1000
0001
0000
0000
1000
0000
0010
0000
1000
0000
0001
0000
1000
0000
0000
0000
0100
,  // measure 20
0000
0010
0000
0000
0000
0001
0000
0000
1000
0000
0000
0000
0010
0000
1000
0100
0000
1000
0000
0000
0010
0000
0000
0000
,  // measure 21
0000
0000
0000
0000
0000
0000
0000
0000
1001
0000
0000
0000
0010
0000
0000
1000
0000
0100
1000
0000
0001
1000
0000
0000
,  // measure 22
0010
0000
0000
0100
1000
0000
0010
0000
1000
0000
0000
0000
0001
0000
1000
0000
0000
0000
0001
0000
0001
0000
0000
0000
,  // measure 23
1000
1000
0000
0010
0200
0000
0000
0020
0000
0030
0000
0000
,  // measure 24
0000
0020
0000
0000
0000
0330
0000
0000
0001
0000
1000
0010
0000
1000
0000
0100
0000
1000
0000
0010
0000
1000
0100
0000
,  // measure 25
1000
0000
0010
0000
1000
0100
0000
1000
0000
0010
0000
1000
0100
0000
1000
0010
0000
1000
0000
0100
0000
1000
0010
0000
,  // measure 26
0000
1000
0100
0000
1000
0010
0000
1000
0000
0100
1000
0000
0010
1000
0000
0100
1000
0000
0010
1000
0000
0000
0000
0000
,  // measure 27
0000
0000
0010
0100
0010
0100
0010
0100
0010
0002
0000
0000
0000
0013
0200
0000
0000
0000
0000
1300
0200
0000
0000
0000
,  // measure 28
0000
0310
0000
0002
0000
0000
0000
0003
0000
1000
0000
0100
0000
0010
0000
0001
0000
1000
0000
0100
0000
0010
0000
0001
,  // measure 29
0000
1000
0000
0100
0000
0010
0000
0001
0000
1000
0000
0100
0010
0000
0100
0000
0010
0000
0100
0000
0010
0000
0100
0000
,  // measure 30
0010
0000
0000
0100
0000
0001
1000
0000
0000
0000
0000
0000
1000
0000
0001
0000
0000
0000
0000
0000
0000
0000
0000
0000
,  // measure 31
0000
0000
0000
1001
0000
1001
0001
1000
0000
0010
0000
0100
0010
0000
0010
0000
0100
0000
0000
0000
0010
0100
0000
0000
,  // measure 32
0000
0010
0100
0000
0010
0100
0000
0000
0000
0010
0100
0000
0110
0000
0010
0100
0001
1000
0001
1000
0000
0001
1000
0001
,  // measure 33
0000
0000
0000
0020
0000
0000
0000
0000
0000
0030
0000
0001
0000
0000
1000
0001
1000
0001
1000
0001
0000
0010
0000
0100
,  // measure 34
0000
0000
0000
0010
0100
0000
0000
0000
0000
0010
0100
0000
0000
0000
0010
0000
0100
0000
0000
0000
0010
0000
0100
0000
,  // measure 35
0000
0000
0000
0000
0001
0000
0000
0000
0000
0001
1000
0001
1000
0000
0000
0010
0000
0100
0000
0010
0100
0000
0000
1000
,  // measure 36
0000
0000
0000
0000
0001
1000
0001
1000
0000
0001
0000
0010
0000
0000
0000
0001
0000
1001
1000
0000
0001
1000
0000
0000
,  // measure 37
0000
0000
0000
0000
0000
0000
0000
0000
0000
0000
1000
0001
1000
1001
0000
1001
0000
1001
1001
0000
1001
0000
0000
0010
,  // measure 38
0000
0100
0010
0000
0100
0000
0010
0000
0100
0000
0000
1001
1001
0000
1001
0000
0010
0000
0100
0000
0000
0010
0000
0100
,  // measure 39
0000
0010
0000
0100
0000
0010
0000
0100
0000
0110
0000
0000
1000
0000
0001
0000
1000
0000
0110
0000
0010
0000
0100
0000
,  // measure 40
0010
0000
0100
0000
0010
0000
0000
0000
0000
0000
0000
0000
1000
0000
0110
0000
0001
0000
0110
0000
1000
0000
0000
0110
,  // measure 41
0000
0001
0000
1000
0000
0010
0000
0000
0000
0000
0000
2000
0000
0000
0000
0000
0000
0000
0000
0000
0000
0000
0000
0000
,  // measure 42
0010
0000
0000
0000
0000
0000
0010
0000
0000
0000
0000
0000
0010
0000
0000
0000
0000
0000
0000
0010
0000
0000
0000
0000
,  // measure 43
0010
0000
0000
0000
0000
3000
0002
0000
0000
0000
0000
0000
0000
0010
0000
0000
0000
0000
0000
0010
0000
0000
0000
0000
,  // measure 44
0000
0010
0000
0000
0000
0000
0000
0010
0003
0000
0000
0000
1000
0000
0010
0000
0000
0100
0010
0000
0100
0000
0010
0000
,  // measure 45
0100
0000
0000
1000
0000
0001
0000
0010
0000
0100
0000
1000
0000
2002
0000
0000
0000
0000
0000
0000
3003
0000
0000
0000
;
