#TITLE:Grenade;
#SUBTITLE:;
#ARTIST:Bruno Mars;
#TITLETRANSLIT:;
#SUBTITLETRANSLIT:;
#ARTISTTRANSLIT:;
#GENRE:;
#CREDIT:;
#BANNER:Grenade.png;
#BACKGROUND:Grenade-bg.png;
#LYRICSPATH:;
#CDTITLE:;
#MUSIC:Grenade.mp3;
#OFFSET:0.055;
#SAMPLESTART:35.720;
#SAMPLELENGTH:12.000;
#SELECTABLE:YES;
#BPMS:0.000=216.003;
#STOPS:;
#BGCHANGES:;
#KEYSOUNDS:;

//---------------dance-single - 370K----------------
#NOTES:
     dance-single:
     370K:
     Challenge:
     18:
     1.000,1.000,0.081,0.054,1.000:
0000
0000
0000
0000
,
0000
0000
0000
0000
,
0000
0000
0000
0000
,
0000
0000
0000
0000
,
0000
1000
0010
1000
,
0010
0100
0010
0100
,
0001
0100
0001
0100
,
0010
1000
0100
0010
,
1000
0010
1000
0100
,
0010
0001
0100
0010
,
1000
0100
1000
0100
,
0010
0001
0100
0010
,
1000
0100
0001
0010
,
0001
0010
0100
1000
,
0010
1000
0001
0100
,
0010
0100
0010
1000
,
0001
0100
0010
0001
,
0010
0100
0010
0100
,
1000
0000
0000
0000
,
0000
0000
0000
0000
0000
0000
0000
0100
,
1100
0100
0010
0001
0010
0100
0010
0001
,
0100
1000
0100
0010
0100
1000
0100
0010
,
0001
0100
0010
1000
0100
1000
0100
0010
,
0001
0100
0001
0010
1000
0010
0100
0001
,
0010
1000
0010
0100
0001
0100
0010
1000
,
0001
0100
0010
1000
0100
0010
0100
1000
,
0100
0010
0100
0010
1000
0100
1000
0000
,
2000
3000
2000
3000
1000
0100
0010
1000
,
0010
0100
0010
0001
0100
0010
0001
1000
,
0100
0010
0100
0001
0010
1000
0001
1000
,
0100
0010
0001
0100
0010
1000
0001
0100
,
0001
0100
0010
1000
0100
0001
0010
0001
,
0010
0100
1000
0010
0100
0001
0100
1000
,
0100
0010
0001
0001
0001
0000
0000
0000
,
0000
0000
0000
0000
,
0000
0000
0000
0000
0000
0000
0000
0000
1000
0100
1000
0010
0100
0001
0100
0010
,
1000
0010
0100
0010
0001
0010
0100
0010
1000
0100
0010
0100
0001
0010
0100
0010
,
1000
0010
0100
0001
0010
1000
0010
0100
0001
1000
0010
0100
1000
0100
0001
0010
,
0100
0010
0001
1000
0100
1000
0001
0010
0100
0010
0100
0010
1000
0100
1000
0010
,
0100
0001
0100
0010
1000
0010
0100
0010
0001
0010
0100
0010
1000
0100
0010
0100
,
0001
0010
0100
0010
1000
0010
0100
0001
0010
1000
0010
0100
0001
1000
0010
0100
,
1000
0100
0001
0010
0100
0010
0001
1000
0100
1000
0001
0010
0100
0010
1000
0001
,
0010
1000
0010
0001
1000
0100
1000
0001
0010
0001
1000
0001
0100
0001
1000
0001
,
0010
1000
0001
1000
0100
0001
1000
0001
0010
0001
1000
0100
0001
0010
0001
1000
,
0100
0010
0001
1000
0010
1000
0100
0001
1000
0001
0100
0010
1000
0010
0100
0001
,
1000
0001
0100
0010
0001
0010
0001
0100
0010
1000
0010
0100
0001
0100
0010
0100
,
1000
0100
0010
0100
0001
0010
0100
0010
1000
0100
0010
0100
0001
0100
0010
1000
,
0100
0001
0100
0010
1000
0001
0100
0010
0001
0010
1000
0100
0010
0100
1000
0001
,
0010
0001
1000
0100
0010
0100
0001
0100
1000
0100
1000
0010
0100
0001
0100
0010
,
1000
0010
0100
0010
0001
0010
0100
0010
1000
0100
0010
0100
0001
0010
0100
0010
,
1000
0010
0100
0001
0010
1000
0010
0100
0001
1000
0010
0100
1000
0100
0001
0010
,
0100
0010
0001
1000
0100
1000
0001
0010
0100
0010
0100
0010
1000
0100
1000
0010
,
0100
0001
0100
0010
1000
0010
0100
0010
0001
0010
0100
0010
1000
0100
0010
0100
,
0001
0010
0100
0010
1000
0010
0100
0001
0010
1000
0010
0100
0001
1000
0010
0100
,
1000
0100
0001
0010
0100
0010
0001
1000
0100
1000
0001
0010
0100
0010
1000
0001
,
0010
1000
0010
0001
1000
0100
1000
0001
0010
0001
1000
0001
0100
0001
1000
0001
,
0010
1000
0001
1000
0100
0001
1000
0001
0010
0001
1000
0100
0001
0010
0001
1000
,
0100
0010
0001
1000
0010
1000
0100
0001
1000
0001
0100
0010
1000
0010
0100
0001
,
1000
0001
0100
0010
0001
0010
0001
0100
0010
1000
0010
0100
0001
0100
0010
0100
,
1000
0100
0010
0100
0001
0010
0100
0010
1000
0100
0010
0100
0001
0100
0010
1000
,
0100
0001
0100
0010
1000
0001
0100
0010
1000
0100
0010
0001
0000
0000
0000
0000
,
1000
1000
0100
0010
,
0001
0000
0002
0000
0000
0000
1003
0010
,
0100
1000
0010
0100
0001
0100
1000
0010
,
0100
1000
0010
0100
0001
0010
0001
0100
,
0010
1000
0100
0010
1000
0100
0001
0100
,
0010
0001
0100
0010
0001
1000
0010
0100
,
1000
0010
0100
0001
0100
1000
0010
0100
,
1000
0010
0100
0001
0010
0001
0100
0010
,
1000
0100
0010
1000
0100
0001
0100
0010
,
0001
0100
0010
0000
1100
0000
0100
0000
,
0110
0010
0011
0001
,
0101
0000
0100
0000
0100
1000
0100
1000
,
0100
0010
0100
0010
0001
0100
0101
0000
,
0100
1100
0100
0110
,
0010
0101
0010
1100
,
0100
0110
0010
1001
,
1001
4004
3003
0000
,
0000
0000
0000
0000
1000
0100
0010
0001
0010
0100
1000
0100
0010
0001
0100
0001
,
0000
0000
0000
0000
0001
0010
0100
1000
0010
0100
0001
0100
0010
1000
0100
0010
,
0000
1000
0100
0010
,
0010
0000
0002
0000
0003
0100
1000
0100
,
0010
0010
0001
0010
,
0100
0100
1000
0001
,
0200
0000
0010
0010
,
0310
0000
0000
0000
1100
0100
0110
0000
,
0011
0010
0100
1000
0100
0010
0001
0010
,
0100
0010
0001
0010
0100
1000
0100
0010
,
0001
1000
0010
0100
0001
0100
0010
1000
,
0100
0001
0100
1000
0010
0001
0010
1000
,
0100
0001
0100
0010
1000
0001
0100
0010
,
1000
0001
0100
0010
0001
1000
0010
0100
,
0001
1000
0010
0100
0001
1000
0010
0100
,
0001
0010
0001
0010
0100
1000
0100
1000
,
0100
0010
1000
0010
1000
0010
0001
0100
,
0001
0100
0001
0100
0010
1000
0001
1000
,
0001
1000
0010
0100
0010
0100
1000
0001
,
0100
0010
0100
0001
1000
0001
1000
0100
,
0010
0001
0100
0010
0100
0001
0010
1000
,
0010
0100
0001
1000
1000
1000
0000
0000
,
0000
0000
0000
0000
,
0000
0000
0000
0000
0000
0000
0000
0000
0000
0000
1000
0010
1000
0100
1000
0010
,
0100
0001
0100
0010
1000
0010
0100
0010
0001
0010
0100
0010
1000
0100
0010
0100
,
0001
0010
0100
0010
1000
0010
0100
0001
0010
1000
0010
0100
0001
1000
0010
0100
,
1000
0100
0001
0010
0100
0010
0001
1000
0100
1000
0001
0010
0100
0010
0100
0010
,
1000
0100
1000
0010
0100
0001
0100
0010
1000
0010
0100
0010
0001
0010
0100
0010
,
1000
0100
0010
0100
0001
0010
0100
0010
1000
0010
0100
0001
0010
1000
0010
0100
,
0001
1000
0010
0100
1000
0100
0001
0010
0100
0010
0001
1000
0100
1000
0001
0010
,
0100
0010
1000
0001
0010
1000
0010
0001
1000
0100
1000
0001
0010
0001
1000
0001
,
0100
0001
1000
0001
0010
1000
0001
1000
0100
0001
1000
0001
0010
0001
1000
0100
,
0001
0010
0001
1000
0100
0010
0001
1000
0010
1000
0100
0001
1000
0001
0100
0010
,
1000
0010
0100
0001
1000
0001
0100
0010
0001
0010
0001
0100
0010
1000
0010
0100
,
0001
0100
0010
0100
1000
0100
0010
0100
0001
0010
0100
0010
1000
0100
0010
0100
,
0001
0100
0010
1000
0100
0001
0100
0010
1000
0001
0100
0010
0001
0010
1000
0100
,
0010
0100
1000
0001
0010
0001
1000
0100
0010
0100
0001
0100
1000
0100
1000
0010
,
0100
0001
0100
0010
1000
0010
0100
0010
0001
0010
0100
0010
1000
0100
0010
0100
,
0001
0010
0100
0010
1000
0010
0100
0001
0010
1000
0010
0100
0001
1000
0010
0100
,
1000
0100
0001
0010
0100
0010
0001
1000
0100
1000
0001
0010
0100
0010
0100
0010
,
1000
0100
1000
0010
0100
0001
0100
0010
1000
0010
0100
0010
0001
0010
0100
0010
,
1000
0100
0010
0100
0001
0010
0100
0010
1000
0010
0100
0001
0010
1000
0010
0100
,
0001
1000
0010
0100
1000
0100
0001
0010
0100
0010
0001
1000
0100
1000
0001
0010
,
0100
0010
1000
0001
0010
1000
0010
0001
1000
0100
1000
0001
0010
0001
1000
0001
,
0100
0001
1000
0001
0010
1000
0001
1000
0100
0001
1000
0001
0010
0001
1000
0100
,
0001
0010
0001
1000
0100
0010
0001
1000
0010
1000
0100
0001
1000
0001
0100
0010
,
1000
0010
0100
0001
1000
0001
0100
0010
0001
0010
0001
0100
0010
1000
0010
0100
,
0001
0100
0010
0100
1000
0100
0010
0100
0001
0010
0100
0010
1000
0100
0010
0100
,
0001
0100
0010
1000
0100
0001
0100
0010
1000
0001
0100
0010
1000
0100
0010
0001
,
0000
1000
0000
0100
0000
0010
0000
0001
,
0000
0000
0001
0000
0000
0000
0002
0000
0000
0000
1000
0000
1000
0000
1003
0010
,
0100
0001
0100
1000
0001
0010
0001
1000
0100
1000
0001
1000
0010
1000
0001
1000
,
0100
0001
1000
0001
0010
1000
0001
1000
0100
1000
0001
0010
1000
0100
1000
0001
,
0010
0100
1000
0001
0100
0001
0010
1000
0001
1000
0010
0100
0001
0100
0010
1000
,
0001
1000
0001
1000
0100
0001
0100
1000
0001
0010
0001
1000
0100
1000
0001
1000
,
0010
1000
0001
1000
0100
0001
1000
0001
0010
1000
0001
1000
0100
1000
0001
0010
,
1000
0100
1000
0001
0010
0100
1000
0001
0100
0001
0010
1000
0001
1000
0010
0100
,
0001
0100
0010
1000
0001
1000
0100
0010
1000
0100
1000
0010
0100
0001
0100
0010
,
1000
0010
0100
0010
0001
0010
0100
0010
1000
0100
0010
0100
0001
0010
0100
0010
,
1000
0010
0100
0001
0010
1000
0010
0100
0001
1000
0010
0100
1000
0100
0001
0010
,
0100
0010
0001
1000
0100
1000
0001
0010
0100
0010
0001
1000
0010
1000
0010
0001
,
1000
0100
1000
0001
0010
0001
1000
0001
0100
0001
1000
0001
0010
1000
0001
1000
,
0100
0000
0000
0001
0000
0000
1000
0000
0000
0001
0000
0000
0010
0000
0000
0001
0000
0000
1000
0000
0000
0000
0000
0000
0100
0000
0000
0000
0000
0000
0010
0000
0000
0000
0000
0000
0001
0000
0100
0000
0001
0000
0100
0000
0001
0000
0100
0000
,
0001
0100
0001
0100
0001
0100
0001
0000
0000
0000
0000
0000
1000
0000
0000
0100
0000
0000
0010
0100
0010
0100
0010
0100
,
0010
0100
0010
0100
0010
0100
0010
0000
0000
0000
0000
0000
0001
1000
0001
1000
0001
1000
0001
1000
0001
1000
0001
1000
,
0001
1000
0001
1000
0001
1000
0001
0000
0000
0000
0000
0000
0020
0000
0000
0000
0000
0000
0000
0000
0000
0000
0000
0000
,
0100
0000
0130
0000
1000
0100
0010
0001
,
1000
0100
0010
0001
1000
0100
0010
0001
,
1000
0100
0010
0001
0010
0100
1000
0001
,
0010
0100
1000
0001
0010
0100
1000
0001
,
0010
0100
1000
0001
0100
0010
1000
0001
,
0100
0010
1000
0001
0100
0010
1000
0001
,
0100
0010
1000
0000
0100
0000
0010
0000
,
0010
0001
0001
0100
,
0010
0000
0000
0000
1000
0100
1000
0010
0100
0001
0100
0010
1000
0010
0100
0010
,
0001
0010
0100
0010
1000
0100
0010
0100
0001
0010
0100
0010
1000
0010
0100
0001
,
0010
1000
0010
0100
0001
1000
0010
0100
1000
0100
0001
0010
0100
0010
0001
1000
,
0100
1000
0001
0010
0100
0010
0100
0010
1000
0100
1000
0010
0100
0001
0100
0010
,
1000
0010
0100
0010
0001
0010
0100
0010
1000
0100
0010
0100
0001
0010
0100
0010
,
1000
0010
0100
0001
0010
1000
0010
0100
0001
1000
0010
0100
1000
0100
0001
0010
,
0100
0010
0001
1000
0100
1000
0001
0010
0100
0010
1000
0001
0010
1000
0010
0001
,
1000
0100
1000
0001
0010
0001
1000
0001
0100
0001
1000
0001
0010
1000
0001
1000
,
0100
0001
1000
0001
0010
0001
1000
0100
0001
0010
0001
1000
0100
0010
0001
1000
,
0010
1000
0100
0001
1000
0001
0100
0010
1000
0010
0100
0001
1000
0001
0100
0010
,
0001
0010
0001
0100
0010
1000
0010
0100
0001
0100
0010
0100
1000
0100
0010
0100
,
0001
0010
0100
0010
1000
0100
0010
0100
0001
0100
0010
1000
0100
0001
0100
0010
,
1000
0001
0100
0010
0001
0010
1000
0100
0010
0100
1000
0001
0010
0001
1000
0100
,
0010
0100
0001
0100
1000
0100
1000
0010
0100
0001
0100
0010
1000
0010
0100
0010
,
0001
0010
0100
0010
1000
0100
0010
0100
0001
0010
0100
0010
1000
0010
0100
0001
,
0010
1000
0010
0100
0001
1000
0010
0100
1000
0100
0001
0010
0100
0010
0001
1000
,
0100
1000
0001
0010
0100
0010
0100
0010
1000
0100
1000
0010
0100
0001
0100
0010
,
1000
0010
0100
0010
0001
0010
0100
0010
1000
0100
0010
0100
0001
0010
0100
0010
,
1000
0010
0100
0001
0010
1000
0010
0100
0001
1000
0010
0100
1000
0100
0001
0010
,
0100
0010
0001
1000
0100
1000
0001
0010
0100
0010
1000
0001
0010
1000
0010
0001
,
1000
0100
1000
0001
0010
0001
1000
0001
0100
0001
1000
0001
0010
1000
0001
1000
,
0100
0001
1000
0001
0010
0001
1000
0100
0001
0010
0001
1000
0100
0010
0001
1000
,
0010
1000
0100
0001
1000
0001
0100
0010
1000
0010
0100
0001
1000
0001
0100
0010
,
0001
0010
0001
0100
0010
1000
0010
0100
0001
0100
0010
0100
1000
0100
0010
0100
,
0001
0010
0100
0010
1000
0100
0010
0100
0001
0100
0010
1000
0100
0001
0100
0010
,
1000
0001
0100
0010
1000
0100
0010
0001
0000
0000
0000
0000
1000
0000
0000
0000
,
1000
0100
0010
0001
,
0002
0000
0010
0010
0013
0000
0110
0010
,
0100
1000
0100
0010
0100
0001
1000
0100
,
0010
0100
0001
0010
1000
0010
0001
0100
,
0010
1000
0001
0100
0010
1000
0001
0010
,
0100
0010
0100
0010
1000
0100
0010
0001
,
0010
0100
1000
0100
0010
0001
1000
0100
,
0010
0001
1000
0100
0010
0001
0100
0010
,
1000
0001
0010
0100
0001
0010
1000
0010
,
0100
0001
1000
0100
0010
0100
0001
1000
,
0010
0100
0001
1000
0010
0100
0001
1000
,
0100
0010
0100
0001
1000
0010
0100
0010
,
0001
1000
0010
0100
0001
1000
0100
0010
,
0001
0100
0010
1000
0001
0100
0010
0001
,
0010
0100
0010
0100
0001
0010
0100
2000
,
0000
0000
0000
0000
0000
0200
3000
0000
,
0020
0300
0000
0002
0030
0000
0013
0100
,
1000
0000
00M0
0M00
M000
0000
00M0
0M00
,
M000
0000
00M0
0M00
M000
0000
00M0
0M00
,
M000
0000
0000
0000
;

//---------------dance-single - 370K----------------
#NOTES:
     dance-single:
     370K:
     Hard:
     12:
     1.000,1.000,0.081,0.054,1.000:
0000
0000
0000
0000
,
0000
0000
0000
0000
,
0000
0000
0000
0000
,
0000
0000
0000
0000
,
0000
1000
0010
1000
,
0010
0100
0010
0100
,
0001
0100
0001
0100
,
0010
1000
0100
0010
,
1000
0010
1000
0100
,
0010
0001
0100
0010
,
1000
0100
1000
0100
,
0010
0001
0100
0010
,
1000
0100
0001
0010
,
0001
0010
0100
1000
,
0010
1000
0001
0100
,
0010
0100
0010
1000
,
0001
0100
0010
0001
,
0010
0100
0010
0100
,
1000
0000
0000
0000
,
0000
0000
0000
0000
0000
0000
0000
0100
,
1100
0100
0010
0001
0010
0100
0010
0001
,
0100
1000
0100
0010
0100
1000
0100
0010
,
0001
0100
0010
1000
0100
1000
0100
0010
,
0001
0100
0001
0010
1000
0010
0100
0001
,
0010
1000
0010
0100
0001
0100
0010
1000
,
0001
0100
0010
1000
0100
0010
0100
1000
,
0100
0010
0100
0010
1000
0100
1000
0000
,
2000
3000
2000
3000
1000
0100
0010
1000
,
0010
0100
0010
0001
0100
0010
0001
1000
,
0100
0010
0100
0001
0010
1000
0001
1000
,
0100
0010
0001
0100
0010
1000
0001
0100
,
0001
0100
0010
1000
0100
0001
0010
0001
,
0010
0100
1000
0010
0100
0001
0100
1000
,
0100
0010
0001
0001
0001
0000
0000
0000
,
0000
0000
0000
0000
,
0000
0000
0000
0000
0000
0000
1000
0100
0010
0100
0001
0010
,
1000
0010
0100
0001
0100
0010
1000
0100
0010
0001
0010
0100
,
1000
0010
0100
0010
1000
0100
0001
1000
0010
1000
0100
0001
,
0100
0010
1000
0100
1000
0010
0100
0010
0100
1000
0100
1000
,
0100
0001
0100
1000
0010
0100
0001
0010
0100
1000
0100
0010
,
0001
0010
0100
1000
0010
0001
0010
1000
0010
0001
1000
0100
,
1000
0100
0010
0100
0010
0001
0100
1000
0010
0100
0010
0001
,
0010
1000
0010
1000
0100
1000
0010
0100
1000
0100
0010
0001
,
0010
0100
1000
0100
0010
0001
0010
0001
0100
0001
0010
1000
,
0100
0010
1000
0010
1000
0100
1000
0001
0100
1000
0010
0100
,
1000
0001
0010
0001
0010
0100
0010
1000
0010
0001
0100
0010
,
1000
0100
0010
0001
0010
0100
1000
0100
0010
0001
0100
1000
,
0100
0001
0010
1000
0001
0100
0001
0010
1000
0010
0100
1000
,
0010
0001
0100
0010
0100
0001
1000
0100
1000
0100
0001
0100
,
1000
0010
0100
0001
0010
0100
1000
0100
0010
0001
0010
0100
,
1000
0010
0100
0010
1000
0010
0001
1000
0010
1000
0100
0010
,
0100
0010
0001
0100
1000
0010
0100
0010
0100
1000
0100
0010
,
0100
0001
0100
1000
0010
0100
0001
0010
0100
1000
0100
0010
,
0001
0010
0100
1000
0010
0100
0010
1000
0010
0001
1000
0100
,
1000
0100
0010
0100
0010
0001
0100
1000
0010
0100
0010
0001
,
0010
1000
0010
1000
0100
0001
0010
0001
1000
0100
0001
1000
,
0010
1000
0001
0100
0001
1000
0010
0001
0100
0001
0010
1000
,
0100
0010
0001
0010
1000
0100
1000
0001
0100
1000
0010
0100
,
1000
0001
0010
0001
0010
0100
0010
1000
0010
0001
0100
0010
,
1000
0100
0010
0001
0010
0100
1000
0100
0010
0001
0100
1000
,
0100
0001
0010
1000
0001
0100
1000
0100
0010
0000
0000
0000
,
1000
1000
0100
0010
,
0001
0000
0002
0000
0000
0000
1003
0010
,
0100
1000
0010
0100
0001
0100
1000
0010
,
0100
1000
0010
0100
0001
0010
0001
0100
,
0010
1000
0100
0010
1000
0100
0001
0100
,
0010
0001
0100
0010
0001
1000
0010
0100
,
1000
0010
0100
0001
0100
1000
0010
0100
,
1000
0010
0100
0001
0010
0001
0100
0010
,
1000
0100
0010
1000
0100
0001
0100
0010
,
0001
0100
0010
0000
1100
0000
0100
0000
,
0110
0010
0011
0001
,
0101
0000
0100
0000
0100
1000
0100
1000
,
0100
0010
0100
0010
0001
0100
0101
0000
,
0100
1100
0100
0110
,
0010
0101
0010
1100
,
0100
0110
0010
1001
,
1001
4004
3003
0000
,
0000
0000
0000
1000
0100
0001
0010
0100
1000
0010
0001
0100
,
0000
0000
0000
0001
0010
1000
0010
0100
0001
0010
1000
0100
,
0000
1000
0100
0010
,
0010
0000
0002
0000
0003
0100
1000
0100
,
0010
0010
0001
0010
,
0100
0100
1000
0001
,
0200
0000
0010
0010
,
0310
0000
0000
0000
1100
0100
0110
0000
,
0011
0010
0100
1000
0100
0010
0001
0010
,
0100
0010
0001
0010
0100
1000
0100
0010
,
0001
1000
0010
0100
0001
0100
0010
1000
,
0100
0001
0100
1000
0010
0001
0010
1000
,
0100
0001
0100
0010
1000
0001
0100
0010
,
1000
0001
0100
0010
0001
1000
0010
0100
,
0001
1000
0010
0100
0001
1000
0010
0100
,
0001
0010
0001
0010
0100
1000
0100
1000
,
0100
0010
1000
0010
1000
0010
0001
0100
,
0001
0100
0001
0100
0010
1000
0001
1000
,
0001
1000
0010
0100
0010
0100
1000
0001
,
0100
0010
0100
0001
1000
0001
1000
0100
,
0010
0001
0100
0010
0100
0001
0010
1000
,
0010
0100
0001
1000
1000
1000
0000
0000
,
0000
0000
0000
0000
,
0000
0000
0000
0000
0000
0000
0000
0000
0100
1000
0100
0010
,
0100
0001
0100
1000
0010
0100
0001
0010
0100
1000
0100
0010
,
0001
0010
0100
1000
0010
0100
0010
1000
0100
0001
1000
0010
,
1000
0100
0010
0100
0010
0001
0100
1000
0010
0100
0010
0100
,
1000
0100
0010
0100
0001
0100
1000
0010
0100
0001
0010
0100
,
1000
0100
0010
0001
0010
0100
1000
0010
0100
0010
1000
0010
,
0001
1000
0100
1000
0100
0010
0100
0010
0001
0100
1000
0010
,
0100
0010
0001
0010
1000
0010
1000
0100
0001
0010
0001
1000
,
0100
0001
1000
0010
1000
0001
0100
0001
1000
0010
0001
1000
,
0001
0010
1000
0100
0010
0001
0010
1000
0100
1000
0001
0100
,
1000
0010
0100
1000
0001
0100
0001
0010
0100
0010
1000
0100
,
0001
0100
0010
1000
0100
0010
0001
0010
0100
1000
0100
0010
,
0001
0100
0010
0100
0001
0100
1000
0001
0100
0001
0010
1000
,
0010
0100
1000
0010
0001
1000
0010
0100
0001
1000
0100
0010
,
0100
0001
0010
1000
0010
0100
0001
0010
0100
1000
0100
0010
,
0001
0010
0100
1000
0010
0100
0010
1000
0100
0001
1000
0010
,
1000
0100
0010
0100
0010
0001
0100
1000
0010
0100
0010
0100
,
1000
0100
0010
0100
0001
0010
1000
0010
0100
0001
0010
0100
,
1000
0100
0010
0001
0010
0100
1000
0010
0100
0010
1000
0010
,
0001
1000
0010
1000
0100
0001
0100
0010
0001
0100
1000
0010
,
0100
0010
0001
0010
1000
0010
1000
0100
1000
0010
0001
1000
,
0100
0001
1000
0010
1000
0001
0100
0001
1000
0010
0001
1000
,
0001
0010
1000
0100
0010
0001
0010
1000
0100
1000
0001
0100
,
1000
0010
0100
1000
0001
0100
0001
0010
0100
0010
1000
0100
,
0001
0100
0010
1000
0100
0010
0001
0010
0100
1000
0100
0010
,
0001
0100
1000
0100
0001
0010
1000
0001
0100
1000
0100
0010
,
0000
1000
0000
0100
0000
0010
0000
0001
,
0000
0000
0000
0001
0000
0000
0000
0000
0000
0002
0000
0000
0000
0000
0000
1000
0000
0000
1000
0000
0000
1003
0010
0000
,
0100
0001
1000
0001
0010
0001
0100
1000
0001
0010
1000
0001
,
0100
0001
1000
0010
1000
0001
0100
1000
0001
1000
0100
1000
,
0010
0100
0001
0100
0001
0010
0001
1000
0010
0001
0100
0010
,
0001
1000
0001
0100
0001
0100
0001
0010
1000
0100
1000
0001
,
0010
1000
0001
0100
0001
1000
0010
1000
0001
0100
1000
0001
,
1000
0100
1000
0010
0100
0001
0100
0001
0010
0001
1000
0010
,
0001
0100
1000
0001
1000
0010
1000
0100
0010
0100
0001
0100
,
1000
0010
0100
0001
0010
0100
1000
0100
0010
0001
0010
0100
,
1000
0010
0100
0010
1000
0100
0001
1000
0010
1000
0100
0001
,
0100
0010
0001
0100
1000
0010
0100
0010
0001
0010
1000
0010
,
1000
0100
0001
0010
0001
1000
0100
0001
1000
0010
1000
0001
,
0100
0000
0000
0000
0001
0000
0000
0000
1000
0000
0000
0000
0010
0000
0000
0000
0001
0000
1000
0000
0000
0000
0000
0000
0100
0000
0000
0000
0000
0000
0010
0000
0000
0000
0000
0000
0004
0000
0000
0400
0000
0000
0000
0000
0000
0000
0000
0000
,
0000
0000
0000
0000
0303
0000
0000
0000
1000
0000
0100
0000
0040
0400
0000
0000
,
0000
0000
0000
0000
0330
0000
0000
0000
0004
4000
0000
0000
0000
0000
0000
0000
,
0000
3003
0020
0000
,
0100
0000
0130
0000
1000
0100
0010
0001
,
1000
0100
0010
0001
1000
0100
0010
0001
,
1000
0100
0010
0001
0010
0100
1000
0001
,
0010
0100
1000
0001
0010
0100
1000
0001
,
0010
0100
1000
0001
0100
0010
1000
0001
,
0100
0010
1000
0001
0100
0010
1000
0001
,
0100
0010
1000
0000
0100
0000
0010
0000
,
0010
0001
0001
0100
,
0010
0000
0000
1000
0100
0010
0100
0001
0010
1000
0010
0100
,
0001
0100
0010
1000
0100
0010
0001
0010
0100
1000
0010
0100
,
0010
1000
0100
0001
1000
0010
1000
0100
0001
0100
0010
1000
,
0100
1000
0010
0100
0010
0100
1000
0100
1000
0100
0001
0100
,
1000
0010
0100
0001
0010
0100
1000
0100
0010
0001
0010
0100
,
1000
0010
0001
0010
1000
0010
0001
1000
0100
1000
0100
0010
,
0100
0010
0001
0100
1000
0010
0100
0010
0001
0010
1000
0010
,
1000
0100
1000
0010
0100
1000
0100
0010
0001
0010
0100
1000
,
0100
0010
0001
0010
0001
0100
0001
0010
1000
0100
0010
1000
,
0010
1000
0100
1000
0001
0100
1000
0010
0100
1000
0001
0010
,
0001
0010
0100
0010
1000
0010
0001
0100
0010
1000
0100
0010
,
0001
0010
0100
1000
0100
0010
0001
0100
1000
0100
0001
0010
,
1000
0001
0100
0001
0010
1000
0010
0100
1000
0010
0001
0100
,
0010
0100
0001
1000
0100
1000
0100
0001
0100
1000
0010
0100
,
0001
0010
0100
1000
0100
0010
0001
0010
0100
1000
0010
0100
,
0010
1000
0010
0001
1000
0010
1000
0100
0010
0100
0010
0001
,
0100
1000
0010
0100
0010
0100
1000
0100
0010
0100
0001
0100
,
1000
0010
0100
0001
0010
0100
1000
0100
0010
0001
0010
0100
,
1000
0010
0100
0010
1000
0010
0001
1000
0100
1000
0100
0010
,
0100
0010
0001
0100
1000
0010
0100
0010
0001
0010
1000
0010
,
1000
0100
0001
0010
0001
1000
0100
0001
1000
0010
1000
0001
,
0100
0001
1000
0010
0001
0100
0001
0010
1000
0100
0010
0001
,
0010
1000
0100
1000
0001
0100
1000
0010
0100
1000
0001
0010
,
0001
0010
0100
0010
1000
0010
0001
0100
0010
1000
0100
0010
,
0001
0010
0100
1000
0100
0010
0001
0100
1000
0100
0001
0010
,
1000
0001
0100
1000
0100
0010
0000
0000
0000
1000
0000
0000
,
1000
0100
0010
0001
,
0002
0000
0010
0010
0013
0000
0110
0010
,
0100
1000
0100
0010
0100
0001
1000
0100
,
0010
0100
0001
0010
1000
0010
0001
0100
,
0010
1000
0001
0100
0010
1000
0001
0010
,
0100
0010
0100
0010
1000
0100
0010
0001
,
0010
0100
1000
0100
0010
0001
1000
0100
,
0010
0001
1000
0100
0010
0001
0100
0010
,
1000
0001
0010
0100
0001
0010
1000
0010
,
0100
0001
1000
0100
0010
0100
0001
1000
,
0010
0100
0001
1000
0010
0100
0001
1000
,
0100
0010
0100
0001
1000
0010
0100
0010
,
0001
1000
0010
0100
0001
1000
0100
0010
,
0001
0100
0010
1000
0001
0100
0010
0001
,
0010
0100
0010
0100
0001
0010
0100
2000
,
0000
0000
0000
0000
0000
0200
3000
0000
,
0020
0300
0000
0002
0030
0000
0013
0100
,
1000
0000
00M0
0M00
M000
0000
00M0
0M00
,
M000
0000
00M0
0M00
M000
0000
00M0
0M00
,
M000
0000
0000
0000
;

//---------------dance-single - 370K----------------
#NOTES:
     dance-single:
     370K:
     Medium:
     10:
     0.860,0.752,0.081,0.090,0.000:
0000
0000
0000
0000
,
0000
0000
0000
0000
,
0000
0000
0000
0000
,
0000
0000
0000
0000
,
0000
1000
0010
1000
,
0010
0100
0010
0100
,
0001
0100
0001
0100
,
0010
1000
0100
0010
,
1000
0010
1000
0100
,
0010
0001
0100
0010
,
1000
0100
1000
0100
,
0010
0001
0100
0010
,
1000
0100
0001
0010
,
0001
0010
0100
1000
,
0010
1000
0001
0100
,
0010
0100
0010
1000
,
0001
0100
0010
0001
,
0010
0100
0010
0100
,
1000
0000
0000
0000
,
0000
0000
0000
0000
0000
0000
0000
0100
,
1100
0100
0010
0001
0010
0100
0010
0001
,
0100
1000
0100
0010
0100
1000
0100
0010
,
0001
0100
0010
1000
0100
1000
0100
0010
,
0001
0100
0001
0010
1000
0010
0100
0001
,
0010
1000
0010
0100
0001
0100
0010
1000
,
0001
0100
0010
1000
0100
0010
0100
1000
,
0100
0010
0100
0010
1000
0100
1000
0000
,
2000
3000
2000
3000
1000
0100
0010
1000
,
0010
0100
0010
0001
0100
0010
0001
1000
,
0100
0010
0100
0001
0010
1000
0001
1000
,
0100
0010
0001
0100
0010
1000
0001
0100
,
0001
0100
0010
1000
0100
0001
0010
0001
,
0010
0100
1000
0010
0100
0001
0100
1000
,
0100
0010
0001
0001
0001
0000
0000
0000
,
0000
0000
0000
0000
,
0000
0000
0000
0000
1000
0100
0010
0100
,
1000
0100
0001
0100
1000
0100
0001
0010
,
1000
0010
0001
0010
0100
0010
1000
0100
,
0010
0001
1000
0001
0100
0010
0100
1000
,
0010
0100
0010
0100
0010
0100
0010
0100
,
1000
0001
0010
0100
0001
0010
0100
0010
,
1000
0001
0010
0001
0100
1000
0010
1000
,
0010
1000
0001
1000
0001
1000
0100
1000
,
0001
1000
0100
1000
0010
1000
0100
0010
,
1000
0010
1000
0100
0001
0100
1000
0100
,
0001
0100
0001
0010
0100
1000
0100
0010
,
1000
0010
0100
0010
1000
0100
0001
0100
,
1000
0100
0010
0100
0001
0010
0100
1000
,
0010
0001
0100
0001
0100
1000
0100
0001
,
0010
0100
0010
0100
1000
0010
0100
0010
,
1000
0100
0001
0010
0100
0010
0100
0001
,
0010
0001
0100
0001
0010
0100
1000
0100
,
0001
0100
0010
0100
0001
0010
1000
0010
,
0100
0010
1000
0010
0001
0010
0100
0010
,
1000
0100
0010
0001
0100
1000
0100
0010
,
0001
0010
1000
0100
0010
1000
0100
1000
,
0010
0001
1000
0001
0010
1000
0100
0010
,
1000
0001
0010
1000
0001
0100
1000
0010
,
0001
0100
0010
0100
0010
1000
0100
0010
,
0100
0010
0001
0010
1000
0010
0100
1000
,
0100
0001
0010
0100
1000
0100
0001
0000
,
1000
1000
0100
0010
,
0001
0000
0002
0000
0000
0000
1003
0010
,
0100
1000
0010
0100
0001
0100
1000
0010
,
0100
1000
0010
0100
0001
0010
0001
0100
,
0010
1000
0100
0010
1000
0100
0001
0100
,
0010
0001
0100
0010
0001
1000
0010
0100
,
1000
0010
0100
0001
0100
1000
0010
0100
,
1000
0010
0100
0001
0010
0001
0100
0010
,
1000
0100
0010
1000
0100
0001
0100
0010
,
0001
0100
0010
0000
1100
0000
0100
0000
,
0110
0010
0011
0001
,
0101
0000
0100
0000
0100
1000
0100
1000
,
0100
0010
0100
0010
0001
0100
0101
0000
,
0100
1100
0100
0110
,
0010
0101
0010
1100
,
0100
0110
0010
1001
,
1001
4004
3003
0000
,
0000
0000
2000
0000
0000
0000
0100
0010
,
3000
0000
0002
0000
0000
0000
0100
0010
,
0003
1000
0100
0010
,
0010
0000
0002
0000
0003
0100
1000
0100
,
0010
0010
0001
0010
,
0100
0100
1000
0001
,
0200
0000
0010
0010
,
0310
0000
0000
0000
1100
0100
0110
0000
,
0011
0010
0100
1000
0100
0010
0001
0010
,
0100
0010
0001
0010
0100
1000
0100
0010
,
0001
1000
0010
0100
0001
0100
0010
1000
,
0100
0001
0100
1000
0010
0001
0010
1000
,
0100
0001
0100
0010
1000
0001
0100
0010
,
1000
0001
0100
0010
0001
1000
0010
0100
,
0001
1000
0010
0100
0001
1000
0010
0100
,
0001
0010
0001
0010
0100
1000
0100
1000
,
0100
0010
1000
0010
1000
0010
0001
0100
,
0001
0100
0001
0100
0010
1000
0001
1000
,
0001
1000
0010
0100
0010
0100
1000
0001
,
0100
0010
0100
0001
1000
0001
1000
0100
,
0010
0001
0100
0010
0100
0001
0010
1000
,
0010
0100
0001
1000
1000
1000
0000
0000
,
0000
0000
0000
0000
,
0000
0100
1000
0100
1000
0100
0010
0100
,
1000
0100
0001
0100
1000
0100
0001
0010
,
1000
0010
0001
0010
0100
0010
1000
0100
,
0010
0001
1000
0001
0100
0010
0100
1000
,
0010
0100
0010
0100
0010
0100
0010
0100
,
1000
0001
0010
0100
0001
0010
0100
0010
,
1000
0001
0010
0001
0100
1000
0010
1000
,
0010
1000
0001
1000
0001
1000
0100
1000
,
0001
1000
0100
1000
0010
1000
0100
0010
,
1000
0010
1000
0100
0001
0100
1000
0100
,
0001
0100
0001
0010
0100
1000
0100
0010
,
1000
0010
0100
0010
1000
0100
0001
0100
,
1000
0100
0010
0100
0001
0010
0100
1000
,
0010
0001
0100
0001
0100
1000
0100
0001
,
0010
0100
0010
0100
1000
0010
0100
0010
,
1000
0100
0001
0010
0100
0010
0100
0001
,
0010
0001
0100
0001
0010
0100
1000
0100
,
0001
0100
0010
0100
0001
0010
1000
0010
,
0100
0010
1000
0010
0001
0010
0100
0010
,
1000
0100
0010
0001
0100
1000
0100
0010
,
0001
0010
1000
0100
0010
1000
0100
1000
,
0010
0001
1000
0001
0010
1000
0100
0010
,
1000
0001
0010
1000
0001
0100
1000
0010
,
0001
0100
0010
0100
0010
1000
0100
0010
,
0100
0010
0001
0010
1000
0010
0100
1000
,
0100
0001
0010
0100
1000
0100
0001
0000
,
0000
1000
0000
0100
0000
0010
0000
0001
,
0000
0001
0000
0002
0000
1000
1000
1003
,
0100
0001
1000
0001
0100
0001
1000
0001
,
1000
0001
0010
1000
0100
0001
0010
1000
,
0001
1000
0100
0010
0001
0010
0100
0010
,
1000
0001
1000
0100
1000
0010
0100
0001
,
0010
0001
0100
0001
0010
0001
0100
0001
,
0010
0100
0010
1000
0100
0010
0001
0100
,
0001
0100
0001
0100
0010
0100
0010
0100
,
1000
0010
0001
0010
1000
0010
0100
0010
,
1000
0100
0010
1000
0100
0010
1000
0100
,
0010
0100
1000
0001
0100
0010
0100
0010
,
0001
0100
0010
1000
0100
1000
0010
1000
,
0100
0001
0010
1000
0100
0010
0002
0200
,
0000
0000
0303
0000
1000
0100
0020
0000
,
0200
0330
0002
2000
,
0000
3003
0020
0000
,
0100
0000
0130
0000
1000
0100
0010
0001
,
1000
0100
0010
0001
1000
0100
0010
0001
,
1000
0100
0010
0001
0010
0100
1000
0001
,
0010
0100
1000
0001
0010
0100
1000
0001
,
0010
0100
1000
0001
0100
0010
1000
0001
,
0100
0010
1000
0001
0100
0010
1000
0001
,
0100
0010
1000
0000
0100
0000
0010
0000
,
0010
0001
0001
0100
,
0010
0000
1000
0100
0010
0001
0010
0100
,
0010
0100
0010
0100
0001
0100
1000
0010
,
0001
0010
0100
0010
1000
0100
0010
0100
,
0010
0001
0010
0100
0010
1000
0100
0010
,
1000
0100
0010
0100
1000
0100
0010
0100
,
1000
0100
0001
1000
0100
0010
1000
0100
,
0010
0001
0100
1000
0100
1000
0001
1000
,
0001
0100
0010
1000
0100
1000
0010
1000
,
0100
1000
0010
1000
0100
0010
1000
0001
,
0010
0100
0001
0100
1000
0100
0001
0100
,
0010
0001
0010
1000
0100
0010
1000
0010
,
0001
0010
1000
0010
0001
0010
1000
0001
,
0010
0100
0001
1000
0100
1000
0010
1000
,
0010
0001
0100
1000
0010
0001
1000
0100
,
0001
0100
1000
0100
0001
0100
1000
0100
,
0001
1000
0100
0010
1000
0001
0010
0001
,
1000
0001
0010
0100
0010
0100
0010
0100
,
1000
0100
0001
0100
1000
0100
0001
0100
,
1000
0100
0001
1000
0001
0010
1000
0001
,
0010
0001
1000
0001
0100
1000
0001
1000
,
0001
1000
0010
1000
0100
1000
0010
1000
,
0100
1000
0010
1000
0100
0010
1000
0010
,
1000
0100
0001
0100
1000
0100
0001
0100
,
0010
0001
0100
1000
0001
0010
1000
0010
,
0001
0010
1000
0010
0001
0010
1000
0001
,
0010
0100
1000
0010
0001
0000
1000
0000
,
1000
0100
0010
0001
,
0002
0000
0010
0010
0013
0000
0110
0010
,
0100
1000
0100
0010
0100
0001
1000
0100
,
0010
0100
0001
0010
1000
0010
0001
0100
,
0010
1000
0001
0100
0010
1000
0001
0010
,
0100
0010
0100
0010
1000
0100
0010
0001
,
0010
0100
1000
0100
0010
0001
1000
0100
,
0010
0001
1000
0100
0010
0001
0100
0010
,
1000
0001
0010
0100
0001
0010
1000
0010
,
0100
0001
1000
0100
0010
0100
0001
1000
,
0010
0100
0001
1000
0010
0100
0001
1000
,
0100
0010
0100
0001
1000
0010
0100
0010
,
0001
1000
0010
0100
0001
1000
0100
0010
,
0001
0100
0010
1000
0001
0100
0010
0001
,
0010
0100
0010
0100
0001
0010
0100
2000
,
0000
0000
0000
0000
0000
0200
3000
0000
,
0020
0300
0000
0002
0030
0000
0013
0100
,
1000
0000
00M0
0M00
M000
0000
00M0
0M00
,
M000
0000
00M0
0M00
M000
0000
00M0
0M00
,
M000
0000
0000
0000
;
