#TITLE:Gods & Monsters;
#SUBTITLE:;
#ARTIST:Lana Del Rey & Tim Larcombe;
#TITLETRANSLIT:;
#SUBTITLETRANSLIT:;
#ARTISTTRANSLIT:;
#GENRE:;
#CREDIT:;
#BANNER:Gods & Monsters.png;
#BACKGROUND:Gods & Monsters-bg.png;
#LYRICSPATH:;
#CDTITLE:;
#MUSIC:Gods & Monsters.mp3;
#OFFSET:0.035;
#SAMPLESTART:9.840;
#SAMPLELENGTH:11.740;
#SELECTABLE:YES;
#BPMS:0.000=192.000;
#STOPS:;
#BGCHANGES:;
#KEYSOUNDS:;

//---------------dance-single - 370K----------------
#NOTES:
     dance-single:
     370K:
     Challenge:
     17:
     1.000,1.000,0.067,0.679,1.000:
0000
0000
0000
1000
0000
0000
0000
1100
,
0000
0000
0000
0000
0000
0110
0000
0000
,
0000
0000
0000
0000
0000
0001
0010
0001
0000
0000
0000
0000
0000
0000
0000
0000
0000
0000
0000
0000
0000
0110
0000
0000
,
0000
0000
0000
0000
0000
1100
0000
0000
,
0000
0000
0000
0010
0010
0001
0001
0010
,
0000
1000
1000
0100
0100
0010
0000
0000
,
0000
0000
0000
0000
0000
0000
0010
0001
0010
0000
0000
0000
0000
0000
0000
0000
0000
0000
0000
0000
0000
1001
0000
0000
,
0000
0000
0000
0000
0000
0000
0000
2000
,
0000
0000
0200
3000
0000
0000
0020
0000
0300
0000
0000
0000
0000
0000
0000
0000
,
0030
0002
0000
0020
0003
0000
0030
2000
,
0000
0000
0000
0200
0000
0000
3000
0000
0000
0000
0000
0000
0000
0000
0020
0300
0000
0000
0000
0000
0000
0000
0000
0000
,
0000
0000
0030
0002
0000
0020
0003
0200
,
0030
0000
0000
2000
0000
0000
0300
0000
0000
0000
0000
0000
0000
0000
0000
3000
0200
0000
0000
0000
0000
0000
0000
0000
,
0000
0300
0000
0000
,
0000
0000
0000
0000
0000
0000
0000
0000
0020
0000
0000
0030
0020
0000
0000
0000
,
0002
0000
0030
0000
0020
0000
0003
0000
2000
0000
0030
0000
0200
3000
0000
0300
,
0200
0000
0020
0300
0002
0030
0000
0000
,
0023
0000
0000
0000
0200
0030
0000
0000
,
2000
0000
0300
0000
0000
0000
0000
0000
3200
0000
0000
0300
0200
0000
0000
0300
,
0020
0000
0000
0030
0020
0000
0000
0030
0002
0000
0000
0000
2003
0000
0000
0000
,
3002
0000
0000
0000
0203
0000
0000
0300
0400
0000
0000
0000
0000
0000
0300
0000
,
1000
0000
1000
0011
,
0000
0000
0000
0000
0020
0030
0200
0300
,
1000
1000
0004
0000
,
0103
1000
0010
0000
,
0200
0000
0000
0000
0000
0002
0000
0300
,
0000
2000
0003
0000
0000
3020
0000
0200
,
0030
0020
0000
0300
0000
2000
0030
0000
,
0000
0002
0000
3000
0000
0000
0003
0000
,
0000
0000
2000
0000
0000
0000
0000
0000
0000
0000
3200
0000
0000
0300
0200
0000
,
0000
0002
0000
0300
0000
0020
0003
0200
,
0030
0020
0300
2030
0000
3004
0000
0000
,
0000
0203
0300
0000
0000
0000
0000
0000
,
0000
0002
0003
0002
0000
2000
0000
0003
,
0000
3020
0000
0200
0030
0002
0300
0000
,
0000
2003
3000
2000
0000
0400
3000
0000
,
0000
0020
0000
0330
0000
0000
1000
0000
,
0001
0200
0300
0010
,
0010
1000
0001
0100
,
0000
0000
0100
0000
0001
0100
0010
1000
,
0001
0000
1000
0000
0100
0000
0010
0000
1000
0000
1000
0000
1000
0100
1000
0001
,
1000
0100
1000
0100
0010
0001
0100
0001
0010
0100
1000
0010
0001
0010
0100
1000
,
0010
1000
0100
0010
1000
0010
0001
0100
0010
1000
0100
1000
0010
0001
0010
0100
,
1000
0000
0000
0010
0000
0000
0001
0000
0000
0100
0000
0000
0010
0000
0000
1000
0000
0000
0001
0000
0000
0010
0000
0000
0100
0000
0000
1000
0000
0000
0100
0000
0000
0010
0000
0000
0001
0000
0100
0000
0001
0000
0100
0000
0010
0000
0100
0000
,
1000
0000
0100
0000
1000
0000
0100
0000
1000
0000
0100
0000
1000
0000
0100
0000
0010
0000
0001
0000
0010
0000
0100
0000
1000
0000
0100
0000
0010
0000
0001
0000
1000
0000
0001
0000
1000
0000
0000
0100
0000
0000
0010
0000
0000
0001
0000
0000
,
1000
0100
0010
0001
1000
0010
0100
0001
1000
0010
0100
0001
0010
0001
0100
0010
,
1000
0100
1000
0010
0001
0100
0001
0010
0001
0100
1000
0010
0100
0001
0010
0100
,
1000
0001
1000
0001
0010
0100
1000
0100
1000
0010
0001
0010
0001
0100
0001
0100
,
0010
1000
0010
1000
0100
0010
0100
0010
0100
0001
1000
0001
1000
0000
0000
0000
,
0000
0000
0000
0000
0000
0000
0000
2000
,
3000
2000
3000
0200
0300
0200
0300
2222
,
0000
0000
3333
0002
0000
0000
0000
0020
,
0000
0003
0000
0200
0030
2300
3000
2000
,
0000
0000
0000
0000
0000
0000
3200
0000
0000
0300
0200
0000
0000
0000
0020
0000
,
0000
0000
0000
0000
0300
0000
0002
0000
0000
0000
0000
0000
0030
0003
0002
0000
,
0000
0000
0000
0020
0003
0200
0030
2000
,
0300
0000
0200
0000
3000
0000
0000
0000
0300
0000
0000
0000
0000
0000
0000
0100
,
1000
0100
0010
0001
0010
0100
1000
0100
0010
0100
1000
0001
0010
0100
1000
0100
,
1000
0100
0010
0001
0010
0001
0010
0100
0001
0100
0001
0100
0010
1000
0010
1000
,
0010
0100
0010
1000
0010
0100
0001
0010
0100
0010
0001
0100
1000
0100
0010
0001
,
0100
0000
0000
0001
0000
0000
0010
0000
0000
0100
0000
0000
1000
0000
0000
0100
0000
0000
0010
0000
0000
0001
0000
0000
0100
0000
0000
0001
0000
0000
0100
0000
0000
0010
0000
0000
1000
0000
0000
0010
0000
0000
0100
0000
0010
0000
0001
0000
,
0010
0001
0010
0100
1000
0100
1000
0000
0000
0000
0000
0000
0000
0000
0000
0000
0000
0000
0000
0000
0000
0000
0000
0000
,
0000
0000
0000
0000
,
0000
0000
0000
0000
2000
0000
0000
0000
0002
3000
0000
0003
0002
0000
0000
0000
,
0200
0003
0020
0300
,
1000
0030
1100
0100
,
0000
0010
0000
0000
,
0000
0000
0002
0023
,
0200
0030
2000
0300
,
0100
3000
0110
0001
,
0000
0000
0000
0000
0000
0000
1010
0000
0000
0000
0000
0000
0000
0000
0000
0000
0000
0000
0000
0000
0000
0000
0010
0100
,
0010
0000
0110
0000
,
0011
0000
1100
0000
0000
2000
0000
0200
,
3300
0100
0010
0001
0010
0100
1000
0010
0100
0010
0001
0010
,
0100
0010
1000
0001
0100
0010
0001
0100
1000
0100
0010
0001
,
1000
0010
0100
0001
0010
0100
0010
0001
0100
0001
0010
1000
,
0100
0010
0001
0100
0010
1000
0001
0100
0010
0100
1000
0100
,
0010
0001
0100
1000
0100
0001
0100
0010
1000
0100
0001
0100
,
0010
1000
0100
1000
0010
0001
0100
0010
0001
0010
0100
1000
,
0100
1000
0100
0010
0001
0100
0010
1000
0100
1000
0010
0001
,
0100
0000
0000
0000
0010
0000
0001
0000
0000
0010
0000
0000
0100
0000
0000
1000
0000
0000
0100
0000
0000
0010
0000
0000
0001
0000
0000
0100
0000
0000
0010
0000
0000
1000
0000
0000
0001
0000
0000
0100
0010
0000
0100
0000
0010
0000
0100
0000
,
0010
0100
0010
0100
0010
0100
0010
0000
0100
0000
1000
0000
0100
0000
0010
0000
0001
0000
0100
0000
0010
0000
1000
0000
,
0100
1000
0010
0001
0100
0001
0010
0100
0001
0010
0001
1000
,
0100
0010
1000
0100
1000
0001
0010
0100
0001
1000
0100
0010
,
0100
0001
1000
0001
0010
0100
0001
0100
0001
0100
0010
1000
,
0100
0010
0100
1000
0001
1000
0001
1000
0100
0010
0001
0010
,
0100
1000
0100
0010
0001
1000
0100
0010
0100
1000
0010
0001
,
0100
0010
0000
0200
0000
0000
0000
0000
0000
0302
0000
0000
,
2003
0000
0000
0000
3020
0000
0000
0000
0000
0000
0030
0000
0100
0010
0100
0010
,
0100
0010
0100
0010
0100
1000
0100
0010
0001
0010
0100
0010
,
1000
0001
0100
0010
1000
0001
0100
0010
0100
0001
0010
0100
,
0010
0001
0010
0001
0010
0001
0100
0010
1000
0010
0100
0001
,
0010
0100
0001
1000
0010
0100
0010
0100
1000
0100
0010
0001
,
0100
0010
1000
0001
0010
0100
1000
0100
0010
1000
0100
0010
,
0001
0100
0010
0100
0001
0010
1000
0100
0001
1000
0010
0100
,
0001
0100
0010
1000
0100
1000
0001
0010
0100
0001
0010
0100
,
0010
1000
0001
0010
0100
0001
1000
0100
1000
0010
0100
0001
,
0010
0100
1000
0001
0100
0010
1000
0100
0010
0001
0010
0100
,
1000
0100
1000
0100
0001
0010
0001
0010
0001
0010
1000
0001
,
1000
0001
1000
0001
1000
0001
0010
0100
0010
0100
0010
0100
,
0010
0100
1000
0001
0100
0010
1000
0100
0001
0010
0100
0010
,
1000
0000
0100
0000
0010
0000
0001
0000
0010
0000
0000
0000
0000
0000
0000
0000
0000
0000
0000
0000
0000
2000
0000
0000
,
0000
0000
0000
0200
0000
0000
0000
0320
,
0000
0030
0020
0000
0000
0000
0032
0000
0003
0000
0200
0000
0000
0000
0302
0000
,
0000
3023
0030
0100
1000
0100
0010
0001
,
0010
0000
0100
0000
1000
0000
1000
0100
1000
0100
0010
0001
0010
0100
1000
0100
,
0010
0100
1000
0100
1000
0100
0010
0001
0100
0001
0100
0001
0100
0001
0010
1000
,
0010
1000
0010
1000
0100
0001
0010
0001
0010
0001
0010
0001
0010
0100
1000
0100
,
0010
0000
0000
0100
0000
0000
1000
0000
0000
0100
0000
0000
0010
0000
0000
0001
0000
0000
0010
0000
0000
0100
0000
0000
1000
0000
0100
0000
0010
0000
0001
0000
0010
0000
0100
0000
1000
0000
0100
0000
0010
0000
0001
0000
0010
0000
0100
0000
,
1000
0100
0010
0001
0010
0100
1000
0100
1000
0100
1000
0100
1000
0000
0100
0000
0001
0000
0100
0000
0001
0000
0100
0000
,
0010
1000
0010
1000
0100
0010
0001
0010
0100
1000
0001
0010
,
0100
1000
0001
0100
0010
0100
1000
0001
0100
0010
0001
0010
,
0100
0000
0000
0000
0001
0000
0000
0000
0010
0000
0000
0000
1000
0000
0000
0000
0100
0000
0010
0000
0000
0100
0000
0000
0010
0000
0000
0100
0000
0000
0010
0000
0100
0000
0010
0000
0100
0000
0010
0000
0100
0000
0010
0000
0100
0000
0010
0000
,
0100
0000
0000
0000
,
0000
0000
0000
0000
0200
0300
0020
0030
,
0002
0003
0002
0003
2222
0000
0000
3333
,
0020
0000
0000
0000
0130
0010
0100
0010
,
0100
0000
0000
0010
0000
0000
0100
0000
0000
0010
0000
0000
0100
0000
0010
0000
0100
0000
0010
0000
0100
0000
0010
0000
0100
0000
0000
0000
0000
0000
0000
0000
0000
0000
0000
0000
0000
0000
0000
0000
0000
0000
0000
0000
0000
0000
0000
0000
,
2000
3200
0320
0000
,
0032
0000
0000
0000
0003
0002
0000
0000
,
0000
0023
0000
0230
0000
2300
3000
4000
,
0000
0000
0000
0000
0000
0000
0000
0000
0000
0000
0000
0000
3000
0000
0000
0000
0000
0000
0000
0000
0000
0000
0000
0000
0001
0000
0010
0000
0100
0000
1000
0000
0100
0000
0010
0000
0001
0000
0000
0010
0000
0000
0100
0000
0000
1000
0000
0000
,
0100
0000
0010
0000
0100
0000
0010
0000
0100
0000
0010
0000
0100
0000
0000
1000
0000
0000
0100
0000
0000
1000
0000
0000
0100
0000
0000
0010
0000
0000
0001
0000
0000
0100
0000
0000
0001
0000
0000
0100
0000
0000
0001
0000
0000
0010
0000
0000
,
0100
1000
0100
0010
0001
0010
0100
1000
0010
0100
0001
1000
0010
0100
0001
1000
,
0100
0010
0100
1000
0100
0010
0001
0010
0100
0010
0001
0010
0100
1000
0100
0010
,
0100
0000
0000
0010
0000
0000
0100
0000
0000
0010
0000
0000
1000
0000
0000
0001
0000
0000
0010
0000
0000
0100
0000
0000
1000
0000
0000
0100
0000
0000
0001
0000
1000
0000
0001
0000
1000
0000
0001
0000
1000
0000
0001
0000
1000
0000
0001
0000
,
1000
0000
0000
0000
,
0000
0000
0000
0000
0000
0000
0000
2000
,
0000
0200
3000
0020
0300
0002
0000
0030
,
0003
0000
0000
0001
0100
0000
0010
0000
1000
0000
0100
0000
0010
0000
1000
0000
0100
0000
0010
0000
0100
0000
1000
0000
,
0100
0001
0010
0100
1000
0100
0010
0100
1000
0001
0100
0010
,
1000
0010
0100
0001
0010
0100
1000
0001
1000
0010
0100
0001
,
0010
0100
1000
0100
0010
0001
0010
0100
1000
0001
0010
0001
,
0100
1000
0010
0100
0001
0010
0100
1000
0100
0010
0001
0010
,
0100
1000
0001
0100
0010
1000
0100
0010
0001
0010
0100
0010
,
0100
0000
0010
0000
0100
0000
0000
0000
0000
0000
0000
0000
0000
0000
0000
0000
0100
0010
0100
0000
0000
0000
0000
0000
,
0000
0110
0000
1000
,
0000
0000
0000
0000
0400
0000
0000
0000
0000
0000
0000
0000
1300
0100
0010
0001
,
0010
0100
1000
0100
1000
0100
0010
0001
0100
0001
0100
0001
0100
0010
1000
0010
,
1000
0100
0001
0010
0001
0010
0001
0010
0100
1000
0010
1000
0010
1000
0010
0001
,
1000
0010
0100
0001
1000
0010
0100
0001
1000
0010
0100
0001
1000
0100
0010
0001
,
0010
0100
1000
0100
0010
0001
1000
0100
0010
0001
1000
0100
0010
0001
0010
0100
,
1000
0001
0010
0100
1000
0001
0010
0100
1000
0100
1000
0100
1000
0100
1000
0010
,
0001
0010
0001
0010
0001
0010
0001
0010
0100
0010
0100
0010
0100
0010
0100
0001
,
1000
0001
1000
0001
1000
0001
1000
0001
0010
1000
0010
1000
0010
1000
0010
1000
,
0010
0000
0000
1000
0000
0000
0100
0000
0000
1000
0000
0000
0100
0000
0000
0010
0000
0000
0001
0000
0010
0000
0100
0000
1000
0000
0100
0000
0010
0000
0001
0000
0010
0000
0100
0000
1000
0000
0100
0000
0010
0000
0001
0000
0010
0000
0100
0000
,
1000
0100
0010
1000
0001
0100
0010
0001
0100
0010
1000
0100
0010
0100
0010
0100
,
0001
0010
0100
1000
0100
0010
0100
0001
0010
1000
0100
0010
0100
0010
0100
0010
,
0100
0001
0100
0001
0100
0010
1000
0010
1000
0010
0001
0100
0010
1000
0010
0001
,
0100
0010
1000
0001
0100
0010
0100
1000
0010
0001
0100
0010
1000
0001
0100
0001
,
0010
0000
0000
0000
,
0000
0000
2000
0000
0000
0000
0200
0000
3000
0300
0200
0000
0000
0000
0002
0000
,
0000
0000
0300
0000
0000
0000
0023
0000
0000
0030
0020
0000
0000
0000
0002
0000
,
0000
0000
0030
0000
0000
0000
0000
0000
0003
0000
0400
0000
0000
0000
1300
0100
,
1000
0001
1000
0100
1000
0100
0010
0001
0100
0001
0010
0100
1000
0010
0001
0010
,
0100
1000
0010
1000
0100
0010
1000
0010
0001
0100
0010
1000
0100
1000
0010
0001
,
0010
0000
0000
0100
0000
0000
1000
0000
0000
0010
0000
0000
0001
0000
0000
0100
0000
0000
0010
0000
0000
1000
0000
0000
0001
0000
0000
0010
0000
0000
0100
0000
0000
1000
0000
0000
0100
0000
0000
0010
0000
0000
0001
0000
0100
0000
0001
0000
,
0100
0000
0010
0000
0100
0000
1000
0000
0100
0000
1000
0000
0100
0000
1000
0000
0100
0000
1000
0000
0100
0000
0010
0000
0001
0000
0010
0000
0100
0000
1000
0000
0100
0000
0010
0000
0001
0000
1000
0000
0001
0000
1000
0000
0000
0100
0000
0000
,
0010
0001
1000
0100
0010
0001
1000
0010
0100
0001
1000
0010
0100
0001
0010
0001
,
0100
0010
1000
0100
1000
0010
0001
0100
0001
0010
0001
0100
1000
0010
0100
0001
,
0010
0100
1000
0001
1000
0001
0010
0100
1000
0100
1000
0010
0001
0010
0001
0100
,
0001
0100
0010
1000
0010
1000
0100
0010
0100
0010
0100
0001
1000
0001
1000
0000
,
0000
0000
0000
0000
,
2000
3000
2000
3000
0200
0300
0200
0300
,
2222
0000
0000
3333
0002
0000
0000
0000
,
0020
0000
0003
0000
0200
0030
2300
3000
,
2000
0000
0000
0000
0000
0000
0000
0000
3200
0000
0000
0300
0200
0000
0000
0000
,
0020
0000
0000
0000
0000
0000
0300
0000
0002
0000
0000
0000
0000
0000
0030
0003
,
0002
0000
0000
0000
0020
0003
0200
0030
,
2000
0300
0200
3000
0000
0300
0000
0000
,
0000
0100
1000
0100
0010
0001
0010
0100
1000
0100
0010
0100
1000
0001
0010
0100
,
1000
0100
1000
0100
0010
0001
0010
0001
0010
0100
0001
0100
0001
0100
0010
1000
,
0010
1000
0010
0100
0010
1000
0010
0100
0001
0010
0100
0010
0001
0100
1000
0100
,
0010
0001
0100
0001
0010
0100
1000
0100
0010
0001
0100
0001
0100
0010
1000
0010
,
0100
0010
0001
0010
0001
0010
0100
1000
0100
1000
0100
0000
0010
0000
0001
0000
0010
0000
0100
0000
1000
0000
0100
0000
,
0010
0100
0010
0001
0010
0100
1000
0100
0010
0001
0100
0001
,
0100
0000
0000
0000
1000
0000
0000
0000
0100
0000
0000
0000
0010
0000
0000
0000
0001
0000
2000
0000
0000
0000
0000
0000
0000
0000
0000
0000
0000
0000
0002
0000
0000
3000
0000
0000
0000
0000
0000
0003
0000
0000
0002
0000
0000
0000
0000
0000
,
0000
0200
0000
0003
0000
0020
0000
0300
,
0000
0000
1030
0100
0010
0001
0010
0100
1000
0100
0010
0001
0010
0100
1000
0001
,
0010
0100
1000
0001
0010
0100
1000
0100
0010
0001
1000
0100
0010
0001
1000
0100
,
0010
0001
1000
0010
0100
0001
1000
0010
0100
0001
1000
0010
0100
0001
1000
0001
,
1000
0001
1000
0010
0100
0010
0100
0010
0100
0010
0001
0010
0001
0010
0001
0010
,
0001
1000
0100
1000
0100
1000
0100
0010
0001
0010
0100
1000
0010
1000
0010
0001
,
0100
0001
0010
0100
1000
0010
0100
0001
0010
0100
1000
0100
0010
0001
0010
0100
,
1000
0100
0010
0100
1000
0100
0010
0001
0010
0100
0010
0001
0010
0100
0010
0001
,
0010
0100
1000
0100
0010
0100
0001
1000
0010
0100
0001
0010
0200
0000
0000
0000
,
0000
0000
0000
0000
,
0300
0000
0000
0000
;
