#TITLE:Frozen Ray for EXTREME;
#SUBTITLE:;
#ARTIST:AnotherEDIT;
#TITLETRANSLIT:;
#SUBTITLETRANSLIT:;
#ARTISTTRANSLIT:;
#CREDIT:;
#BANNER:Frozen Ray (for EXTREME).png;
#BACKGROUND:Frozen Ray (for EXTREME)-bg.png;
#LYRICSPATH:;
#CDTITLE:215edit.png;
#MUSIC:Frozen Ray (for EXTREME).ogg;
#OFFSET:-0.260;
#SAMPLESTART:67.950;
#SAMPLELENGTH:12.000;
#SELECTABLE:YES;
#DISPLAYBPM:156.000;
#BPMS:0.000=155.950;
#STOPS:;
#BGCHANGES:0.000=Frozen Ray.avi=1.000=1=1=0,
99999=-nosongbg-=1.000=0=0=0 // don't automatically add -songbackground-
;

//---------------dance-single - ----------------
#NOTES:
     dance-single:
     :
     Challenge:
     17:
     0.849,1.000,0.056,0.244,0.907: // measure 1
0000
0000
0000
0000
,  // measure 2
0000
0000
0000
0000
,  // measure 3
0000
0000
0000
0000
,  // measure 4
0000
0000
0001
0000
1000
0000
0100
0000
1000
0010
0100
0001
0010
0000
0100
0000
,  // measure 5
2000
0000
3000
0200
0000
0300
0020
0030
,  // measure 6
0002
0003
0200
0000
0300
0020
0030
2000
,  // measure 7
3002
0000
0003
0020
0200
0000
0000
0330
,  // measure 8
1000
0100
0001
0100
1000
0001
0100
1000
,  // measure 9
0010
1000
0100
0000
0010
0001
0100
0000
0010
1000
0100
0000
0010
0001
0100
0000
,  // measure 10
0100
0001
0010
0000
0100
1000
0010
0000
0100
0001
0010
0000
0100
1000
0010
0000
,  // measure 11
0010
1000
0100
0000
0010
0001
0100
0000
0010
1000
0100
0000
0010
0001
0100
0000
,  // measure 12
0010
1000
0100
0000
0010
0001
0100
0000
0010
1000
0100
0000
0010
0001
0100
0000
,  // measure 13
1000
0100
0001
0000
1000
0010
0001
0000
1000
0100
0001
0000
1000
0010
0001
0000
,  // measure 14
0001
0010
1000
0000
0001
0100
1000
0000
0001
0010
1000
0000
0001
0100
1000
0000
,  // measure 15
0100
0001
1000
0000
0100
1000
0001
0000
0100
0001
1000
0000
0100
1000
0001
0000
,  // measure 16
2002
0000
0000
0000
3003
0000
0000
0000
0100
0001
1000
0001
1000
0000
1001
0000
,  // measure 17
0001
0000
1000
0000
0000
0100
1000
0000
,  // measure 18
0010
0100
0001
1000
0000
0100
1000
0000
,  // measure 19
0010
0100
0001
0010
0000
0000
0100
1000
,  // measure 20
0000
0000
0000
0000
0000
0100
0001
1000
,  // measure 21
0010
0000
1001
0000
0100
0001
0010
0100
,  // measure 22
0000
0000
1000
0010
0000
0100
0000
0000
,  // measure 23
0001
0000
0000
0000
0000
0000
0010
2000
0010
0000
0000
0000
3000
0000
0100
0002
,  // measure 24
0103
0000
0010
2000
3010
0000
0100
0002
0103
0000
0010
2000
3010
0000
0100
0002
,  // measure 25
0103
0000
0000
0000
1001
0000
0000
0000
0010
0100
0001
0100
0010
1000
0100
0001
,  // measure 26
0100
0010
0001
0100
0010
1000
0100
1000
0001
0100
1000
0100
0010
1000
0001
0100
,  // measure 27
0001
1000
0000
1000
0001
1000
0000
0001
0000
1000
0000
0001
0000
1000
0001
0000
,  // measure 28
0000
0000
0000
0000
0010
0001
1000
0000
0001
0010
0100
1000
0010
0100
0001
1000
,  // measure 29
0000
0000
0001
0000
0001
1000
0100
0000
1000
0010
0100
0010
1000
0100
0010
0001
,  // measure 30
0000
0000
1000
0000
1000
0001
0010
0000
0001
0010
0100
1000
0001
0010
0100
2000
,  // measure 31
0000
0000
0000
3000
0001
1000
0200
0000
0000
0000
0300
0000
0001
1000
0100
0000
,  // measure 32
0001
1000
0010
0100
0001
1000
0010
0100
0001
1000
0010
0100
0001
1000
0010
0100
,  // measure 33
0000
0001
0010
0100
0000
1000
0010
0100
,  // measure 34
0000
0000
0010
0000
0100
0000
0001
0000
0000
1000
0001
0000
1000
0000
0100
0000
,  // measure 35
0000
1000
0010
0100
0000
0001
1000
0100
,  // measure 36
0000
0000
1000
0000
0100
0000
0001
0000
0000
0010
0001
0000
1000
0000
0100
0000
,  // measure 37
0000
0010
0001
0100
0000
0010
1000
0100
,  // measure 38
0000
0000
1000
0000
0001
0000
0100
0000
0000
0010
0100
0000
0001
0000
1000
0000
,  // measure 39
0000
0100
0001
0100
0000
0010
1000
0001
,  // measure 40
0000
0000
0100
0000
0001
0000
0100
0000
0000
0010
1000
0000
0001
0000
0100
0000
,  // measure 41
0000
1000
0010
0100
0000
0001
0010
0100
,  // measure 42
0000
0000
1000
0000
0100
0000
0001
0000
0000
0001
0100
0000
0010
0000
1000
0000
,  // measure 43
0000
0010
0001
0100
0000
0001
1000
0100
,  // measure 44
0000
0000
0100
0000
0001
0000
0100
0000
0000
0001
1000
0000
0001
0000
0100
0000
,  // measure 45
0000
1000
0010
1000
0000
0100
0001
0100
,  // measure 46
0000
0000
1000
0000
0001
0000
0100
0000
0000
0010
1000
0000
0001
0000
1000
0000
,  // measure 47
1000
0100
1000
0010
0100
0001
0010
0100
,  // measure 48
1000
0100
1000
0010
0100
0001
0100
0010
1000
0100
1000
0010
0100
0001
0010
0001
,  // measure 49
0010
0001
1000
0000
0010
1000
0001
0000
0010
0001
1000
0000
0010
1000
0001
0000
,  // measure 50
0001
1000
0100
0000
1000
0001
0100
0000
0001
1000
0100
0000
1000
0001
0100
0000
,  // measure 51
0010
1000
0100
0000
0010
0001
0100
0000
0010
1000
0100
0000
0010
0001
0100
0000
,  // measure 52
0010
1000
0100
0000
0010
0001
0100
0000
0010
1000
0100
0000
0010
0001
0100
0000
,  // measure 53
0001
0100
0010
0000
1000
0001
0100
0000
0010
1000
0100
0000
0010
0001
1000
0000
,  // measure 54
0100
0010
0001
0000
1000
0100
0001
0000
0100
1000
0010
0000
0100
0001
0010
0000
,  // measure 55
0001
0100
1000
0000
0100
0010
1000
0000
0001
0010
0100
0000
1000
0010
0001
0000
,  // measure 56
0001
0010
1000
0000
0100
0010
0001
0000
1000
0100
1000
0000
0010
0100
0001
0000
,  // measure 57
1000
0001
0100
0010
1000
0001
0100
0010
1000
0100
1000
0001
0100
0010
0100
0001
,  // measure 58
0010
0001
0100
0010
1000
0100
1000
0001
0100
0010
1000
0001
0100
0001
0010
0001
,  // measure 59
1000
0100
1000
0010
0100
0010
1000
0001
0100
0010
0100
0001
0010
0100
1000
0001
,  // measure 60
1000
0001
0100
0010
1000
0100
0010
0001
0100
0010
1000
0001
0010
0100
1000
0010
,  // measure 61
1000
0100
1000
0010
0100
0001
0010
0001
1000
0100
1000
0001
0010
0100
0010
0100
,  // measure 62
1000
0001
0100
0010
1000
0100
0001
0100
1000
0010
0100
0001
0100
1000
0100
0001
,  // measure 63
0010
0001
1000
0100
1000
0010
0001
0010
1000
0100
1000
0001
0100
0010
1000
0001
,  // measure 64
0100
0001
0010
0001
1000
0100
1000
0010
0100
0001
0100
1000
0100
0001
0010
0100
,  // measure 65
2002
0000
0000
3003
,  // measure 66
0200
0000
0000
0300
,  // measure 67
0020
0000
0000
0030
,  // measure 68
2002
0000
0000
0000
,  // measure 69
0000
0000
0000
0000
,  // measure 70
3003
0000
0000
0000
;
