#VERSION:0.82;
#TITLE:Fragrance;
#SUBTITLE:;
#ARTIST:Tsukasa Arte Refact;
#TITLETRANSLIT:;
#SUBTITLETRANSLIT:;
#ARTISTTRANSLIT:;
#GENRE:;
#ORIGIN:;
#CREDIT:;
#BANNER:frag.png;
#BACKGROUND:frag-bg.png;
#PREVIEWVID:;
#JACKET:jacket.jpg;
#CDIMAGE:;
#DISCIMAGE:;
#LYRICSPATH:;
#CDTITLE:;
#MUSIC:smile.mp3;
#OFFSET:0.000000;
#SAMPLESTART:50.700073;
#SAMPLELENGTH:21.579996;
#SELECTABLE:YES;
#BPMS:0.000=180.000;
#STOPS:;
#DELAYS:;
#WARPS:;
#TIMESIGNATURES:0.000=4=4;
#TICKCOUNTS:0.000=4;
#COMBOS:0.000=1;
#SPEEDS:0.000=1.000=0.000=0;
#SCROLLS:0.000=1.000;
#FAKES:;
#LABELS:0.000=Song Start;
#BGCHANGES:0.000=fragrance.avi=1.000=0=0=0=StretchNoLoop====,
99999=-nosongbg-=1.000=0=0=0 // don't automatically add -songbackground-
;
#KEYSOUNDS:;
#ATTACKS:
;

//---------------dance-single - ----------------
#NOTEDATA:;
#CHARTNAME:;
#STEPSTYPE:dance-single;
#DESCRIPTION:;
#CHARTSTYLE:;
#DIFFICULTY:Challenge;
#METER:18;
#RADARVALUES:1.000000,1.000000,0.481076,0.024054,1.000000,597.000000,40.000000,2.000000,0.000000,0.000000,0.000000,0.000000,0.000000,1.000000,1.000000,0.481076,0.024054,1.000000,597.000000,40.000000,2.000000,0.000000,0.000000,0.000000,0.000000,0.000000;
#CREDIT:;
#NOTES:
0000
0000
0000
0000
,
0000
0100
1000
0100
0000
0001
0100
0000
,
1000
0100
0000
0001
0100
0000
0010
0100
,
0010
0001
1000
0001
0000
1000
0100
0000
,
0001
0010
0001
0100
0010
1000
0010
0000
,
0001
0100
1000
0000
0100
0001
0000
0100
,
1100
0000
0010
0110
0000
0001
0011
0000
,
1000
0010
0100
0000
0001
0000
0000
0100
,
0000
0000
0000
0100
0010
1100
0010
0100
,
0001
0101
1000
0100
0010
0001
0100
0001
,
0100
0010
1000
0010
0100
0010
0001
0010
,
0100
0001
1000
0010
0100
0010
1000
0001
,
0100
0010
0100
1000
0001
0100
0010
1000
,
0010
0100
0100
0001
0010
0100
1000
0100
,
0001
0010
0001
0100
0001
0100
1000
0010
,
0100
0001
1000
0001
0010
0001
0100
0010
,
0100
0000
0000
0000
0001
0000
0100
0000
0010
0000
1000
0100
0010
0001
1000
0000
,
0110
0000
0001
0100
0001
0100
0001
0000
0110
0000
0000
0000
1001
0000
0100
0000
,
0010
0000
0000
0000
0010
0100
0010
0001
0100
0000
1000
0100
0010
0001
0110
0000
,
0000
0000
1000
0010
0100
0001
0100
0010
0000
0000
1001
0000
0000
0000
0110
0000
,
0000
0000
1001
0000
0000
1000
0100
0010
0001
1000
0010
0100
1001
0000
0000
0000
,
0001
1000
0010
0001
0010
0001
0100
0010
1000
0000
0000
0000
1000
0000
0000
0000
,
0010
0000
0000
0000
0001
0100
0010
0100
0000
1000
0010
0100
0010
0001
0000
0000
,
1000
0010
1000
0001
0100
0001
0100
0010
0100
0000
0000
0000
0110
0000
0000
0000
,
1000
0000
0000
0000
0001
0100
1000
0100
0010
0100
0001
0000
0100
0010
0001
0010
,
0100
0000
0010
0100
1000
0010
1000
0010
0001
0010
0000
0000
0110
0000
0000
0000
,
1001
0000
0000
0000
1000
0010
0100
0010
0001
0100
0001
0100
0010
1000
0000
0000
,
0001
0100
0010
0100
0001
1000
0010
0100
0000
0000
0110
0000
0000
0000
1001
0000
,
0000
0000
0101
0000
0000
0001
0100
1000
0010
0100
0001
0000
0100
0010
1000
0010
,
0100
0000
0001
0100
0010
0100
0001
0100
0010
0001
0000
0000
0110
0000
0000
0000
,
1001
0000
0000
0000
1000
0100
0010
0100
0001
0010
0100
0000
1000
0100
1000
0001
,
0010
0000
0100
0010
0001
0100
0010
1000
0001
0000
0110
0000
0000
0000
0011
0000
,
0000
0000
1100
0000
0000
0000
0001
0010
0100
0010
1000
0010
0100
0010
0000
0000
,
1000
0100
1000
0100
1000
0100
0010
0100
0010
0100
0010
0100
0010
0100
0010
0100
,
0001
0100
0001
0100
0001
0100
0001
0100
0001
0100
0010
0100
0010
0100
0010
0100
,
0010
0100
0010
0100
0010
0100
0001
0100
0001
0100
0001
0100
0001
0100
0001
0100
,
0001
0100
0001
0100
0001
0100
0001
0100
0001
1000
0001
1000
0001
1000
0001
1000
,
0001
1000
0010
1000
0010
1000
0010
1000
0010
1000
0010
1000
0010
1000
0010
1000
,
0010
1000
0010
1000
0010
1000
0001
0100
0001
0100
0001
0100
0001
0100
0001
0100
,
0001
0100
0001
0100
0001
0100
0001
0100
0001
0100
0010
0100
0010
0100
0010
0100
,
0010
0100
0010
0100
0010
0100
0010
0001
0010
0001
0010
0001
0010
0001
0010
0001
,
0010
0001
0100
0010
0100
0010
0100
0000
0110
0000
0000
0000
1000
0000
0000
0000
,
0100
0000
0000
0000
0001
0100
0010
0100
1000
0010
0100
0010
0100
0000
0000
0001
,
0100
0010
1000
0010
0100
0001
0100
0010
0100
0000
0000
0000
1001
0000
0000
0000
,
0010
1000
0010
1000
0010
0100
0001
0100
0001
0100
0001
0100
0000
0000
0000
0000
,
0010
0100
0001
1000
0010
0100
0000
0000
0110
0000
0000
0000
1001
0000
0000
0000
,
0101
0000
0000
0000
1000
0010
0100
0010
1000
0001
0100
0010
0100
0001
0000
0000
,
0001
0100
0010
0100
0001
0010
0100
0000
0000
0000
0110
0000
0000
0000
1001
0000
,
0000
0000
0010
0000
0000
0000
0100
0010
0100
0001
0100
0010
1000
0100
0010
1000
,
0001
0000
0000
0001
1000
0100
0010
0001
0100
0110
0000
0000
1001
0000
0000
0000
,
0110
0000
0000
0000
0001
0010
0100
0010
0001
0000
1000
0100
0010
0100
1000
0000
,
0001
0010
0001
0100
0010
1000
0001
0000
0100
0010
0100
0001
1000
0010
0100
0000
,
0010
0000
0001
0010
0100
0001
1000
0010
0100
0000
0001
0100
0010
0001
1000
0010
,
0100
1000
0001
0100
0010
1000
0001
0010
0001
1000
0100
1000
0010
0100
0010
1000
,
0100
1000
0001
0010
0001
0100
0010
0100
0001
0010
0001
1000
0100
0010
0001
0010
,
0100
0010
0100
1000
0100
0010
0001
0010
0001
1000
0110
0000
0000
0001
0010
0110
,
0000
1000
0010
0100
0011
0000
1000
0100
0010
0001
0100
0001
0010
1000
0010
0001
,
0110
2000
0000
0000
0000
0000
0000
0000
0000
0000
0000
0000
0000
0000
0000
0000
,
0000
3000
0000
0000
0100
0000
0010
0000
0101
0000
0010
0000
1100
0000
0000
0000
,
0000
0002
0000
0000
,
0000
0000
0000
0000
,
0003
0000
0000
0000
;

//---------------dance-single - ----------------
#NOTEDATA:;
#CHARTNAME:;
#STEPSTYPE:dance-single;
#DESCRIPTION:;
#CHARTSTYLE:;
#DIFFICULTY:Hard;
#METER:16;
#RADARVALUES:0.896863,1.000000,0.264592,0.360807,0.787761,470.000000,22.000000,30.000000,0.000000,0.000000,0.000000,0.000000,0.000000,0.896863,1.000000,0.264592,0.360807,0.787761,470.000000,22.000000,30.000000,0.000000,0.000000,0.000000,0.000000,0.000000;
#CREDIT:;
#NOTES:
0000
0000
0000
0000
,
0000
0100
1000
0100
0000
1000
0200
0300
,
1000
0200
0300
1000
0200
0300
0010
0100
,
0010
0100
0010
0001
0000
1000
0100
0000
,
0001
0010
0001
0100
0010
1000
0010
0000
,
0001
0100
1000
0000
0100
0001
0000
0100
,
1000
0000
0010
0100
0000
0001
0010
0000
,
1000
0010
0100
0000
0001
0000
0000
0100
,
0000
0000
0000
0100
0010
1000
0010
0100
,
0001
0100
1000
0100
0010
0000
0100
0001
,
0100
0000
1000
0010
0100
0010
0001
0010
,
0100
0000
1000
0010
0100
0000
1000
0001
,
1000
0000
0100
0010
0001
0000
0010
1000
,
0010
0000
0010
0001
0010
0000
1000
0100
,
0001
0000
0001
0100
0001
0000
1000
0010
,
0001
0000
1000
0001
1000
0000
0100
0010
,
0100
0000
0000
0000
0010
0000
0001
0000
0010
0000
1000
0100
0010
0001
2000
0000
,
3000
0000
0001
0100
0001
0100
0001
0000
0110
0000
0000
0000
1001
0000
0000
0000
,
0000
0000
0000
0000
0010
0100
0010
0001
0100
0000
1000
0100
0010
0001
0020
0000
,
0030
0000
0100
0010
0100
0010
0100
0010
0000
0000
1001
0000
0000
0000
0220
0000
,
0000
0000
0330
0000
0000
1000
0100
0010
0001
0010
0100
0000
1000
0000
0000
0000
,
0001
0010
0001
0010
0001
0010
0001
0010
0001
0000
0000
0000
1000
0000
0000
0000
,
0010
0000
0000
0000
1000
0100
0010
0100
0000
1000
0100
1000
0100
0010
0000
0000
,
1000
0010
1000
0001
0100
0001
0100
0010
0100
0000
0000
0000
0120
0000
0000
0000
,
1000
0000
0030
0000
0010
0100
0010
1000
0010
0100
0020
0000
0000
0000
0000
0030
,
0000
0000
0010
0100
1000
0010
1000
0010
0001
0010
0000
0000
0110
0000
0000
0000
,
1001
0000
0000
0000
0100
0010
0100
0010
0001
0100
0001
0100
0010
1000
0000
0000
,
0010
0100
0010
0100
0001
0100
0010
0100
0000
0000
0110
0000
0000
0000
2002
0000
,
0000
0000
3003
0000
0000
0010
0100
1000
0100
0010
0200
0000
0000
0000
0000
0000
,
0300
0000
0001
0100
0010
0100
0001
0100
0010
0001
0000
0000
0110
0000
0000
0000
,
2002
0000
0000
3003
0000
0100
0010
0100
0001
0010
0100
0000
1000
0100
1000
0001
,
0010
0000
0100
0010
0001
1000
0010
1000
0001
0000
0110
0000
0000
0000
0022
0000
,
0000
0000
0000
0000
0033
0000
1000
0010
0100
0000
1000
0010
0100
0000
0000
0000
,
1000
0100
2000
0000
0000
3000
0100
0000
0010
0000
0100
0000
0001
0000
0010
0000
,
0001
1000
0100
0010
0100
0010
1000
0010
,
1000
0010
0001
0010
0001
0010
0001
0010
,
0001
0100
0010
1000
0010
0001
0100
0001
,
0100
1000
0010
1000
0010
0100
0010
0100
,
0010
0000
0100
0000
0010
0000
1000
0000
0001
0000
0100
0000
0001
0000
0100
0001
,
0100
0001
0200
0000
0000
0000
0300
0000
0010
0100
0010
0100
0010
0000
0000
0000
,
0001
1000
0010
0100
0010
0001
0010
0001
,
0000
0001
0100
0010
0100
0010
0100
0000
0110
0000
0000
0000
1000
0000
0000
0000
,
0100
0000
0001
0100
0000
0000
0100
0010
,
0000
0000
0100
0010
0100
0010
0000
0000
0110
0000
0000
0000
2002
0000
0000
3003
,
0000
0000
0101
0000
0000
0100
0001
0100
0001
0100
0001
0100
0000
0000
0000
0000
,
0010
0100
0001
1000
0010
0100
0000
0000
0110
0000
0000
0000
2002
0000
0000
0000
,
0000
3003
0000
0000
0100
0010
0100
0010
0000
0000
0100
0010
0100
0000
0000
0000
,
0001
0100
0010
0100
0001
0010
0100
0000
0000
0000
0110
0000
0000
0000
2002
0000
,
0000
0000
0000
3003
0000
0000
0100
0010
0100
0001
0100
0010
1000
0100
0010
0100
,
0001
0000
0000
0001
1000
0100
0010
0001
0100
0020
0000
0000
0030
0000
0000
0000
,
0110
0000
0000
0000
0001
0010
0100
0010
0001
0000
1000
0100
0010
0100
1000
0000
,
0001
0010
0001
0010
0100
1000
0002
0000
0103
0010
0100
0001
1000
0010
0200
0000
,
0000
0300
0001
0010
0100
0001
1000
0001
0200
0000
0000
0300
0010
0001
1000
0010
,
0100
1000
0001
0100
0010
1000
0001
0010
0001
0000
0100
1000
0010
0000
0010
1000
,
0100
0000
0001
0010
0001
0000
0010
0100
0001
0000
0001
1000
0001
0000
0001
0010
,
0100
0000
0100
1000
0100
0000
0001
0010
0001
1000
0100
0000
0000
0100
0010
0100
,
0000
1000
0010
0100
0010
0100
0000
0100
0010
0100
0010
0100
0010
0100
0010
0100
,
0010
0200
0000
0000
0000
0000
0000
0000
0000
0000
0000
0000
0000
0000
0000
0000
,
0000
0300
0000
0000
0100
0000
0010
0000
0100
0000
0010
0000
0100
0000
0000
0000
,
0000
0002
0000
0000
,
0000
0000
0000
0000
,
0003
0000
0000
0000
;

//---------------dance-single - ----------------
#NOTEDATA:;
#CHARTNAME:;
#STEPSTYPE:dance-single;
#DESCRIPTION:;
#CHARTSTYLE:;
#DIFFICULTY:Medium;
#METER:14;
#RADARVALUES:0.640862,0.696958,0.457022,0.481076,0.090202,295.000000,38.000000,40.000000,0.000000,0.000000,0.000000,0.000000,0.000000,0.640862,0.696958,0.457022,0.481076,0.090202,295.000000,38.000000,40.000000,0.000000,0.000000,0.000000,0.000000,0.000000;
#CREDIT:;
#NOTES:
// measure 0
0000
0000
0000
0000
,  // measure 1
0000
0100
0010
0100
0000
0002
0000
0003
,  // measure 2
0200
0000
0300
0020
0000
0030
2000
0000
,  // measure 3
3000
0100
0010
0100
0000
1001
0000
0000
,  // measure 4
0110
0000
0001
1000
0001
1000
0001
1000
,  // measure 5
0000
0100
0010
0100
0000
1100
0000
0000
,  // measure 6
0110
0000
0000
0011
0000
0000
0110
0000
,  // measure 7
0000
1100
0000
0000
0120
0000
0030
0001
,  // measure 8
0000
0000
0010
0100
0020
0000
0130
1000
,  // measure 9
0000
0000
2000
0000
3200
0010
0302
0000
,  // measure 10
0203
0010
0302
0000
1003
0100
1000
0000
,  // measure 11
0001
0100
0002
0200
0000
0000
0303
0000
,  // measure 12
1000
0100
2000
0000
3000
1100
0000
0000
,  // measure 13
1000
0000
0100
0000
0001
0100
0001
0000
,  // measure 14
0010
0000
0100
0000
0001
0100
0010
0000
,  // measure 15
1000
0000
0100
0000
0001
0100
2000
0000
,  // measure 16
0000
0000
3100
0010
0100
0001
1000
0002
,  // measure 17
1003
0000
0010
0100
0020
0000
0030
0000
1001
0000
0000
0000
0220
0000
0000
0000
,  // measure 18
0000
0000
0330
0000
0001
1000
0002
0000
0003
0000
1000
0000
0000
0000
0010
0100
,  // measure 19
0020
0030
0110
0000
1001
0000
0220
0000
,  // measure 20
0330
0000
0000
0000
1000
0100
2000
0000
0000
0000
3100
0010
0100
0000
0000
0000
,  // measure 21
0001
0100
0002
0000
0003
0000
0101
0000
0000
0000
0110
0000
0000
0000
1001
0000
,  // measure 22
0000
0000
0000
0000
1000
0100
0020
0000
0030
0100
1000
0000
0000
0000
0001
0010
,  // measure 23
0200
0000
0000
0310
0002
0000
0000
0003
0000
0000
0110
0000
0000
0000
2002
0000
,  // measure 24
0000
3003
0000
0110
0000
1001
0000
0000
,  // measure 25
0120
0000
0000
0130
0000
1000
0000
0100
,  // measure 26
0000
0001
0010
0100
1000
0100
0010
0000
,  // measure 27
1000
0100
0010
0001
0000
1001
0000
0110
,  // measure 28
0000
0000
0000
0100
0010
0000
0100
0010
,  // measure 29
0000
1001
0000
1001
0000
0001
0100
0000
,  // measure 30
1000
0000
0000
0100
0010
0100
0010
0000
,  // measure 31
0000
0001
1000
0001
1000
0020
0000
0230
,  // measure 32
0000
0300
0000
0010
1000
0100
0010
0000
,  // measure 33
0000
0001
0010
0001
0000
0001
0100
0001
,  // measure 34
0000
0001
1000
0001
0000
0001
0100
0001
,  // measure 35
0000
0001
0010
0001
0000
1000
0100
1000
,  // measure 36
0000
1000
0010
1000
0000
1000
0001
1000
,  // measure 37
0000
1000
0100
1000
0000
0010
0100
0010
,  // measure 38
0000
0010
1000
0010
0000
0010
0001
0010
,  // measure 39
0000
0100
0001
0100
0000
0100
1000
0100
,  // measure 40
0000
0100
0010
0100
0000
0010
0100
0010
,  // measure 41
0000
0000
0001
0000
1000
0000
0001
1000
0001
0000
1001
0000
0000
0000
0110
0000
,  // measure 42
0000
1001
0000
0000
0011
0000
0100
1200
,  // measure 43
0000
0000
0000
0000
0300
0110
0000
1002
,  // measure 44
0000
0000
0003
0000
,  // measure 45
1000
0100
0010
0001
0100
0000
0000
0010
,  // measure 46
0000
0000
0100
0010
0100
0000
0001
1000
,  // measure 47
0001
0000
0000
0010
0001
0010
0100
0000
,  // measure 48
1002
0000
0000
0003
0220
0000
0000
0330
,  // measure 49
0000
0000
1000
0000
0100
0001
0100
0001
0100
0000
0110
0000
0000
0000
1001
0000
,  // measure 50
0000
0110
0000
0000
0100
1000
0000
0010
,  // measure 51
0100
0000
0001
0100
0010
0100
0010
1000
,  // measure 52
0000
0000
0100
0010
0000
0000
0010
0100
,  // measure 53
0000
1000
0100
0010
0100
0010
0001
0100
,  // measure 54
0001
0100
0010
1000
0010
1000
0010
0100
,  // measure 55
0010
0100
0010
0100
0001
0100
0001
0100
,  // measure 56
0001
0000
0100
0000
0010
0000
1000
0000
0010
0000
0100
0000
0010
0100
0010
0100
,  // measure 57
0020
0000
0000
0030
,  // measure 58
0000
0000
0010
0001
0010
0100
0010
0000
,  // measure 59
0000
0002
0000
0000
,  // measure 60
0000
0000
0000
0000
,  // measure 61
0003
0000
0000
0000
;
