#VERSION:0.83;
#TITLE:Flugel der Freiheit;
#SUBTITLE:;
#ARTIST:Linked Horizon;
#TITLETRANSLIT:;
#SUBTITLETRANSLIT:;
#ARTISTTRANSLIT:;
#GENRE:;
#ORIGIN:;
#CREDIT:;
#BANNER:Flugel der Freiheit-bn.png;
#BACKGROUND:Flugel der Freiheit-bg.png;
#PREVIEWVID:;
#JACKET:;
#CDIMAGE:;
#DISCIMAGE:;
#LYRICSPATH:;
#CDTITLE:;
#MUSIC:Flugel der Freiheit.mp3;
#OFFSET:-0.090000;
#SAMPLESTART:44.875000;
#SAMPLELENGTH:12.000000;
#SELECTABLE:YES;
#BPMS:0.000=136.000,
29.000=315.000;
#STOPS:333.000=0.762;
#DELAYS:;
#WARPS:;
#TIMESIGNATURES:0.000=4=4;
#TICKCOUNTS:0.000=4;
#COMBOS:0.000=1;
#SPEEDS:0.000=1.000=0.000=0;
#SCROLLS:0.000=1.000;
#FAKES:;
#LABELS:0.000=Song Start;
#LASTSECONDHINT:88.883919;
#BGCHANGES:;
#KEYSOUNDS:;
#ATTACKS:
;

//---------------dance-single - ----------------
#NOTEDATA:;
#CHARTNAME:;
#STEPSTYPE:dance-single;
#DESCRIPTION:;
#CHARTSTYLE:;
#DIFFICULTY:Beginner;
#METER:4;
#RADARVALUES:0.185762,0.343019,0.056049,0.000000,0.000000,116.000000,111.000000,5.000000,0.000000,0.000000,0.000000,0.000000,0.000000,0.000000,0.185762,0.343019,0.056049,0.000000,0.000000,116.000000,111.000000,5.000000,0.000000,0.000000,0.000000,0.000000,0.000000,0.000000;
#CREDIT:;
#NOTES:
0000
1000
0000
0010
,
0000
0001
0000
0010
,
0000
1000
0000
0001
,
0000
0100
0000
0100
,
0000
0001
0000
0010
,
0000
1000
0000
0010
,
0000
0100
0000
0100
,
0000
1001
0000
0000
,
0000
1000
0000
0000
,
0000
1000
0000
0000
,
0000
1000
0000
0000
,
0000
0100
0000
0000
,
0000
0001
0000
0000
,
0000
0001
0000
0000
,
0000
0001
0000
0000
,
0000
0000
0000
0010
,
0000
0000
0000
0100
,
0000
0000
0000
0010
,
0000
0000
0000
0100
,
0000
0000
0000
0010
,
0000
0000
0000
0010
,
0000
0010
0000
0000
,
0000
0001
0000
0000
,
0000
1000
0000
0000
,
0000
0000
0000
0000
,
0000
0100
0000
0000
,
0000
1000
0000
0000
,
0000
0100
0000
0000
,
0000
1000
0000
0000
,
0000
0100
0000
0000
,
0000
0001
0000
0000
,
0000
0100
0000
0000
,
0000
0001
0000
0000
,
0000
0100
0000
0000
,
0000
0010
0000
0000
,
0000
0100
0000
0000
,
0000
0010
0000
0000
,
0000
0001
0000
0000
,
0000
1000
0000
0000
,
0000
0001
0000
0000
,
0000
1000
0000
0000
,
0000
0110
0000
0000
,
0000
0000
0000
0100
,
0000
0000
0000
0100
,
0000
0000
0000
0100
,
0000
1001
0000
0000
,
0000
0000
0000
0010
,
0000
0000
0000
0010
,
0000
0000
0000
0010
,
0000
1000
0000
0000
,
0000
1000
0000
0000
,
0000
0001
0000
0000
,
0000
0001
0000
0000
,
0000
1000
0000
0000
,
0000
0100
0000
0000
,
0000
0010
0000
0000
,
0000
0100
0000
0000
,
0000
0001
0000
0000
,
0000
0001
0000
0000
,
0000
1000
0000
0000
,
0000
1000
0000
0000
,
0000
0001
0000
0000
,
0000
0100
0000
0000
,
0000
0010
0000
0010
,
0000
0010
0000
0000
,
0000
1000
0000
0000
,
0000
0100
0000
0000
,
0000
0010
0000
0000
,
0000
0010
0000
0000
,
0000
0001
0000
0000
,
0000
0010
0000
0000
,
0000
0100
0000
0000
,
0000
0100
0000
0000
,
0000
1000
0000
0000
,
0000
0010
0000
0000
,
0000
0100
0000
0000
,
0000
0010
0000
0000
,
0000
0001
0000
0000
,
0000
0010
0000
0000
,
0000
0100
0000
0100
,
0000
0100
0000
0000
,
0000
0001
0000
0000
,
0000
1000
0000
0000
,
0000
1001
0000
0000
,
0000
1000
0000
0000
,
0000
0100
0000
0000
,
0000
1000
0000
0000
,
0000
0100
0000
0000
,
0000
0001
0000
0000
,
0000
0100
0000
0000
,
0000
0001
0000
0000
,
0000
0100
0000
0000
,
0000
0000
0000
0010
,
0000
0000
0000
0010
,
0000
0000
0000
0010
,
0000
0000
0000
0010
,
0000
0000
0000
0010
,
0000
0000
0000
0010
,
0000
1000
0000
0000
,
0000
0001
0000
0000
,
0000
0010
0000
0000
,
0100
0000
0000
0000
,
1001
0000
0000
0000
;

//---------------dance-single - ----------------
#NOTEDATA:;
#CHARTNAME:;
#STEPSTYPE:dance-single;
#DESCRIPTION:;
#CHARTSTYLE:;
#DIFFICULTY:Easy;
#METER:6;
#RADARVALUES:0.328286,0.457358,0.269034,0.134517,0.000000,205.000000,181.000000,24.000000,12.000000,0.000000,0.000000,0.000000,0.000000,0.000000,0.328286,0.457358,0.269034,0.134517,0.000000,205.000000,181.000000,24.000000,12.000000,0.000000,0.000000,0.000000,0.000000,0.000000;
#CREDIT:;
#NOTES:
0000
1000
1000
0010
,
0010
0100
0001
0010
,
0000
0001
0010
0100
,
1000
0020
0000
0130
,
0000
0001
0001
0010
,
0010
0100
1000
0010
,
0000
0100
0100
0002
,
0000
1003
0000
0100
,
0000
1000
0000
0100
,
0000
1000
0000
0100
,
0000
0010
0000
0010
,
0000
0001
0000
0100
,
0000
0001
0000
0100
,
0000
0002
0000
0000
,
0000
2003
0000
0000
,
0000
3000
0000
0110
,
0000
0000
0000
0011
,
0000
0000
0000
0110
,
0000
0000
0000
1100
,
0000
0000
0000
1001
,
0000
0000
0000
0110
,
0000
0020
0000
0000
,
0000
0230
0000
0000
,
0000
0301
0000
0000
,
0000
0000
0000
0000
,
0000
1000
0000
0100
,
0000
1000
0000
0100
,
0000
0010
0000
0100
,
0000
0010
0000
0100
,
0000
0010
0000
0001
,
0000
0010
0000
0001
,
0000
1000
0000
0001
,
0000
1000
0000
0001
,
0000
0100
0000
0100
,
0000
0100
0000
0010
,
0000
0100
0000
0100
,
0000
0100
0000
0001
,
0000
1000
0000
0100
,
0000
0010
0000
0001
,
0000
0100
0000
0010
,
0000
1000
0000
0000
,
0000
1100
0000
0000
,
0110
0000
0110
0000
,
0011
0000
0011
0000
,
0000
0001
0000
1000
,
0000
0101
0000
0000
,
0110
0000
0110
0000
,
1010
0000
1010
0000
,
0000
1000
0000
0100
,
0000
0010
0000
0010
,
0000
0100
0000
0100
,
0000
0010
0000
0001
,
0000
0010
0000
0001
,
0000
0100
0000
0100
,
0000
0010
0000
0010
,
0000
1000
0000
0100
,
0000
1000
0000
0100
,
0000
0010
0000
0001
,
0000
0100
0000
0001
,
0000
0020
0000
0000
,
0002
0030
0000
0000
,
0000
0103
0000
0100
,
0000
0010
0000
0010
,
0000
1000
0000
0000
,
0001
0000
0001
0000
,
0000
0100
0000
0100
,
0000
0010
0000
0010
,
0000
0100
0000
1000
,
0000
0100
0000
1000
,
0000
0010
0000
0010
,
0000
0100
0000
0100
,
0000
0001
0000
0010
,
0000
0001
0000
0010
,
0000
0100
0000
1000
,
0000
0010
0000
1000
,
0000
0200
0000
0000
,
2000
0300
0000
0000
,
0000
3010
0000
0010
,
0000
0100
0000
0100
,
0000
0001
0000
0000
,
1000
0000
1000
0000
,
0000
0100
0000
0000
,
0010
0000
0000
0100
,
0000
1001
0000
0000
,
0000
1000
0000
1000
,
0000
0100
0000
0100
,
0000
0010
0000
0001
,
0000
0010
0000
0100
,
0000
0001
0000
0001
,
0000
0100
0000
0100
,
0000
0010
0000
1000
,
0000
0010
0000
0100
,
0000
0000
0000
1010
,
0000
0000
0000
0011
,
0000
0000
0000
0110
,
0000
0000
0000
1001
,
0000
0000
0000
0101
,
0000
0000
0000
1100
,
0000
0200
0000
0000
,
0000
0320
0000
0000
,
0000
0031
0000
0000
,
1000
0000
0010
0000
,
0110
0000
0000
0000
;

//---------------dance-single - ----------------
#NOTEDATA:;
#CHARTNAME:;
#STEPSTYPE:dance-single;
#DESCRIPTION:;
#CHARTSTYLE:;
#DIFFICULTY:Medium;
#METER:10;
#RADARVALUES:0.457999,0.971886,0.369922,0.313873,0.039234,286.000000,253.000000,33.000000,28.000000,0.000000,0.000000,0.000000,0.000000,0.000000,0.457999,0.971886,0.369922,0.313873,0.039234,286.000000,253.000000,33.000000,28.000000,0.000000,0.000000,0.000000,0.000000,0.000000;
#CREDIT:;
#NOTES:
0000
1000
0010
0100
,
0001
0000
0000
0020
0000
0000
0031
0000
1000
0020
0000
0000
,
1030
0000
0001
0010
0000
0000
0011
0000
0000
0101
0000
0000
,
1100
0000
0000
1010
0000
0000
0010
0100
0010
0100
0000
0000
,
1000
0001
1000
0001
0000
0000
0010
0000
0000
0100
0000
0000
,
1000
0000
0000
0020
0000
0000
1030
0000
0001
0020
0000
0000
,
0031
0100
0010
1000
,
0001
0010
0000
0001
,
0000
0010
0000
0001
,
0000
1000
0000
0100
,
0000
0010
0000
0100
,
0000
0010
0000
1000
,
0000
0010
0000
1000
,
0000
0001
0000
0100
,
0000
0010
0000
0100
,
0000
0010
0000
0011
,
0000
0010
0000
1010
,
0000
0010
0000
0011
,
0000
0100
0000
0110
,
0000
0100
0000
1100
,
0000
0100
0000
0101
,
0000
2002
0000
0000
,
3003
0220
0000
0000
,
0330
1001
0000
0000
,
0000
0000
0000
0000
,
0000
0001
0100
0001
,
0000
1000
0100
1000
,
0000
0010
0000
0010
,
0000
0100
0000
0100
,
0000
0001
0010
0001
,
0000
1000
0010
1000
,
0000
0010
0000
0100
,
0000
0001
0000
1000
,
0000
0100
1000
0100
,
0000
0010
0001
0010
,
0000
0001
0000
1000
,
0000
0010
0000
0100
,
0000
0001
1000
0100
,
0000
0010
0001
1000
,
0000
0100
1000
0100
,
1000
0001
1000
0001
,
0000
0100
0001
0100
,
0001
0000
0101
0000
,
1100
0000
1010
0000
,
0010
0100
0000
0010
,
0000
1000
0100
1000
,
0100
0000
1100
0000
,
0101
0000
0011
0000
,
0001
1000
0000
1001
,
0000
1000
0010
1000
,
0000
0001
0010
0001
,
0000
0200
0000
0302
,
0000
2003
0000
3020
,
0000
0130
0001
0100
,
0000
1000
0100
1000
,
0000
0002
0000
0023
,
0000
0230
0000
2300
,
0000
3001
0000
0100
,
0010
0000
1000
0001
,
0000
0100
0000
0001
,
1000
0000
0010
0100
,
0000
0001
0000
1000
,
0000
0100
0010
0100
,
0010
0001
1000
0001
,
1000
0000
0110
0000
,
0000
0010
1000
0010
,
0000
0100
0001
0100
,
0000
0002
0000
2003
,
0000
3200
0000
0320
,
0000
0031
0010
0001
,
0000
1000
0010
0100
,
0000
0002
0000
0203
,
0000
0320
0000
2030
,
0000
3100
0000
0010
,
1000
0000
0010
0100
,
0000
0001
0000
0010
,
0100
0000
0010
0001
,
0000
1000
0000
0001
,
0000
0100
0010
0100
,
0010
1000
0001
1000
,
0001
0000
0110
0000
,
0000
0001
0000
0001
,
1000
0000
1000
0010
,
0000
0110
0000
0000
,
0000
0100
0000
1000
,
0000
0100
0000
1000
,
0000
0001
0000
0010
,
0000
0100
0000
0010
,
0000
0100
0000
0001
,
0000
0100
0000
0001
,
0000
1000
0000
0010
,
0000
0100
0000
0010
,
0000
0100
0000
1100
,
0000
0100
0000
0101
,
0000
0100
0000
1100
,
0000
0010
0000
0110
,
0000
0010
0000
0011
,
0000
0010
0000
1010
,
0000
2002
0000
0000
,
3003
0220
0000
0000
,
0330
0001
0010
0100
,
1000
0000
1010
0000
,
0101
0000
0000
0000
;

//---------------dance-single - ----------------
#NOTEDATA:;
#CHARTNAME:;
#STEPSTYPE:dance-single;
#DESCRIPTION:;
#CHARTSTYLE:;
#DIFFICULTY:Hard;
#METER:12;
#RADARVALUES:0.573299,1.029056,0.414761,0.201776,0.078468,358.000000,321.000000,37.000000,18.000000,0.000000,0.000000,0.000000,0.000000,0.000000,0.573299,1.029056,0.414761,0.201776,0.078468,358.000000,321.000000,37.000000,18.000000,0.000000,0.000000,0.000000,0.000000,0.000000;
#CREDIT:;
#NOTES:
1000
0001
1000
0001
0000
0000
0011
0000
0000
1100
0000
0000
,
1001
0000
0000
0110
0000
0000
0010
1000
0010
1000
0000
0000
,
0001
0100
0001
0100
0000
0000
0110
0000
0000
1010
0000
0000
,
1100
0000
0000
0110
0000
0000
0010
0001
0100
0001
0000
0000
,
0010
1000
0100
1000
0000
0000
0110
0000
0000
0011
0000
0000
,
0101
0000
0000
0110
0000
0000
0010
0100
0010
0100
0000
0000
,
0001
1000
0001
1000
0000
0000
0100
0000
0000
0010
0000
0000
,
0000
0001
0010
0001
,
0010
0100
1000
0100
,
1000
0010
1000
0010
,
1000
0001
0100
0001
,
0100
0001
0010
0100
,
1000
0100
0010
0001
,
1000
0020
0000
0000
,
0000
0230
0000
0000
,
0000
0301
0000
1010
,
0000
1000
0000
0011
,
0000
0001
0000
1100
,
0000
1000
0000
0101
,
0000
0010
0000
1100
,
0000
0100
0000
0011
,
0000
0002
0000
0023
,
0000
2030
0000
3200
,
0000
0310
0000
0000
,
0000
0000
0001
0000
,
1000
0100
1000
0100
,
1000
0100
0010
0100
,
0010
0001
0010
0001
,
0010
0100
0010
0100
,
0010
0100
1000
0000
,
1000
0100
0001
0000
,
0001
0100
1000
0000
,
1000
0001
0100
1000
,
0100
0001
0010
0000
,
0100
0000
0100
0010
,
0001
0010
1000
0000
,
0100
0000
0100
0010
,
1000
0010
0000
1000
,
0010
0001
0000
0010
,
0100
0002
0000
0023
,
0000
0230
0000
2300
,
0000
3001
0100
0001
,
0100
0000
1010
0000
,
1100
0000
0011
0000
,
0001
0100
0000
0110
,
0000
1000
0010
1000
,
0010
0000
0101
0000
,
0011
0000
1100
0000
,
1000
0100
0000
1001
,
0000
0001
0100
0010
,
0100
0001
0100
0010
,
0001
1000
0100
0010
,
0100
1000
0100
0010
,
1000
0100
0010
0100
,
0000
0001
1000
0001
,
0000
0010
0100
0010
,
0000
1000
0001
1000
,
0000
1000
0100
0010
,
0100
1000
0100
0010
,
1000
0001
0000
0001
,
0100
0000
0100
0010
,
0000
0001
0100
0010
,
0100
0001
1000
0100
,
1000
0010
0010
0010
,
0010
0000
2002
0000
,
3003
0100
1000
0001
,
1000
0100
1000
0001
,
0100
0010
1000
0001
,
1000
0010
1000
0001
,
0010
1000
0001
1000
,
0000
0100
0010
0100
,
0000
0001
1000
0001
,
0000
0010
0100
0010
,
0000
0010
0001
1000
,
0001
0010
0001
1000
,
0010
0100
0000
0100
,
1000
0000
1000
0001
,
0000
0100
0001
1000
,
0001
0010
0100
1000
,
0001
0100
0100
0100
,
0100
0000
1001
0000
,
1000
0100
0000
0001
,
0100
0000
0010
0100
,
0000
0110
0000
0000
,
0000
1000
0100
1000
,
0100
0010
0001
0010
,
0001
0100
0001
0100
,
0001
1000
0010
1000
,
0010
1000
0100
0010
,
0001
0010
0100
1000
,
0001
0200
0000
0000
,
0000
0320
0000
0000
,
0000
1030
0000
0101
,
0000
0001
0000
1100
,
0000
1000
0000
0011
,
0000
0001
0000
1010
,
0000
0100
0000
0011
,
0000
0010
0000
1100
,
0000
2000
0000
3200
,
0000
0302
0000
0023
,
0030
0100
0001
1000
,
0010
0000
0011
0000
,
1100
0000
0000
0000
;

//---------------dance-single - ----------------
#NOTEDATA:;
#CHARTNAME:;
#STEPSTYPE:dance-single;
#DESCRIPTION:;
#CHARTSTYLE:;
#DIFFICULTY:Challenge;
#METER:15;
#RADARVALUES:0.850340,1.086225,0.638956,0.392341,0.168146,531.000000,474.000000,57.000000,35.000000,0.000000,0.000000,0.000000,0.000000,0.000000,0.850340,1.086225,0.638956,0.392341,0.168146,531.000000,474.000000,57.000000,35.000000,0.000000,0.000000,0.000000,0.000000,0.000000;
#CREDIT:;
#NOTES:
// measure 0
1000
0010
0100
0001
0000
0001
0010
0000
0010
0100
0000
0100
,  // measure 1
1000
0000
1000
0010
0000
0010
1000
0100
0010
0001
0000
0001
,  // measure 2
0010
0100
1000
0001
0000
0001
0100
0000
0100
0010
0000
0010
,  // measure 3
1000
0000
1000
0200
0000
0000
0000
0310
0100
0010
0000
0000
,  // measure 4
0001
0010
0100
1000
0000
1000
0010
0000
0010
0100
0000
0100
,  // measure 5
0001
0000
0001
0010
0000
0010
0001
0100
0010
1000
0000
1000
,  // measure 6
0010
0100
0001
0010
0000
0000
0100
0000
0000
2002
0000
0000
,  // measure 7
3003
0000
1000
0000
0100
0000
0010
0001
,  // measure 8
0010
0000
0001
0000
0100
0000
0010
1000
,  // measure 9
0010
0000
1000
0000
0001
0000
0010
0001
,  // measure 10
0100
0000
0001
0000
1000
0000
0010
1000
,  // measure 11
0100
0000
0010
0000
0100
0000
1000
0001
,  // measure 12
1000
0000
0010
0000
0100
0000
0001
1000
,  // measure 13
0001
0100
0010
1000
,  // measure 14
0001
0010
0001
0100
,  // measure 15
0010
1000
0010
1010
,  // measure 16
0010
0100
0010
0110
,  // measure 17
0100
0001
0100
0101
,  // measure 18
0001
0010
0001
0011
,  // measure 19
0000
0001
0100
0101
,  // measure 20
0001
1000
0001
1001
,  // measure 21
0000
2020
3030
2200
,  // measure 22
3300
0022
0033
0202
,  // measure 23
0303
0110
0000
0000
,  // measure 24
0000
0000
0000
0000
0010
0000
0100
0010
,  // measure 25
0100
0001
1000
0100
,  // measure 26
1000
0001
1000
0100
,  // measure 27
1000
0000
0001
0000
0010
0001
0010
0000
,  // measure 28
0100
0000
1000
0100
1000
0000
0010
0000
,  // measure 29
0000
0000
0200
0000
0000
0301
0100
0000
,  // measure 30
0010
0000
0200
0000
0000
1300
0100
0000
,  // measure 31
0010
0000
2000
0000
0000
3100
0010
0000
,  // measure 32
0001
0002
0100
1003
,  // measure 33
0010
0000
1000
0000
0100
0000
0010
0001
,  // measure 34
0010
0000
0001
0000
0010
0000
0100
1000
,  // measure 35
0100
1000
0001
0100
,  // measure 36
0001
0000
1000
0100
1000
0000
0001
0100
,  // measure 37
0001
0010
0001
0100
,  // measure 38
1000
0100
0010
1000
,  // measure 39
0001
0000
0010
0001
0010
0001
0100
0001
,  // measure 40
0100
0001
1000
0100
1000
0100
1000
0010
,  // measure 41
1000
0010
0100
0000
0110
0000
0110
0000
,  // measure 42
0110
0010
1010
1000
,  // measure 43
1001
0001
0011
0010
,  // measure 44
0110
1001
0000
0110
,  // measure 45
0000
1001
1001
1001
,  // measure 46
1001
0001
0101
0100
,  // measure 47
0110
0010
1010
1000
,  // measure 48
1001
0110
0000
1001
,  // measure 49
0000
0000
1000
0001
1000
0001
1000
0000
,  // measure 50
0010
0100
0010
0100
0010
0000
1000
0000
,  // measure 51
0010
0001
0010
1000
,  // measure 52
0100
0001
0100
1000
,  // measure 53
0000
0000
0001
0100
0001
0100
0010
0000
,  // measure 54
1000
0010
1000
0010
0100
0000
0001
0000
,  // measure 55
0010
1000
0010
0001
,  // measure 56
0100
0000
1000
0000
0100
0000
0010
0100
,  // measure 57
0010
0000
1000
0010
1000
0001
0010
0000
,  // measure 58
0001
0010
0001
0100
0010
0000
1000
0000
,  // measure 59
0010
0000
0200
0000
0000
0301
0010
0000
,  // measure 60
0200
0000
0000
1300
0010
0000
1000
0000
,  // measure 61
0001
0000
0010
0001
0010
0000
0100
1000
,  // measure 62
0100
2000
3002
0203
,  // measure 63
0310
1010
1001
0011
,  // measure 64
0110
0000
1001
0000
,  // measure 65
0100
0000
0010
0100
0010
0100
0010
0000
,  // measure 66
0001
1000
0001
1000
0001
0000
0100
0000
,  // measure 67
0001
1000
0100
0001
,  // measure 68
1000
0010
0001
0100
,  // measure 69
0010
0000
1000
0010
1000
0010
1000
0000
,  // measure 70
0001
0100
0001
0100
0001
0000
0010
0000
,  // measure 71
1000
0001
0100
1000
,  // measure 72
0001
0000
1000
0001
1000
0000
0010
0100
,  // measure 73
0010
0000
0001
0100
0001
1000
0010
0000
,  // measure 74
1000
0100
1000
0001
0010
0000
0001
0000
,  // measure 75
0100
0000
0020
0000
0000
1030
0100
0000
,  // measure 76
0020
0000
0000
0031
0100
0000
0001
0000
,  // measure 77
1000
0000
0100
0010
0001
0000
0010
0100
,  // measure 78
1000
0002
0203
0320
,  // measure 79
1030
1100
1001
0101
,  // measure 80
0110
0000
2002
0000
,  // measure 81
3003
0000
0001
0010
0001
0010
0001
0000
,  // measure 82
1000
0100
1000
0100
1000
0000
0110
0000
,  // measure 83
1001
0110
0100
0100
,  // measure 84
0100
0000
0010
0000
1000
0000
0001
0100
,  // measure 85
0001
0000
0100
0000
1000
0000
0001
0010
,  // measure 86
0001
0000
0010
0000
0100
0000
0001
0100
,  // measure 87
1000
0000
0100
0000
0010
0000
0001
0010
,  // measure 88
1000
0000
0001
0000
1000
0000
0010
0100
,  // measure 89
0010
0000
0001
0000
1000
0000
0100
0010
,  // measure 90
0100
1000
0001
0010
,  // measure 91
0100
0001
0100
1000
,  // measure 92
0001
0010
0001
0011
,  // measure 93
0001
1000
0001
1001
,  // measure 94
1000
0100
1000
1100
,  // measure 95
0100
0001
0100
0101
,  // measure 96
0000
0100
1000
1100
,  // measure 97
0100
0010
0100
0110
,  // measure 98
0000
0022
0033
2020
,  // measure 99
3030
0202
0303
2200
,  // measure 100
3300
0000
0001
1000
0001
1000
0001
0000
,  // measure 101
1010
0100
0011
0100
,  // measure 102
1001
0000
0000
0000
;
