#TITLE:Fireflies;
#SUBTITLE:(Technikore Remix);
#ARTIST:Owl City;
#TITLETRANSLIT:;
#SUBTITLETRANSLIT:;
#ARTISTTRANSLIT:;
#GENRE:;
#CREDIT:owen syned i added bpm changes [junko];
#BANNER:;
#BACKGROUND:;
#LYRICSPATH:;
#CDTITLE:;
#MUSIC:Fireflies (Technikore Remix) - Owl City.ogg;
#OFFSET:-0.277000;
#SAMPLESTART:92.025009;
#SAMPLELENGTH:29.999001;
#SELECTABLE:YES;
#DISPLAYBPM:170.000000;
#BPMS:0.000000=170.000000
,316.000000=340.000000
,316.500000=170.000000
,317.000000=340.000000
,317.500000=170.000000
,318.000000=340.000000
,318.500000=170.000000
,319.000000=340.000000
,319.500000=170.000000
,320.000000=340.000000
,320.500000=170.000000
,321.000000=85.000000
,321.500000=170.000000
,322.500000=340.000000
,324.000000=170.000000
,325.000000=85.000000
,325.250000=170.000000
,387.000000=85.000000
,388.000000=170.000000
,450.000000=85.000000
,451.000000=170.000000
,511.000000=17.000000
,511.416656=170.000000
,575.500000=85.000000
,576.500000=100.000000
,577.500000=115.000000
,579.000000=130.000000
,580.500000=140.000000
,583.500000=150.000000
,591.000000=160.000000
,594.750000=162.000000
,598.000000=81.000000
,599.000000=120.000000
,599.250000=130.000000
,599.500000=140.000000
,599.750000=160.000000
,600.000000=170.000000
,601.000000=510.000000
,601.500000=170.000000
,602.000000=510.000000
,602.500000=170.000000
,603.000000=510.000000
,603.500000=170.000000
,604.000000=510.000000
,604.500000=170.000000
,605.000000=510.000000
,605.500000=170.000000
,606.000000=510.000000
,606.500000=170.000000
,607.000000=510.000000
,607.500000=170.000000
,608.000000=510.000000
,608.500000=170.000000
,609.000000=510.000000
,609.500000=170.000000
,610.000000=510.000000
,610.500000=170.000000
,611.000000=510.000000
,611.500000=170.000000
,612.000000=510.000000
,612.500000=170.000000
,613.000000=510.000000
,613.500000=170.000000
,614.000000=510.000000
,614.500000=170.000000
,615.000000=510.000000
,615.500000=170.000000
,616.000000=510.000000
,616.500000=170.000000
,617.000000=510.000000
,617.500000=170.000000
,618.000000=510.000000
,618.500000=170.000000
,619.000000=510.000000
,619.500000=170.000000
,623.000000=340.000000
,623.500000=170.000000
,624.000000=340.000000
,624.500000=170.000000
,625.000000=340.000000
,625.500000=170.000000
,626.000000=340.000000
,626.500000=170.000000
,627.000000=340.000000
,627.500000=170.000000
,628.000000=340.000000
,628.500000=170.000000
,629.000000=340.000000
,629.500000=170.000000
,630.000000=340.000000
,630.500000=170.000000
,631.000000=340.000000
,631.500000=170.000000
,632.000000=340.000000
,632.500000=170.000000
,633.000000=85.000000
,635.250000=100.000000
,637.500000=170.000000
,650.000000=85.000000
,650.500000=120.000000
,651.000000=130.000000
,651.500000=260.000000
,652.000000=340.000000
,653.000000=170.000000
;
#STOPS:653.000000=0.352936,
780.750000=0.264709
;
#BGCHANGES:;
#KEYSOUNDS:;
#ATTACKS:;

//---------------dance-single - ----------------
#NOTES:
     dance-single:
     JunkoXXX 19-:
     Challenge:
     19:
     1.000000,1.000000,0.197592,0.068259,1.000000,2515.000000,55.000000,19.000000,1.000000,1.000000,1.000000,1.000000,1.000000,0.197592,0.068259,1.000000,2515.000000,55.000000,19.000000,1.000000,1.000000,1.000000:
// measure 0
0000
0000
0000
0000
,  // measure 1
0000
0000
0000
0000
,  // measure 2
0000
0000
0000
0000
,  // measure 3
0000
0000
0000
0000
,  // measure 4
0000
0000
0000
0000
,  // measure 5
0000
0000
0000
0000
,  // measure 6
0000
0000
0000
0000
,  // measure 7
0000
0000
0000
0000
,  // measure 8
0000
0000
0000
0001
,  // measure 9
0010
0000
0000
0100
0000
1000
0000
0000
,  // measure 10
0010
0000
0000
0100
0000
0000
0001
0000
,  // measure 11
0000
0000
0000
1000
,  // measure 12
0100
0000
0000
0010
0000
0000
0001
0000
,  // measure 13
0000
0000
0000
0000
0000
0100
0100
0000
,  // measure 14
0010
0000
0000
1000
0000
0000
0001
0000
,  // measure 15
0000
0000
0000
0000
,  // measure 16
0000
0000
0000
0000
,  // measure 17
1001
0000
0000
0000
1000
0100
0020
0031
0010
0100
1000
0010
0100
0010
1000
0100
,  // measure 18
1000
0001
0100
0010
0100
1000
0100
0010
0001
0010
0100
1000
0010
0100
0010
1000
,  // measure 19
0100
1000
0010
0100
0010
0001
0100
0001
0010
0100
1000
0010
0100
0010
0001
1000
,  // measure 20
0001
0100
0010
0100
1000
0100
1000
0010
0100
0010
0001
0100
0001
0010
0100
1000
,  // measure 21
0010
0100
1000
0100
0001
0010
0001
0100
0010
0100
1000
0010
0100
0010
0001
0010
,  // measure 22
0100
1000
0010
0100
0010
0001
0100
1000
0010
0100
0010
1000
0100
1000
0001
0100
,  // measure 23
0010
0100
1000
0100
0010
0001
0010
0100
1000
0010
0100
0010
1000
0100
1000
0010
,  // measure 24
0100
0010
0001
0100
0001
0010
0100
1000
0010
0100
0010
0001
1000
0001
0100
0010
,  // measure 25
0100
1000
0100
1000
0010
0100
0010
0001
0100
0001
0010
0100
1000
0010
0100
1000
,  // measure 26
0100
0001
0010
0001
0100
0010
0100
1000
0010
0100
0010
0001
0010
0100
1000
0010
,  // measure 27
0100
0010
0100
1000
0010
0100
0010
1000
0100
1000
0001
0100
0010
0100
1000
0100
,  // measure 28
0010
0001
0010
0100
1000
0010
0100
0010
1000
0100
1000
0010
0100
0010
0001
0100
,  // measure 29
0001
0010
0100
1000
0010
0100
0010
0001
1000
0001
0100
0010
0100
1000
0100
1000
,  // measure 30
0010
0100
0010
0001
0100
0001
0010
0100
1000
0000
0000
0000
0010
0000
0000
0000
,  // measure 31
1001
0000
0000
0000
2002
0000
0000
0000
0000
0000
0000
0000
0000
0000
0000
3003
,  // measure 32
0000
0000
0000
0001
1010
0100
0011
0000
,  // measure 33
0010
0100
1000
0010
0100
0010
1000
0100
1000
0001
0100
0010
0100
1000
0100
0010
,  // measure 34
0001
0010
0100
1000
0010
0100
0010
1000
0100
1000
0010
0100
0010
0001
0100
0001
,  // measure 35
0010
0100
1000
0010
0100
0010
0001
1000
0001
0100
0010
0100
1000
0100
1000
0010
,  // measure 36
0100
0010
0001
0100
0001
0010
0100
1000
0010
0100
1000
0100
0001
0010
0001
0100
,  // measure 37
0010
0100
1000
0010
0100
0010
0001
0010
0100
1000
0010
0100
0010
0100
1000
0010
,  // measure 38
0100
0010
1000
0100
1000
0001
0100
0010
0100
1000
0100
0010
0001
0010
0100
1000
,  // measure 39
0010
0100
0010
1000
0100
1000
0010
0100
0010
0001
0100
0001
0010
0100
1000
0010
,  // measure 40
0100
0010
0001
1000
0001
0100
0010
0100
1000
0100
1000
0010
0100
0010
0001
0100
,  // measure 41
0001
0010
0100
1000
0010
0100
1000
0100
0001
0010
0001
0100
0010
0100
1000
0010
,  // measure 42
0100
0010
0001
0010
0100
1000
0010
0100
0010
0100
1000
0010
0100
0010
1000
0100
,  // measure 43
1000
0001
0100
0010
0100
1000
0100
0010
0001
0010
0100
1000
0010
0100
0010
1000
,  // measure 44
0100
1000
0010
0100
0010
0001
0100
0001
0010
0100
1000
0010
0100
0010
0001
1000
,  // measure 45
0001
0100
0010
0100
1000
0100
1000
0010
0100
0010
0001
0100
0001
0010
0100
1000
,  // measure 46
0010
0100
1000
0100
0001
0010
0001
0100
0010
0100
1000
0010
0100
0010
0001
0010
,  // measure 47
0100
1000
0010
0100
0010
0001
0010
0100
1000
0010
0100
0010
1000
0100
1000
0000
,  // measure 48
0010
0010
0100
0010
1000
0000
0000
0000
,  // measure 49
0010
0100
1000
0010
0100
0010
1000
0100
1000
0001
0100
0010
0100
1000
0100
0010
,  // measure 50
0001
0010
0100
1000
0010
0100
0010
1000
0100
1000
0010
0100
0010
0001
0100
0001
,  // measure 51
0010
0100
1000
0010
0100
0010
0001
1000
0001
0100
0010
0100
1000
0100
1000
0010
,  // measure 52
0100
0010
0001
0100
0001
0010
0100
1000
0010
0100
1000
0100
0001
0010
0001
0100
,  // measure 53
0010
0100
1000
0010
0100
0010
0001
0010
0100
1000
0010
0100
0010
0100
1000
0010
,  // measure 54
0100
0010
1000
0100
1000
0001
0100
0010
0100
1000
0100
0010
0001
0010
0100
1000
,  // measure 55
0010
0100
0010
1000
0100
1000
0010
0100
0010
0001
0100
0001
0010
0100
1000
0010
,  // measure 56
0100
0010
0001
1000
0001
0100
0010
0100
1000
0100
1000
0010
0100
0010
0001
0100
,  // measure 57
0001
0010
0100
1000
0010
0100
1000
0100
0001
0010
0001
0100
0010
0100
1000
0010
,  // measure 58
0100
0010
0001
0010
0100
1000
0010
0100
0010
0100
1000
0010
0100
0010
1000
0100
,  // measure 59
1000
0001
0100
0010
0100
1000
0100
0010
0001
0010
0100
1000
0010
0100
0010
1000
,  // measure 60
0100
1000
0010
0100
0010
0001
0100
0001
0010
0100
1000
0010
0100
0010
0001
1000
,  // measure 61
0001
0100
0010
0100
1000
0100
1000
0010
0100
0010
0001
0100
0001
0010
0100
1000
,  // measure 62
0010
0100
1000
0100
0001
0010
0001
0100
0010
0100
1000
0010
0200
0000
0000
0000
,  // measure 63
0000
0000
0000
0000
,  // measure 64
0300
1000
0100
0010
1000
0001
0100
0000
,  // measure 65
1000
0100
0010
0001
0010
0100
1000
0010
0100
0010
1000
0100
1000
0001
0100
0001
,  // measure 66
0010
0100
1000
0010
0100
0010
1000
0100
1000
0001
0100
0001
0010
0100
0010
1000
,  // measure 67
0100
1000
0001
0010
0001
0100
0010
0100
1000
0010
0100
0010
0001
0100
0001
0010
,  // measure 68
0100
1000
0100
0010
0001
0010
0100
1000
0010
0100
0010
1000
0100
1000
0100
0010
,  // measure 69
0100
0001
0100
0001
0010
0100
1000
0100
0010
0001
0010
0100
1000
0010
0200
0310
,  // measure 70
1000
0100
1000
0001
0100
0001
0010
0100
1000
0010
0100
0010
1000
0100
1000
0010
,  // measure 71
0100
0010
0001
0100
0001
0010
0100
0010
0001
0010
0001
0010
0100
1000
0010
0100
,  // measure 72
0010
1000
0100
1000
0001
0010
0001
0100
0010
1000
0100
0010
0001
0010
0100
1000
,  // measure 73
0010
0100
0010
1000
0100
0010
0001
0010
0100
1000
0100
0010
0100
1000
0001
0100
,  // measure 74
0001
0010
0100
1000
0010
0100
0010
1000
0100
1000
0001
0100
0010
0100
1000
0100
,  // measure 75
0010
0001
0010
0100
1000
0010
0100
0010
0000
0100
1000
0001
0100
0010
0100
1000
,  // measure 76
0100
0010
0001
0010
0100
1000
0010
0100
0010
1000
0100
1000
0001
0100
0001
0010
,  // measure 77
0100
1000
0010
0100
0010
1000
0100
1000
0010
0100
0010
0001
0010
0100
1000
0000
,  // measure 78
0010
0100
1000
0100
0010
0001
0010
0100
1000
0010
0200
0310
1000
0100
0010
0001
,  // measure 79
1000
0000
0100
0010
0100
0000
1000
0100
0010
0000
0002
0013
0100
0000
1000
0100
,  // measure 80
0010
0000
0001
0010
0400
0000
0000
0000
0000
0000
0000
0000
0000
0000
0000
0000
,  // measure 81
0000
0000
0000
0000
0300
0010
1000
0100
0010
0001
0010
0100
1000
0010
0100
0010
,  // measure 82
1000
0100
0010
0001
0010
0100
1000
0100
0010
0100
1000
0001
0100
0001
0010
0100
,  // measure 83
1000
0010
0100
0010
1000
0100
1000
0001
0100
0010
0100
1000
0100
0010
0001
0010
,  // measure 84
0100
1000
0010
0100
0010
0000
0100
1000
0001
0100
0010
0100
1000
0100
0010
0001
,  // measure 85
0010
0100
1000
0010
0100
0010
1000
0100
1000
0001
0100
0001
0010
0100
1000
0010
,  // measure 86
0100
0010
1000
0100
1000
0010
0100
0010
0001
0010
0100
1000
0000
0010
0100
1000
,  // measure 87
0100
0010
0001
0010
0100
1000
0010
0200
0310
1000
0100
0010
0001
0010
1000
0100
,  // measure 88
0010
0001
0010
0100
1000
0010
0100
0010
1000
0100
0010
0001
0010
0100
1000
0100
,  // measure 89
0010
0100
1000
0001
0100
0001
0010
0100
1000
0010
0100
0010
1000
0100
1000
0001
,  // measure 90
0100
0010
0100
1000
0100
0010
0001
0010
0100
1000
0010
0100
0010
0000
0100
1000
,  // measure 91
0001
0100
0010
0100
1000
0100
0010
0001
0010
0100
1000
0010
0100
0010
1000
0100
,  // measure 92
1000
0001
0100
0001
0010
0100
1000
0010
0100
0010
1000
0100
1000
0010
0100
0010
,  // measure 93
0001
0010
0100
1000
0000
0010
0100
1000
0100
0010
0001
0010
0100
1000
0010
0200
,  // measure 94
0310
1000
0100
0010
0001
0010
0100
1000
0010
0100
0010
1000
0100
0010
0001
1000
,  // measure 95
0100
0010
0001
0010
0100
1000
0010
0100
0010
1000
0100
0010
0001
0010
0100
1000
,  // measure 96
0100
0000
0010
0000
0100
0000
1000
0000
0001
0000
0100
0000
0001
0000
0010
0000
0100
0000
1000
0000
0010
0000
0100
0000
1010
0100
1000
0100
1000
0100
1000
0100
,  // measure 97
1000
0010
1000
0100
0010
0001
0010
0100
1000
0010
0100
0010
1000
0100
0010
0001
,  // measure 98
0010
0100
1000
0100
0010
0100
1000
0001
0100
0001
0010
0100
1000
0010
0100
0010
,  // measure 99
1000
0100
1000
0001
0100
0010
0100
1000
0100
0010
0001
0010
0100
1000
0010
0100
,  // measure 100
0010
0001
0100
1000
0001
0100
0010
0100
1000
0100
0010
0001
0010
0100
1000
0010
,  // measure 101
0100
0010
1000
0100
1000
0001
0100
0001
0010
0100
1000
0010
0100
0010
1000
0100
,  // measure 102
1000
0010
0100
0010
0001
0010
0100
1000
0100
0010
0100
1000
0100
0010
0001
0010
,  // measure 103
0100
1000
0010
0200
0310
1000
0100
0010
0010
1000
0100
0010
0001
0010
0100
1000
,  // measure 104
0010
0100
0010
1000
0100
0010
0001
0010
0100
1000
0100
0010
0100
1000
0001
0100
,  // measure 105
0001
0010
0100
1000
0010
0100
0010
1000
0100
1000
0001
0100
0010
0100
1000
0100
,  // measure 106
0010
0001
0010
0100
1000
0010
0100
0010
0000
0100
1000
0001
0100
0010
0100
1000
,  // measure 107
0100
0010
0001
0010
0100
1000
0010
0100
0010
1000
0100
1000
0001
0100
0001
0010
,  // measure 108
0100
1000
0010
0100
0010
1000
0100
1000
0010
0100
0010
0001
0010
0100
1000
0000
,  // measure 109
0010
0100
1000
0100
0010
0001
0010
0100
1000
0010
0200
0310
1000
0100
0010
0001
,  // measure 110
0010
0100
1000
0010
0100
0020
1030
0100
1000
0001
0100
0001
0010
0100
1000
0010
,  // measure 111
0100
0010
1000
0100
1000
0010
0100
0010
0001
0100
0001
0010
0100
1000
0010
0100
,  // measure 112
0010
0000
1000
0000
0100
0000
1000
0000
0001
0000
0000
0000
1000
0000
0000
0000
1000
0100
0010
0001
0010
0100
1000
0010
0100
0000
0000
0000
0000
0000
0000
0000
,  // measure 113
1001
1001
1001
1001
,  // measure 114
1001
0110
0110
0110
,  // measure 115
0110
0110
0110
0110
,  // measure 116
0110
0110
1100
1100
,  // measure 117
1100
1100
1100
1100
,  // measure 118
1100
1100
1100
0101
,  // measure 119
0101
0101
0101
0101
,  // measure 120
0101
0000
0101
0000
0101
0000
1000
0100
,  // measure 121
0010
0001
0100
0010
1000
0100
1000
0010
,  // measure 122
0100
0010
0001
0100
0010
0100
1000
0100
,  // measure 123
0010
0100
0010
1000
0100
1000
0001
0100
,  // measure 124
0001
0010
0100
1000
0010
0100
0010
1000
,  // measure 125
0100
1000
0010
0001
0010
0100
1000
0100
,  // measure 126
0010
0001
0100
0010
0100
0010
1000
0010
,  // measure 127
0100
0000
0000
0000
0000
0000
0010
0000
0000
0000
0000
0000
0100
0000
0000
0000
0000
0000
0001
0000
0000
0000
0000
0000
0100
0000
0000
0000
0000
0000
0010
0000
0000
0000
0000
0000
2002
0000
0000
0000
0000
3113
0000
0000
0000
0000
0000
0000
,  // measure 128
1000
0100
0010
0001
0010
0100
1000
0010
0100
0010
1000
0100
1000
0001
0100
0001
,  // measure 129
0010
0100
1000
0010
0100
0010
1000
0100
1000
0001
0010
0001
0100
0010
0100
1000
,  // measure 130
0010
0100
0010
1000
0100
0010
0001
0010
0100
1000
0010
0100
0010
0100
1000
0100
,  // measure 131
0010
0001
0010
0100
1000
0100
0010
1000
0100
1000
0001
0010
0001
0100
0010
0100
,  // measure 132
1000
0010
0100
0010
1000
0100
0010
0001
0010
0100
1000
0010
0100
0010
0100
1000
,  // measure 133
0100
0010
0001
0010
0100
0100
0010
1000
0100
1000
0001
0010
0001
0100
0010
0100
,  // measure 134
1000
0010
0100
0010
1000
0100
0010
0001
0010
0100
1000
0010
0100
0010
0100
1000
,  // measure 135
0100
0010
0001
0010
0100
0100
0010
1000
0100
1000
0001
0010
0001
0100
0010
0100
,  // measure 136
1000
0010
0100
0010
1000
0100
0010
0001
0010
0100
1000
0010
0100
0010
0100
1000
,  // measure 137
0100
0010
0001
0010
0100
1000
0100
0010
1000
0100
1000
0001
0010
0001
0100
0010
,  // measure 138
0100
1000
0010
0100
0010
1000
0100
0010
0001
0010
0100
1000
0010
0100
0010
0100
,  // measure 139
1000
0100
0010
0001
0010
0100
0001
0010
1000
0100
1000
0001
0010
0001
0100
0010
,  // measure 140
0100
1000
0010
0100
0010
1000
0100
0010
0001
0010
0100
1000
0010
0100
0010
0100
,  // measure 141
1000
0100
0010
0001
0010
0100
1000
0100
0010
0001
0010
0100
1000
0010
0100
0010
,  // measure 142
1000
0100
1000
0001
0200
0310
0001
0010
0100
1000
0100
0010
0001
0010
0100
1000
,  // measure 143
0010
0000
0100
0000
0010
0000
1000
0000
0100
0000
0010
0000
0001
0000
0010
0000
0100
0000
1000
0000
0100
0000
0010
0000
0001
0000
0010
0000
0100
0010
0002
0013
,  // measure 144
0100
0000
0000
0000
0000
0000
1000
0000
0000
0000
0000
0000
0010
0000
0000
0000
0000
0000
0100
0000
0000
0000
0000
0000
0010
0000
0000
0000
0000
0000
1000
0000
0000
0000
0000
0000
0100
0000
0000
0000
0000
0000
1000
0000
0000
0000
0000
0000
0010
0000
0000
0000
0000
0000
0001
0000
0000
0000
0000
0000
0010
0000
0000
0000
0000
0000
0100
0000
0000
0000
0000
0000
1000
0000
0000
0000
0000
0000
0010
0000
0000
0000
0000
0000
0100
0000
0000
0000
0000
0000
0010
0000
0000
0000
0000
0000
1000
0000
0000
0000
0000
0000
0100
0000
0000
0000
0000
0000
1000
0000
0000
0000
0000
0000
0001
0000
0000
0000
0000
0000
0100
0000
0000
0000
0000
0000
0001
0000
0000
0000
0000
0000
0100
0000
0000
0000
0000
0000
0010
0000
0000
0000
0000
0000
1000
0000
0000
0000
0000
0000
0000
0000
0100
0000
0000
0000
0000
0000
0000
0000
0010
0000
0000
0000
0000
0000
0000
0000
0001
0000
0000
0000
0000
0000
0000
0000
0010
0000
0000
0000
0000
0000
0000
0000
0100
0000
0000
0000
0000
0000
0000
0000
,  // measure 145
1000
0010
0100
0010
1000
0100
1000
0010
0100
0010
0001
0100
0010
0100
1000
0010
0100
0010
1000
0100
1000
0001
0100
0001
,  // measure 146
0010
0100
1000
0010
0100
0010
0001
0010
0100
1000
0010
0100
0010
0100
1000
0100
1000
0010
0100
0010
0001
0010
0100
1000
,  // measure 147
0010
0000
0100
0000
0010
0000
0100
0000
1000
0000
0100
0000
0010
0000
0001
0000
0010
0000
0100
0000
1000
0000
0010
0000
0100
0000
0010
0000
0100
0000
1000
0000
0100
0000
1000
0000
0010
0000
0000
1000
0000
0000
0100
0000
0000
0010
0000
0000
,  // measure 148
0001
0100
0010
0100
0010
1000
0100
0010
0001
0010
0100
1000
0010
0100
0010
1000
,  // measure 149
0001
0010
0100
0010
0100
1000
0010
0001
0100
0000
0000
0000
1000
0100
0010
0001
,  // measure 150
0100
0000
0000
0000
0011
0000
0000
1001
0000
0000
0000
0110
0000
0000
0000
0011
,  // measure 151
0000
0000
1100
0000
0000
0000
0000
0011
0000
0000
0000
0000
1100
0000
0000
0000
,  // measure 152
0000
0000
0000
0110
0000
0000
0000
0000
0000
0000
1100
0000
0000
0000
0000
0011
,  // measure 153
0000
0000
0000
0000
1100
0000
0000
0000
0000
0000
0000
0110
0000
0000
0000
0000
,  // measure 154
1010
0000
0000
0000
0000
0000
0000
1010
0000
0000
0000
1001
0000
0000
0220
0000
,  // measure 155
0000
0000
0000
0000
0000
0000
0000
0000
0000
0000
0000
0000
0330
0000
1000
0100
,  // measure 156
0010
0000
0010
0100
0010
0000
0001
0100
0010
0000
1000
0100
0010
0000
0001
0100
,  // measure 157
0010
0000
1000
0100
0010
0000
0001
0010
0100
0000
1000
0100
0010
0000
0001
0100
,  // measure 158
0010
0000
1000
0100
2000
0000
0000
0000
0000
0000
0000
0000
0000
0000
0000
0000
,  // measure 159
0000
0000
0000
0000
0000
0000
3000
0000
0000
1000
0100
0010
0001
0000
0000
0000
,  // measure 160
0100
0000
0000
0000
0000
0000
0000
0000
1000
0100
0010
0001
0100
0000
0000
0000
,  // measure 161
1000
0000
0100
1000
,  // measure 162
0010
0000
0000
0000
0000
0000
0000
0000
0000
0000
0000
0000
0000
0000
0000
0000
0000
0000
0000
0000
0000
0000
0000
0000
0000
0000
0000
0000
0000
0000
0000
0000
0000
0000
0000
0000
0000
0000
0000
0000
0000
0000
0000
0000
0000
0000
0000
0000
0010
0000
0000
0000
0000
0000
0000
0000
0000
0000
0000
0000
0000
0000
0000
0000
0000
0000
0000
0000
0000
0000
0000
0000
0000
0000
0000
0000
0000
0000
0000
0000
0000
0000
0000
0000
0000
0000
0000
0000
0000
0000
0000
0000
0000
0000
0000
0000
0010
0000
0000
0000
0000
0000
0001
0000
0000
0000
0000
0000
0100
0000
0000
0000
0000
0000
1000
0000
0000
0000
0000
0000
0100
0000
0000
0000
0000
0000
0001
0000
0000
0000
0000
0000
0010
0000
0000
0000
0000
0000
0100
0000
0000
0000
0000
0000
1000
0000
0000
0000
0000
0000
0000
0000
0100
0000
0000
0000
0000
0000
0000
0000
0010
0000
0000
0000
0000
0000
0000
0000
0001
0000
0000
0000
0000
0000
0000
0000
0000
0000
0000
0000
0100
0000
0000
0000
0000
0000
0000
0000
0000
0000
0000
0000
,  // measure 163
1000
0000
0100
0000
0100
0010
1000
0100
1000
0001
0010
0001
0100
0010
0100
1000
,  // measure 164
0010
0100
0010
1000
0100
0010
0001
0010
0100
1000
0010
0100
0010
0100
1000
0100
,  // measure 165
0010
0001
0010
0100
1000
0010
1000
0100
1000
0001
0010
0001
0100
0010
0100
1000
,  // measure 166
0010
0100
0010
1000
0100
0010
0001
0010
0100
1000
0010
0100
0010
0100
1000
0100
,  // measure 167
0010
0001
0010
0100
0010
0100
0010
1000
0100
1000
0001
0010
0001
0100
0010
0100
,  // measure 168
1000
0010
0100
0010
1000
0100
0010
0001
0010
0100
1000
0010
0100
0010
0100
1000
,  // measure 169
0100
0010
0001
0010
0100
0100
0010
1000
0100
1000
0001
0010
0001
0100
0010
0100
,  // measure 170
1000
0010
0100
0010
1000
0100
0010
0001
0010
0100
1000
0010
0100
0010
0100
1000
,  // measure 171
0100
0010
0001
0010
0100
1000
0010
1000
0100
1000
0001
0010
0001
0100
0010
0100
,  // measure 172
1000
0010
0100
0010
1000
0100
0010
0001
0010
0100
1000
0010
0100
0010
0100
1000
,  // measure 173
0100
0010
0001
0010
0100
0010
0100
1000
0100
1000
0001
0010
0001
0100
0010
0100
,  // measure 174
1000
0010
0100
0010
1000
0100
0010
0001
0010
0100
1000
0010
0100
0010
0100
1000
,  // measure 175
0100
0010
0001
0010
0100
0010
1000
0100
1000
0001
0010
0001
0100
0010
0100
1000
,  // measure 176
0010
0100
0010
1000
0100
0010
0001
0010
0100
1000
0010
0100
0010
0100
1000
0100
,  // measure 177
0010
0001
0010
0100
0100
0010
1000
0100
1000
0001
0010
0001
0100
0010
0100
1000
,  // measure 178
0010
0100
0010
1000
0100
0010
0001
0010
0100
1000
0010
0100
0010
0100
1000
0100
,  // measure 179
0010
0001
0010
0100
0100
0010
1000
0100
1000
0001
0010
0001
0100
0010
0100
1000
,  // measure 180
0010
0100
0010
1000
0100
0010
0001
0010
0100
1000
0010
0100
0010
0100
1000
0100
,  // measure 181
0010
0001
0010
0100
0100
0010
1000
0100
1000
0001
0010
0001
0100
0010
0100
1000
,  // measure 182
0010
0100
0010
1000
0100
0010
0001
0010
0100
1000
0010
0100
0010
0100
1000
0100
,  // measure 183
0010
0001
0010
0100
1000
0100
0010
1000
0100
1000
0001
0010
0001
0100
0010
0100
,  // measure 184
1000
0010
0100
0010
1000
0100
0010
0001
0010
0100
1000
0010
0100
0010
0100
1000
,  // measure 185
0100
0010
0001
0010
0100
1000
0010
1000
0100
1000
0001
0010
0001
0100
0010
0100
,  // measure 186
1000
0010
0100
0010
1000
0100
0010
0001
0010
0100
1000
0010
0100
0010
0100
1000
,  // measure 187
0100
0010
0001
0010
0100
0001
0100
0010
1000
0100
1000
0001
0010
0001
0100
0010
,  // measure 188
0100
1000
0010
0100
0010
1000
0100
0010
0001
0010
0100
1000
0010
0100
0010
0100
,  // measure 189
1000
0100
0010
0001
0010
0100
1000
0010
0100
0010
1000
0100
1000
0001
0010
0001
,  // measure 190
0100
0010
0100
1000
0010
0100
0010
1000
0100
0010
0001
0010
0100
1000
0010
0100
,  // measure 191
0010
0100
1000
0100
0010
0001
0010
0100
0001
0010
1000
0100
1000
0001
0010
0001
,  // measure 192
0100
0010
0100
1000
0010
0100
0010
1000
0100
0010
0001
0010
0100
1000
0010
0100
,  // measure 193
0010
0100
1000
0100
0010
0001
0010
0100
1000
0010
1000
0100
1000
0001
0010
0001
,  // measure 194
0100
0010
0100
1000
0010
0100
0010
1000
0100
0010
0001
0010
0100
1000
0010
0100
,  // measure 195
0010
0100
1000
0100
0000
0000
0000
0000
0000
0000
0000
0000
0000
0000
0000
0000
,  // measure 196
0000
0000
0000
0000
,  // measure 197
M000
0000
0000
0000
;
