#TITLE:Fess Up!;
#SUBTITLE:;
#ARTIST:Shohei Tsuchiya;
#TITLETRANSLIT:;
#SUBTITLETRANSLIT:;
#ARTISTTRANSLIT:;
#CREDIT:;
#BANNER:bn.png;
#BACKGROUND:bg.png;
#LYRICSPATH:;
#CDTITLE:;
#MUSIC:Groove Coaster - Fess up!.mp3;
#OFFSET:0.000;
#SAMPLESTART:25.112;
#SAMPLELENGTH:8.345;
#SELECTABLE:YES;
#BPMS:0.000=160.640;
#STOPS:;
#BGCHANGES:;

//---------------dance-single - ----------------
#NOTES:
     dance-single:
     :
     Beginner:
     2:
     0.240,0.292,0.131,0.252,0.000:
0000
0000
1000
0000
,
0000
0000
0000
0001
,
0000
0000
0000
1000
,
0000
0000
0000
0101
,
0000
0000
0000
1010
,
0000
0000
0000
0101
,
1010
0000
1000
0100
,
0010
0001
0000
0000
,
2000
0000
0000
0000
,
0000
0000
0000
0000
,
0000
0000
0000
3000
,
0000
0010
0010
0010
,
0010
0000
0200
0000
,
0000
0000
0001
0000
,
0000
0000
0301
0000
,
0000
0001
1000
0000
,
1001
0000
0020
0000
,
0030
1001
0020
0000
,
0030
0200
0000
0000
,
0300
2000
0000
3020
,
0030
0001
0002
0003
,
0000
1000
2000
3000
,
0000
0200
0000
0300
,
0000
1000
0100
0010
,
0001
0002
0000
0000
,
0000
0000
0000
0000
,
0003
2000
0000
0000
,
0000
0000
0000
0000
,
3000
0200
0000
0000
,
0000
0000
0000
0000
,
0000
0302
0000
0000
,
0000
1003
0100
0010
,
0001
0002
0000
0000
,
0003
2000
0000
0000
,
3000
2002
0000
0000
,
3003
0010
0100
0001
,
1000
0100
0020
0000
,
0000
0031
0020
0030
,
0000
0200
0000
0300
,
0000
1000
1000
0010
,
0010
0001
0001
0001
,
0001
0001
0001
0200
,
0000
0300
0010
0010
,
0010
0010
0010
2010
,
0000
3100
0100
0100
,
0100
0100
0100
0102
,
0000
0003
0010
0000
,
0010
0000
0010
0000
,
1000
0100
0010
0001
,
0010
0100
1000
0100
,
0010
0001
0001
0010
,
0100
0010
0100
0010
,
0010
0001
0001
0001
,
0001
0010
0010
0100
,
1000
0100
0000
0011
,
0000
0010
1100
0000
,
0010
0000
0100
0010
,
0100
0010
0100
0010
,
0000
0100
0010
0000
,
0100
0010
0000
0100
,
0010
0000
0200
0000
,
0000
0000
0000
0000
,
0000
0000
0000
0000
,
0300
0000
1001
0000
,
0000
0000
1001
0000
;

//---------------dance-single - ----------------
#NOTES:
     dance-single:
     :
     Easy:
     6:
     0.440,0.585,0.383,0.363,0.000:
0000
0000
0000
1000
0000
2000
0000
0000
,
3000
0000
0000
0001
0001
0001
0002
0000
,
0000
0000
0003
0010
0010
0020
0000
0000
,
0000
0030
0000
0010
0010
0010
0020
0000
,
0000
0000
0030
1000
0100
0020
0000
0000
,
0000
0030
0000
0001
0100
0010
0200
0000
,
0000
0300
0000
1000
0010
0100
0000
0000
,
0000
0000
0000
0001
0010
0100
0000
0000
,
0000
1000
0000
1001
0000
0001
0000
1001
,
0000
1000
0000
1001
0000
0001
0000
1001
,
0000
1000
1001
0001
,
1000
1001
0000
1001
1010
0000
0001
0001
,
0010
0000
0100
0000
1000
0010
0000
0100
,
0000
0010
0000
0100
0000
0000
0010
0100
,
0000
1010
1010
0000
0000
0000
0101
0000
,
0000
0000
0010
0010
0010
0000
0101
0100
,
0100
0020
0230
0000
,
0300
2000
3020
0000
,
0030
0000
2002
0000
0000
0000
0000
3003
,
0000
0000
1000
0100
0100
0000
0010
0001
,
0000
0020
0000
0000
0230
0000
0000
0000
,
0300
2000
3200
0000
,
0300
0000
0010
0010
0010
0000
0000
0000
,
0000
0000
1000
0000
0010
0000
0100
0100
,
0100
0001
0010
0100
,
1000
0100
0010
0001
,
0010
0100
1001
0011
,
1100
1010
0101
0110
,
0110
0010
0010
0010
,
0010
0100
0100
0100
,
0100
0010
0001
1000
,
0001
2000
0000
0002
,
0003
3000
0002
0000
0020
0000
0000
0000
,
0033
0200
2000
0000
,
3300
2020
0000
0000
,
3030
0000
1000
1000
0100
0100
0000
0010
,
0010
0001
0001
0001
0020
0000
0000
0000
,
0000
0030
0200
0000
0000
0320
0000
0000
,
0000
0030
0002
0000
0000
0000
0000
0003
,
0000
0000
1000
0000
0010
0000
0000
0010
,
0000
0020
0000
0000
,
0000
0000
0000
0000
0030
0000
0100
0100
,
0100
0000
0002
0000
0000
1000
0000
0000
,
1000
0000
0000
0000
1000
0003
0000
1000
,
1000
1000
0000
0002
0000
0010
0010
0000
,
0000
0010
0010
0000
0003
0000
0000
1010
,
0000
1001
0000
1001
0000
1001
0000
1001
,
0000
1001
0000
1001
0000
1001
0000
1010
,
1010
0101
0000
0000
0020
0000
0000
0000
,
0000
0030
0100
0000
0000
0100
0000
0100
,
0011
0100
0000
0000
0000
1000
0000
0100
,
0010
0001
0010
0000
0000
0100
0000
1000
,
1000
0100
0000
0010
0000
0010
0000
0010
,
0010
0010
0001
0000
0000
0001
0000
0001
,
0010
0100
0010
0000
0000
0010
0000
0100
,
0100
0000
0010
0000
0000
0010
0000
0001
,
0001
1000
0000
0001
0000
0010
0000
0100
,
0000
0010
0000
0100
0000
0010
0000
0100
,
0000
0010
0000
0110
0000
0001
0000
0010
,
0000
0100
0000
0220
0000
0000
0330
2002
,
0000
0000
3003
0010
0000
0100
0000
0010
,
0000
0100
0000
0010
0000
0100
0000
0001
,
0001
1000
0000
0001
0001
1000
0000
0001
,
0001
1000
0000
0001
0001
1000
0000
0001
,
0001
1000
0000
1001
1001
0000
0000
0000
;

//---------------dance-single - ----------------
#NOTES:
     dance-single:
     :
     Medium:
     8:
     0.489,0.912,0.363,0.403,0.000:
0000
0000
0000
1000
1000
1000
0000
0000
,
0000
0000
0000
0001
0010
0100
0100
0100
,
0000
0000
0000
1000
0010
0200
0000
0000
,
0000
0300
0000
0001
0010
0100
0100
0100
,
0000
0000
0000
1000
0010
0100
0010
0100
,
0010
0001
0000
0010
0000
0100
0010
0000
,
0000
0000
0000
1000
0010
0010
0010
0100
,
0001
0001
1000
0010
0110
0001
0000
1000
,
0000
0001
0001
1000
0000
0001
0001
1000
,
0000
0001
0001
1000
0000
1000
1000
0001
,
0000
1000
1000
0001
0000
1000
1000
0001
,
0000
0100
0100
0100
0000
0010
0010
0010
,
0000
0002
0000
0003
0020
0000
0230
0300
,
2000
0000
3200
0000
0320
0000
0032
0023
,
0000
0130
2000
0000
0000
3100
0020
0000
,
0030
0001
0001
0000
0000
0000
1000
0000
,
0000
1000
0000
0200
0000
0000
0000
0000
,
0300
0000
0010
0000
0100
0200
0000
0000
,
0000
0300
1000
2000
0000
0000
0000
0000
,
3000
0002
0023
0230
,
2300
3200
0320
0000
,
0000
0032
0023
0000
,
0030
1000
1000
1000
,
1000
0000
1000
0100
0010
0001
0010
0100
,
0010
0200
0000
0000
,
0000
0300
0002
0000
0000
0000
0000
0000
,
0000
0003
2000
0000
0000
0000
0000
0000
,
3000
1001
1001
0110
,
0110
0011
1100
1010
,
0101
1010
0110
0110
,
0110
0000
0011
0011
0011
0000
1100
1100
,
1100
0000
0110
0110
0110
0110
0110
0110
,
0110
0000
1001
0000
1001
2002
0000
0000
,
0003
3000
1001
0000
1001
2002
0000
0000
,
0000
3003
0020
0000
0000
0000
0000
0000
,
0030
0000
0100
0100
0010
0010
0100
0100
,
0001
0001
1000
0000
0020
0000
0000
0000
,
0030
0000
0100
0200
0000
0000
0000
0000
,
0000
0300
1000
0010
0100
0001
0010
0100
,
0000
0010
0100
0010
0100
0001
1000
0001
,
0001
0001
1000
0001
1000
0001
1000
0001
,
0000
1000
0010
0100
0110
0000
0010
0100
,
0010
0100
0010
0100
0010
0100
0010
0100
,
0001
1000
0001
0010
0100
0000
0010
0100
,
0010
0001
1000
0000
0010
0000
0100
0000
,
0010
0000
0100
0100
0100
0000
0002
0000
,
0000
0003
0000
1000
0001
1000
0001
1000
,
0001
1000
0001
1000
0001
1000
0001
1000
,
0000
0000
0000
1000
2000
0000
0000
0000
,
0000
3000
0010
0000
0010
0000
0010
0020
,
0000
0000
0000
0000
0030
0100
0000
0100
,
0200
0000
0000
0000
0000
0300
0000
0001
,
0001
0020
0030
0200
0000
0000
0000
0000
,
0000
0000
0300
2000
0000
0000
0000
0000
,
0000
0000
3000
0020
0000
0000
0000
0000
,
0000
0000
0000
0000
,
0030
0000
0000
1000
0000
1000
0000
1000
,
0000
1000
0000
0010
0000
0010
0000
0010
,
0000
0010
0000
0000
0001
0000
0000
0000
,
0000
0001
0000
0000
0000
0001
0000
0000
,
0000
0001
0000
0001
0001
0001
0000
0001
,
0001
0001
0000
0001
0001
0001
0000
0000
,
1000
1000
1000
0010
0010
0010
0000
0000
,
0100
0010
0000
0000
0100
0000
0010
0000
,
0000
0000
0000
1001
0011
1100
0000
0000
;

//---------------dance-single - ----------------
#NOTES:
     dance-single:
     :
     Hard:
     9:
     0.412,0.587,0.171,0.423,0.640: // measure 1
0000
0000
0000
1000
1000
1000
0000
0000
,  // measure 2
0000
0000
0000
0010
0010
0010
0000
0000
,  // measure 3
0000
0000
0000
0100
0100
0100
0000
0000
,  // measure 4
0000
0000
0000
0001
1000
0001
0010
0000
,  // measure 5
0000
0000
0000
0000
0000
0000
0000
0000
0000
0010
0000
0000
0000
0010
0000
0000
0020
0000
0000
0000
0000
0000
0000
0000
,  // measure 6
0000
0000
0000
0030
0000
0000
0000
0000
0000
0100
0000
0000
0000
0100
0000
0000
0200
0000
0000
0000
0000
0000
0000
0000
,  // measure 7
0000
0000
0000
0300
0000
0000
0000
0000
0000
0000
0001
0000
0000
1000
0000
0000
0020
0000
0000
0000
0000
0000
0000
0000
,  // measure 8
0000
0000
0000
0030
0000
0000
0000
0000
0000
0000
0100
0000
0000
0010
0000
0000
0000
0002
0000
0000
0000
0000
0000
0000
,  // measure 9
0000
0003
0000
1000
0000
0000
0000
0000
1000
0000
0000
0000
,  // measure 10
0000
0000
1000
0000
0000
0000
0000
0000
1000
0000
0000
0000
,  // measure 11
0000
0000
1000
0000
0000
0000
0000
0000
1000
0000
0000
0000
,  // measure 12
0000
0000
0000
0000
0010
0000
0000
0010
0000
0010
0000
0000
0000
0000
0000
0000
0000
0100
0000
0100
0000
0000
0100
0000
,  // measure 13
0000
0000
0000
0000
0000
0010
0000
0000
0000
0000
0100
0000
0000
0000
0000
0000
0010
0000
0000
0000
0000
0000
0000
0100
,  // measure 14
0000
0000
0000
0000
0000
0010
0000
0000
0000
0000
0000
0100
0000
0000
0000
0000
0000
0010
0000
0000
0000
0000
0000
0100
,  // measure 15
0000
0000
0000
0000
0000
0001
0000
0000
0000
0000
0000
1000
0000
0000
0000
0000
0000
0001
0000
0000
0000
0000
1000
0000
,  // measure 16
0000
0000
0000
0000
0000
0001
0000
0000
0001
0000
0000
1000
0000
0000
0000
0000
0000
0001
0000
0000
0001
0000
0000
1000
,  // measure 17
0000
0000
0000
0000
0000
0001
0000
0000
0000
0000
0000
0020
0000
0000
0000
0000
0000
0000
0000
0000
0000
0000
0000
0030
,  // measure 18
0000
0000
0000
0000
0000
0100
0000
0000
0000
0000
0000
0020
0000
0000
0000
0000
0000
0000
0000
0000
0000
0000
0000
0000
,  // measure 19
0030
0000
0000
0000
0000
2000
0000
0000
0000
0000
0000
0000
0000
0000
0000
0000
0000
0000
0000
3000
0000
0000
0000
0000
,  // measure 20
0000
0000
0000
0000
0000
2000
0000
0000
0000
0000
0000
3020
0000
0000
0000
0000
0000
0200
0030
0000
0000
0000
0000
0000
,  // measure 21
0302
0000
0000
0000
0000
0003
0000
0010
0000
0000
0000
0000
0200
0000
0000
0000
0000
0000
0000
0000
0000
0000
0000
0000
,  // measure 22
0000
0300
0000
1000
0000
0000
0020
0000
0000
0000
0000
0000
,  // measure 23
0000
0030
0000
0000
0000
0002
0000
0000
0000
0000
0000
0000
0000
0000
0000
0000
0000
0000
0000
0000
0000
0003
0000
0000
,  // measure 24
0000
0000
0000
0000
0000
0000
1000
0000
0000
0010
0000
0000
0100
0000
0010
0000
0000
0100
0000
0000
0010
0000
0000
0000
,  // measure 25
0000
0000
0000
0000
0000
0000
1000
0000
0000
0000
0000
0000
0001
0000
0000
0000
0000
0010
0000
0000
0000
0000
0000
0100
,  // measure 26
0000
0000
0000
0000
0000
0000
0010
0000
0000
0000
0000
1000
0000
0000
0000
0000
0000
0000
0001
0000
0000
0000
0000
0000
,  // measure 27
0010
0100
0010
0100
,  // measure 28
1000
0001
1000
0001
,  // measure 29
0010
0000
0000
0000
0000
0000
0100
0000
0000
0000
0000
0000
1000
0000
0000
0000
0000
0000
0010
0000
0000
0000
0000
0001
,  // measure 30
0000
0000
0000
0000
0000
0010
0000
0000
0000
0000
0000
0000
0100
0000
0000
0000
0000
0000
1000
0000
0000
0000
0000
0000
,  // measure 31
0010
0100
1000
0010
,  // measure 32
0100
0000
0000
0000
0000
0000
1000
0000
0000
0000
0000
0000
0000
0001
0000
0000
0000
0000
0010
0000
0000
0000
0000
0000
,  // measure 33
0100
2002
0000
0000
,  // measure 34
0000
3003
0000
0000
0000
0000
0220
0000
0000
0000
0000
0000
0000
0000
0000
0000
0000
0000
0000
0000
0000
0000
0000
0000
,  // measure 35
0000
0000
0330
0000
0000
0000
0000
0022
0000
0000
0000
0000
0000
0000
0000
0000
0033
0000
2200
0000
0000
0000
0000
0000
,  // measure 36
0000
0300
3000
0000
0000
0000
0000
1000
0000
1000
0000
0000
0000
0100
0000
0100
0000
0000
0000
0010
0000
0010
0000
0000
,  // measure 37
0000
0001
0000
0000
0001
0000
0000
0001
0000
0000
0000
0000
0000
2000
0000
0000
0000
0000
0000
0000
0000
0000
0000
0000
,  // measure 38
0000
0000
3000
0000
0000
0000
0000
0010
0000
0000
0000
0000
0000
0020
0000
0000
0000
0000
0000
0000
0000
0000
0000
0000
,  // measure 39
0000
0030
0000
0000
0000
0000
0000
0200
0000
0000
0000
0000
0000
0000
0000
0000
0000
0000
0000
0000
0000
0000
0000
0300
,  // measure 40
0000
0000
0000
0000
0000
0000
0000
0000
1000
0000
1000
0000
0000
0010
0000
0000
0010
0000
0000
0100
0000
0000
0100
0000
,  // measure 41
0000
0001
0000
0000
0001
0000
0000
0000
0020
0000
0000
0000
0000
0000
0000
0000
0000
0000
0000
0000
0000
0000
0000
0000
,  // measure 42
0000
0000
0000
0000
0000
0000
0000
0000
0000
0000
0000
0000
0030
0000
0000
0000
0000
0000
0000
1000
0000
0000
0100
0000
,  // measure 43
0000
0010
0000
0001
0000
0000
0000
0000
0000
0020
0000
0000
0000
0000
0000
0000
0000
0000
0000
0000
0000
0000
0000
0000
,  // measure 44
0000
0000
0000
0000
0000
0000
0000
0000
0000
0000
0030
0000
0000
0000
0000
0000
0000
0000
0000
0000
1000
0000
0000
0100
,  // measure 45
0000
0000
0100
0000
0000
0010
0000
0000
0001
0000
0000
0010
0000
0000
0100
0000
0000
0010
0000
0100
0000
0000
0000
0010
,  // measure 46
0000
0000
0100
0000
0000
0010
0000
0000
0100
0000
0000
0010
0000
0000
0100
0000
0000
0010
0000
0000
0000
0000
0000
0110
,  // measure 47
0000
0110
0000
0000
0000
0000
0000
0000
1001
0000
0000
0000
0000
0000
1001
0000
0000
0000
0000
0000
1001
0000
0000
0000
,  // measure 48
0000
0000
1001
0000
0000
0000
0000
0000
1001
0000
0000
0000
0000
0000
1001
0000
0000
0000
0000
0000
0011
0000
0000
0011
,  // measure 49
0000
1100
0000
0000
0020
0000
0000
0000
0000
0000
0000
0000
,  // measure 50
0030
0000
0000
0100
0000
0010
0000
0000
0000
0000
0000
0000
0000
0000
0000
0010
0000
0000
0000
0000
1000
0000
0000
0100
,  // measure 51
0000
0000
0010
0000
0000
0002
0000
0000
0000
0000
0000
0003
0000
0000
0000
0001
0000
0000
0000
0000
0001
0000
0000
0000
,  // measure 52
1000
0000
0000
0001
0000
1000
0000
0000
0000
0000
0000
0000
0000
0000
0000
1000
0000
0000
0000
0000
1000
0000
0000
1000
,  // measure 53
0000
0000
0000
0000
0000
0000
0000
0000
0000
1000
0000
0100
0000
0000
0010
0000
0000
0000
0001
0000
0000
0010
0000
0000
,  // measure 54
0100
1000
0100
0010
0001
0010
0100
1000
,  // measure 55
0100
0000
0000
0010
0000
0000
0001
0000
0000
0010
0000
0000
0100
0000
0000
0000
0010
0000
0000
0100
0000
0000
0010
0000
,  // measure 56
0000
0100
0000
0010
0000
0000
0100
0000
0000
0010
0000
0000
0000
0100
0000
0010
0000
0000
0000
0000
0000
0001
0000
0000
,  // measure 57
0001
0020
0000
0000
0000
0000
0000
0000
,  // measure 58
0000
0000
0000
0000
0000
0000
0000
0030
0200
0000
0000
0000
0000
0000
0000
0000
0000
0000
0000
0000
0000
0000
0000
0000
,  // measure 59
0000
0000
0000
0000
0000
0000
0000
0300
0000
0002
0000
0000
0000
0000
0000
2003
0000
0000
0000
0000
0000
0020
3000
0000
,  // measure 60
0000
0032
0000
0203
0000
2300
0000
3200
,  // measure 61
0000
0320
0000
0000
0230
0000
0000
0000
,  // measure 62
0000
0320
0000
0000
0000
0000
0000
0000
0000
0000
0000
0000
,  // measure 63
0230
0000
0000
0000
,  // measure 64
0000
0300
0000
0000
0000
0000
0000
0000
0000
0000
0000
0000
0000
0000
0000
0000
0000
0000
0000
0000
0000
0000
0000
0000
,  // measure 65
0000
0000
0000
0000
0000
0000
0000
0000
0000
1001
0000
0000
1001
0000
0000
0000
0001
0000
0010
0000
0000
0000
0000
0000
;
