#TITLE:FC2アダルトで淫夢本編を見てる時にやたらと不倫を勧めてくるオッサンBB;
#SUBTITLE:;
#ARTIST:sm24857476;
#TITLETRANSLIT:;
#SUBTITLETRANSLIT:FC2 old man blue back to come recommend profusely affair when you are looking at the INM in adult;
#ARTISTTRANSLIT:;
#CREDIT:;
#BANNER:FC2A_gň{҂Ă鎞ɂ₽ƕsς߂ĂIbTBB.png;
#BACKGROUND:FC2A_gň{҂Ă鎞ɂ₽ƕsς߂ĂIbTBB-bg.png;
#LYRICSPATH:;
#CDTITLE:cdtitle.png;
#MUSIC:FC2A_gň{҂Ă鎞ɂ₽ƕsς߂ĂIbTBB.mp3;
#OFFSET:-0.160;
#SAMPLESTART:0.000;
#SAMPLELENGTH:12.000;
#SELECTABLE:YES;
#DISPLAYBPM:114514.000;
#BPMS:0.000=192.000;
#STOPS:;
#BGCHANGES:0.000=FC2A_gň{҂Ă鎞ɂ₽ƕsς߂ĂIbTBB.avi=1.000=1=0=1,
99999=-nosongbg-=1.000=0=0=0 // don't automatically add -songbackground-
;

//---------------dance-single - ----------------
#NOTES:
     dance-single:
     :
     Hard:
     15:
     0.665,0.483,0.582,0.194,0.824:
0M1M
0000
1000
0M1M
0000
0000
M1M0
0000
0001
M1M0
0000
0000
,
0001
0000
0010
M10M
0000
1000
0MM1
0000
0100
0010
0000
0000
,
M10M
0000
0010
1000
0000
0000
01MM
0000
0010
MM01
0000
0000
,
0100
0000
0000
0000
0001
0000
MM10
0000
0000
0000
0100
0000
1000
0000
0000
0000
0001
0000
0100
0000
0000
M0M0
0000
0000
,
0001
M11M
1000
0110
,
0MM1
0000
0000
0000
0110
0000
0000
0000
1000
0000
0000
0000
M11M
0000
0010
1000
,
0000
0001
0000
0000
0000
0110
0000
0000
0000
0100
0000
0000
0000
2MM2
0000
0MM0
,
3003
0MM0
M00M
0000
0000
0000
0000
0000
0000
0000
0000
0000
0000
0000
0000
0000
;

//---------------dance-single - ----------------
#NOTES:
     dance-single:
     :
     Medium:
     9:
     0.554,0.414,0.969,0.194,0.000:
0010
1000
0010
1010
,
0001
0100
0001
0101
,
0010
1000
0100
0011
,
0100
1000
0010
1010
,
0001
0100
0010
1000
,
0001
0100
1010
1010
,
0101
0110
1001
2002
,
0000
3003
0000
0000
0000
0000
0000
0000
;

//---------------dance-single - ----------------
#NOTES:
     dance-single:
     :
     Easy:
     6:
     0.235,0.220,0.291,0.000,0.000: // measure 1
0010
0000
1000
0000
,  // measure 2
0001
0000
0100
0000
,  // measure 3
0010
0000
1000
0000
,  // measure 4
0100
0000
0001
0000
,  // measure 5
0100
0000
1000
0000
,  // measure 6
0010
0000
1001
0000
,  // measure 7
1001
0000
1001
0000
;

//---------------dance-single - ----------------
#NOTES:
     dance-single:
     :
     Beginner:
     2:
     0.042,0.029,0.000,0.097,0.000:
0020
0000
0000
0000
,
0000
0000
0000
0000
,
0000
0000
0000
0000
,
0000
0000
0000
0000
,
0000
0000
0000
0000
,
0000
0000
0000
0000
,
0130
0000
0000
0000
;

//---------------dance-double - ----------------
#NOTES:
     dance-double:
     :
     Challenge:
     18:
     1.000,0.921,0.000,0.000,1.000:
00100000
10000000
01000000
00100000
00000000
00000000
00001000
00100000
00000100
00000010
00000000
00000000
,
00000001
00000100
00000010
00010000
00000100
00010000
00001000
00100000
00010000
01000000
00100000
10000000
,
01000000
00010000
00001000
00000010
00000000
00000000
00000001
00000100
00010000
00100000
00000000
00000000
,
01000000
00001000
00010000
00000010
00000100
00000001
00000010
00001000
00010000
00100000
10000000
01000000
,
00010000
00001000
00000100
00000001
00000000
00000000
00000010
00000100
00001000
01000000
00000000
00000000
,
10000000
01000000
00100000
00010000
00001000
00000100
00000010
00000001
00000010
00000100
00001000
00010000
,
00100000
01000000
10000000
01000000
00010000
00001000
00000010
00000001
00000010
00001000
00010000
01000000
,
10000000
00001000
00000100
00000100
00000001
00000010
00000100
00001000
00010000
00100000
01000000
10000000
;
