#TITLE:Everybody(Backstreet's Back);
#SUBTITLE:;
#ARTIST:BACKSTREET BOYS;
#TITLETRANSLIT:;
#SUBTITLETRANSLIT:;
#ARTISTTRANSLIT:;
#CREDIT:;
#BANNER:bn_.jpg;
#BACKGROUND:jacket.jpg;
#LYRICSPATH:;
#CDTITLE:215edit.png;
#MUSIC:EVERYBODY (Backstreet's Back).mp3;
#OFFSET:-2.140;
#SAMPLESTART:37.436;
#SAMPLELENGTH:12.000;
#SELECTABLE:YES;
#BPMS:0.000=108.000;
#STOPS:;
#BGCHANGES:1.750=EveryBody(Backstreet's Back).avi=1.000=1=0=0,
168.000=jacket.jpg=1.000=1=0=0,
99999=-nosongbg-=1.000=0=0=0 // don't automatically add -songbackground-
;

//---------------dance-single - ----------------
#NOTES:
     dance-single:
     :
     Hard:
     12:
     0.392,0.381,0.268,0.227,0.057:
0001
0010
0200
0000
0300
1000
0020
0000
,
0000
0030
0100
0000
0001
0000
0100
0000
,
0001
0010
0200
0000
0300
0010
0200
0000
,
0000
0300
1000
0000
0100
0000
0010
0000
,
0001
0010
0200
0000
0300
1000
0200
0000
,
0300
0000
0020
0030
0200
0300
2000
3000
,
0001
2000
0002
0000
0000
0000
0000
0000
,
3003
2002
0000
0000
,
3003
0000
1001
0000
0010
1000
0100
0010
,
0100
0000
1100
0000
0010
0001
0100
0000
,
1010
0000
0101
0000
0010
0001
0010
0100
,
0010
0000
1100
0000
0010
1000
0100
0000
,
1001
0000
0000
0000
0001
0000
0010
0001
0000
0000
0010
0000
0100
0000
1000
0100
,
0000
0000
0010
0000
0010
0001
0100
0000
,
1001
0000
0000
0000
0010
0000
1000
0010
1000
0000
0001
0000
0100
0000
0001
0100
,
0001
0000
1000
0000
0010
0001
0100
0000
,
1001
0000
0000
0000
0010
0000
1000
0010
0000
0000
0100
0000
0001
0000
0100
0001
,
0000
0000
0010
0000
0010
1000
0100
0000
,
1001
0000
0000
0000
0100
0000
0100
0001
0100
0000
0010
0000
0100
0000
0010
1000
,
0010
0100
0001
0000
0010
0001
1000
0000
,
1001
0000
0000
0000
0100
0000
0000
0100
0000
0000
0200
0000
0000
0000
0300
0000
,
0000
0000
0102
0000
0000
0103
0000
0010
,
1000
0000
0100
0000
0010
0000
0000
0010
0000
0000
0020
0000
0000
0000
0030
0000
,
0000
0000
2100
0000
0000
3100
0000
0010
,
0001
0000
0100
0000
1000
0000
0000
0100
0000
0000
0020
0000
0000
0000
0030
0000
,
0000
0000
0201
0000
0000
0301
0000
0000
,
0010
1000
0100
1000
0010
0100
0001
0100
,
0010
1000
0010
1000
0100
0010
1001
0000
,
1001
0000
1000
0100
0001
0100
1000
0100
,
0001
0100
1000
0100
0001
0100
1000
0100
,
0001
0010
1000
0010
0001
0010
1000
0010
,
0001
0010
1000
0010
0001
0010
1000
0010
,
0001
0100
1000
0100
0001
0100
1000
0100
,
0001
0100
1100
0000
0110
0000
0101
0000
,
0010
1000
0200
0000
0010
0000
0010
0000
,
0310
0011
1100
0011
,
0010
0001
0100
0000
1000
0010
0100
0001
,
0100
0000
0101
0000
0001
0100
1000
0000
,
0010
1000
0100
0000
0001
0010
1000
0100
,
0010
0000
1001
0000
1000
0010
0001
0000
,
0110
2002
0000
0000
0000
0000
0000
0000
,
3003
0000
0000
0000
;

//---------------dance-single - ----------------
#NOTES:
     dance-single:
     :
     Challenge:
     13:
     0.395,0.514,0.629,0.196,0.067: // measure 1
0000
0002
0000
0000
,  // measure 2
0000
0103
0000
0000
,  // measure 3
0000
2000
0000
0000
,  // measure 4
0000
3100
0000
0000
,  // measure 5
0000
0002
0000
0000
,  // measure 6
0000
0103
0010
0100
,  // measure 7
0001
0010
0200
0000
0000
0000
0300
0000
,  // measure 8
0000
1001
0110
1001
,  // measure 9
0010
1000
0100
0010
0100
1000
0001
0100
,  // measure 10
0010
0100
0001
0100
0010
1000
0100
0000
,  // measure 11
1001
0000
0001
0100
1000
0100
0001
0100
,  // measure 12
0010
1000
0100
0001
0100
1000
0001
0000
,  // measure 13
1001
0000
0000
0000
0100
0000
0010
0001
1000
0000
0010
0000
0100
0000
0001
0100
,  // measure 14
0010
1000
0001
0000
0010
0001
1000
0000
,  // measure 15
0101
0000
0000
0000
1000
0000
0010
1000
0010
1000
0010
1000
0010
0000
0100
0001
,  // measure 16
1000
0010
0100
0000
0010
0001
0100
0000
,  // measure 17
1001
0000
0000
0000
0001
0000
0010
0100
1000
0000
0001
0000
0010
0000
0100
0010
,  // measure 18
0001
1000
0010
0000
0010
0100
1000
0000
,  // measure 19
0011
0000
0000
0000
0100
0000
0010
0001
0010
0000
1000
0000
0001
0000
0010
1000
,  // measure 20
0010
0001
0110
0000
1000
0100
0010
0001
,  // measure 21
0100
0000
1000
0000
1100
0000
0000
1100
0000
0000
2200
0000
0000
0000
3300
0000
,  // measure 22
0000
0000
0012
0000
0000
0013
0000
1000
,  // measure 23
0100
0000
0010
0000
0011
0000
0000
0011
0000
0000
0022
0000
0000
0000
0033
0000
,  // measure 24
0000
0000
2100
0000
0000
3100
0000
0001
,  // measure 25
0010
0000
0100
0000
1100
0000
0000
1100
0000
0000
2200
0000
0000
0000
3300
0000
,  // measure 26
0000
0000
0021
0000
0000
0031
0000
0000
,  // measure 27
1000
0100
0011
0010
0110
0100
1100
1000
,  // measure 28
1100
0100
0110
0010
0011
0001
0101
0000
,  // measure 29
1001
MMMM
1100
MMMM
0101
MMMM
1100
MMMM
,  // measure 30
0101
MMMM
1100
MMMM
0101
MMMM
1100
MMMM
,  // measure 31
0011
MMMM
1010
MMMM
0011
MMMM
1010
MMMM
,  // measure 32
0011
MMMM
1010
MMMM
0011
MMMM
1010
MMMM
,  // measure 33
0101
MMMM
1100
MMMM
0101
MMMM
1100
MMMM
,  // measure 34
0101
MMMM
1001
0000
0110
0000
1001
0000
,  // measure 35
0100
0001
0010
0000
0100
1000
0010
1000
,  // measure 36
0100
0101
1010
0101
,  // measure 37
0101
0202
0000
0000
0000
0000
0000
0000
,  // measure 38
0000
0303
0000
0000
,  // measure 39
1010
2020
0000
0000
0000
0000
0000
0000
,  // measure 40
3030
0100
0010
0100
,  // measure 41
0110
2002
0000
0000
0000
0000
0000
0000
,  // measure 42
0000
0000
3003
0000
;

//---------------dance-single - ----------------
#NOTES:
     dance-single:
     :
     Medium:
     11:
     0.315,0.381,0.340,0.196,0.000:
0010
1000
0200
0000
0000
0000
0000
0000
,
0000
0300
0000
0000
0000
0000
0000
0000
,
0010
0001
0200
0000
0000
0000
0000
0000
,
0000
0300
0000
0000
0000
0000
0000
0000
,
0010
1000
0200
0000
0000
0000
0000
0000
,
0000
0300
0010
0000
0010
0000
0010
0000
,
0001
0100
0002
0000
0000
0000
0000
0003
,
0000
1100
0010
2002
,
3003
0000
0001
0000
0100
0000
0010
1000
,
0100
0000
0010
0000
0001
0010
0100
0000
,
0000
0000
1000
0000
0100
0000
0010
0001
,
0100
0000
0001
0000
0010
0100
1000
0000
,
0000
0002
1000
1000
,
1003
0000
0010
1000
0100
0010
0100
0000
,
1001
0200
0001
0001
,
0301
0000
0001
0010
0100
1000
0010
0000
,
0101
2000
0010
0010
,
3010
0000
1000
0100
0010
0100
1000
0000
,
0011
0000
0001
0010
0100
0010
0100
1000
,
0100
0002
1000
1003
,
0110
0001
1000
0010
,
0100
0000
0202
0000
0000
0303
0000
0000
,
0010
0001
0100
0010
,
1000
0000
2002
0000
0000
3003
0000
0000
,
0100
0010
0100
0001
,
0100
0000
2020
0000
0000
3030
0000
0000
,
1000
0100
0001
0000
1000
1000
0100
0001
,
1000
0010
0001
0100
1000
0000
1001
0000
,
0000
1100
0101
1100
,
0101
1100
0101
1100
,
0101
1100
0101
1100
,
0101
1100
0101
1100
,
0101
1100
0101
1100
,
0101
0010
0100
1000
,
0001
0010
0001
0000
1000
0010
0100
0010
,
1000
0000
0001
0000
0010
0100
2000
0000
,
0000
3000
0001
0000
0010
0100
1000
0010
,
1000
0000
0100
0000
0010
0001
0020
0000
,
0000
0030
0000
0000
1000
0001
0100
0010
,
1000
1001
0110
1001
,
0100
0200
0000
0000
0000
0000
0000
0000
,
0300
0000
0000
0000
;

//---------------dance-single - ----------------
#NOTES:
     dance-single:
     :
     Easy:
     9:
     0.193,0.275,0.083,0.206,0.000:
0000
0002
0000
0000
,
0000
0103
0000
0000
,
0000
2000
0000
0000
,
0000
3010
0000
0000
,
0000
0200
0000
0000
,
0000
0310
0000
1000
,
0000
0002
0000
0000
,
0000
0013
0000
0000
,
0000
0010
0100
1000
,
0001
0100
0001
1000
,
0100
1000
0001
0010
,
1000
0010
0001
0100
,
0010
0020
0000
0000
,
0030
0100
0100
0100
,
0100
0002
0000
0000
,
0003
0010
0010
0010
,
0010
0200
0000
0000
,
0300
1000
1000
1000
,
1000
0020
0000
0000
,
0030
0100
0100
0100
,
0100
0000
0001
0000
0010
0000
0001
0010
,
0001
0000
0200
0000
0000
0300
0000
0000
,
0000
0000
1000
0000
0010
0000
1000
0100
,
1000
0000
0200
0000
0000
0300
0000
0000
,
0001
0000
0010
0000
0100
0000
0010
0001
,
0010
0000
2000
0000
0000
3000
0000
0000
,
0000
0001
0010
0001
,
1000
0010
1000
0100
,
0000
1200
0001
1000
,
0001
1000
0001
1000
,
0001
1000
0001
1000
,
0001
1000
0001
1000
,
0001
1000
0001
1000
,
0001
0310
1000
0100
,
0010
2002
0000
3003
,
0000
0011
1100
0011
,
0220
0000
0330
0000
,
0000
0000
0000
0000
,
0000
2002
0000
0000
,
3003
0010
0000
0000
,
2002
0000
0000
0000
,
3003
0000
0000
0000
;

//---------------dance-single - ----------------
#NOTES:
     dance-single:
     :
     Beginner:
     5:
     0.134,0.211,0.021,0.155,0.000:
0000
0000
0000
0000
,
0000
0000
0000
0000
,
0000
0000
0000
0000
,
0000
0000
0000
0000
,
0000
0002
0000
0003
,
0000
2000
0000
3000
,
0000
0020
0000
0000
,
0000
0130
0000
0000
,
0000
0001
0000
0010
,
0000
0010
0000
0010
,
0000
0100
0000
1000
,
0000
0100
0000
0100
,
0000
0020
0000
0000
,
0030
0001
0001
0001
,
0000
0200
0000
0300
,
0000
0010
0010
0010
,
0000
2000
0000
3000
,
0000
0100
0100
0100
,
0000
0020
0000
0030
,
0000
0100
0100
0100
,
0000
0001
0000
0100
,
0000
0002
0000
0003
,
0000
1000
0000
0010
,
0000
0200
0000
0300
,
0000
0001
0000
1000
,
0000
0020
0000
0030
,
0000
0001
0010
0001
,
0010
0100
1000
0100
,
0000
1000
0001
1000
,
0001
1000
0001
1000
,
0001
1000
0001
1000
,
0001
1000
0001
1000
,
0001
1000
0001
1000
,
1001
0001
0010
0100
,
2000
0000
0000
3000
,
0000
1000
0100
0010
,
0002
0000
0000
0003
,
0000
0000
0000
0000
,
2000
0000
0000
0000
,
3000
0000
0000
0000
,
2002
0000
0000
0000
,
3003
0000
0000
0000
;
