#TITLE:Electrodrome;
#SUBTITLE:;
#ARTIST:♪♪♪♪♪;
#TITLETRANSLIT:;
#SUBTITLETRANSLIT:;
#ARTISTTRANSLIT:;
#GENRE:;
#CREDIT:;
#MENUCOLOR:;
#METERTYPE:DDR;
#BANNER:Electrodrome.png;
#BACKGROUND:Electrodrome-bg.png;
#LYRICSPATH:;
#CDTITLE:;
#MUSIC:Electrodrome.mp3;
#OFFSET:0.900;
#SAMPLESTART:4.320;
#SAMPLELENGTH:12.000;
#SELECTABLE:YES;
#LISTSORT:;
#BPMS:0.000=138.000;
#STOPS:0.000=0.005
;
#BGCHANGES:;
#ATTACKS:;

//---------------dance-single - ----------------
#NOTES:
     dance-single:
     :
     Hard:
     11:
     0.587,0.516,0.247,0.097,0.048: // measure 1
0000
0000
0000
0000
,  // measure 2
0000
0000
0000
0000
,  // measure 3
0000
0000
0000
0000
,  // measure 4
1000
0000
1001
0000
0010
1000
0100
0000
,  // measure 5
1000
0010
0100
0001
0010
0100
0010
0001
,  // measure 6
1000
0000
0110
0000
0010
0100
0001
1000
,  // measure 7
0100
0000
0010
0000
0100
0000
1000
0010
0000
0000
0100
0000
0100
0000
0001
0000
,  // measure 8
1000
0100
0010
0100
1000
0010
0100
0001
,  // measure 9
1000
0100
1000
0001
0100
0010
0100
0001
,  // measure 10
0010
0100
0001
0100
0010
1000
0100
0010
,  // measure 11
0100
1000
0010
0100
0001
1000
0010
1000
,  // measure 12
0001
0000
0000
0000
0101
0000
0000
0000
0010
0000
0100
0001
0000
0000
1000
0000
,  // measure 13
0100
1000
0010
1000
0100
1000
0010
0100
,  // measure 14
0001
0000
0000
0000
0101
0000
0000
0000
0010
0100
0000
0001
0000
0000
1000
0000
,  // measure 15
0100
0000
0100
0000
1000
0000
0010
0001
0000
0000
1000
0000
1000
0000
0010
0000
,  // measure 16
0100
0001
0010
0001
0100
0010
1000
0100
,  // measure 17
1000
0010
0100
0001
0010
0100
0010
0001
,  // measure 18
1000
0010
1000
0100
0000
1000
0001
0000
,  // measure 19
0100
0100
0001
0001
0010
0010
1000
1000
,  // measure 20
0010
1000
0001
0010
0000
1100
0000
0011
,  // measure 21
0000
0100
0001
0010
0000
0001
1000
0010
,  // measure 22
0100
0001
0100
0010
0000
1000
0100
0001
,  // measure 23
0000
1000
0010
0100
0000
0001
0001
0010
,  // measure 24
1000
0010
0100
0001
0000
1100
0000
0011
,  // measure 25
0000
0100
0100
0000
0010
0100
0001
0000
,  // measure 26
0010
0100
1000
0001
0000
1010
0000
0101
,  // measure 27
0000
0010
0100
0010
0000
1000
1000
0001
,  // measure 28
0101
0001
0010
0100
0000
2000
0100
3001
,  // measure 29
0000
0002
0100
1003
0010
0010
0100
0100
,  // measure 30
1001
0010
0100
0001
0000
1000
0100
0010
,  // measure 31
0000
1000
0001
0100
0010
0010
0100
0100
,  // measure 32
2001
0100
0100
0100
0000
0010
0000
3010
,  // measure 33
0000
0100
0100
0001
0010
1000
1000
0100
,  // measure 34
1001
0000
0000
0000
0110
0000
0000
0000
0010
0000
0100
0001
0000
0000
1000
0000
,  // measure 35
0100
1000
0010
0100
0001
0010
0100
0010
,  // measure 36
0101
0000
0000
0000
1010
0000
0000
0000
0010
0000
1000
0001
0000
0000
1000
0000
,  // measure 37
0100
0000
1000
0000
0010
0000
0100
0001
0000
0000
0100
0000
0010
0000
0100
0000
,  // measure 38
0001
0100
0010
0100
1000
0100
0010
0100
,  // measure 39
0001
0100
0010
1000
0100
1000
0001
0000
,  // measure 40
1000
0100
1000
0010
0100
0001
0010
0100
,  // measure 41
0010
0001
0100
0010
1000
0001
0010
0100
,  // measure 42
0010
0000
0000
0000
1001
0000
0000
0000
0010
0000
0100
0001
0000
0000
1000
0000
,  // measure 43
0100
1000
0010
0100
0001
0100
0010
1000
,  // measure 44
0100
0000
0000
0000
0101
0000
0000
0000
0001
1000
0000
0100
0000
0000
1000
0000
,  // measure 45
0010
1000
0100
1000
0010
0100
2001
0000
,  // measure 46
3100
0010
0001
0010
0100
0010
1000
0010
,  // measure 47
0100
0010
0001
1000
0010
0100
0001
1000
,  // measure 48
0100
1000
0010
0100
0000
0011
0011
0000
,  // measure 49
0010
0010
2000
3100
0002
0013
2000
3010
,  // measure 50
0100
1000
0010
0100
0000
0001
0010
0000
,  // measure 51
1000
0001
0100
0010
0100
0001
0010
0100
,  // measure 52
0010
1000
0001
0000
0100
0001
1000
0000
,  // measure 53
0010
0100
0001
0100
0010
1000
0100
0010
,  // measure 54
1000
0001
0010
0200
0000
0001
0000
1300
,  // measure 55
0000
0010
0010
0000
1000
0001
1000
0010
,  // measure 56
1000
0200
0001
0310
0000
1100
0000
0011
,  // measure 57
0000
0100
0100
0000
0010
1000
0001
0010
,  // measure 58
0100
1000
0010
0100
0000
0001
0000
0101
,  // measure 59
0000
2010
0001
3002
0000
0100
0103
1000
,  // measure 60
0100
1000
0010
0100
0000
0001
0010
0000
,  // measure 61
1000
0010
1000
0010
0000
0100
0001
0010
,  // measure 62
1000
0100
1000
0001
0000
0110
0000
0100
,  // measure 63
0001
0010
0001
0100
0001
1000
0001
0100
,  // measure 64
0010
0000
1100
0000
0010
0100
0001
0000
,  // measure 65
1000
0100
0010
0100
1000
0010
0100
0001
,  // measure 66
1000
0000
0000
0000
;

//---------------dance-single - ----------------
#NOTES:
     dance-single:
     :
     Medium:
     9:
     0.499,0.430,0.088,0.194,0.000:
0000
0000
0000
0000
,
0000
0000
0000
0000
,
0000
0000
0000
0000
,
1000
0000
0101
0000
1000
0001
0100
0000
,
0010
0000
0100
0001
0010
0000
0001
1000
,
0010
0000
1000
0000
0001
0010
0100
0000
,
0010
0000
0001
1000
0200
0000
0000
0000
,
1300
0010
1000
0010
0100
0010
0100
0010
,
0100
0001
0100
0001
0010
0001
0010
0000
,
0010
0000
1000
0001
0010
0100
0000
1000
,
0010
0100
0001
0100
0010
1000
0001
0010
,
0100
0000
1000
0000
0010
0100
0001
0000
,
1000
0000
0001
0100
1000
0000
0010
0000
,
0100
0000
0101
0000
0010
0100
0001
0000
,
1000
0100
1000
0100
0002
0000
0000
0000
,
0103
0010
0100
0010
0100
0001
0100
0001
,
1000
0100
1000
0100
1000
0010
1000
0010
,
0100
0000
1000
0001
0010
1000
0000
0001
,
0100
0010
0000
1000
0100
1000
0001
0001
,
1000
0000
0010
1000
0000
1000
0100
0000
,
0010
0100
0000
0100
0001
0010
0001
1000
,
0010
0000
1000
0000
0001
0010
0100
0000
,
1000
0010
0000
0101
0000
1100
0000
0010
,
0200
0000
0001
0320
0000
2030
0000
3002
,
0000
0013
0100
1000
0000
0001
0001
0000
,
2000
0000
3010
0200
0000
0302
0000
0023
,
0000
0130
1000
0001
0000
0100
0100
0010
,
1100
0010
0100
0002
0000
2003
0000
3200
,
0000
1300
0010
0100
0000
0001
0001
0010
,
0100
0010
0001
1000
0000
0010
1000
0001
,
1000
0001
0010
0100
0000
0100
0010
0001
,
1000
1000
0001
0001
,
0100
0010
0100
0010
0001
1000
0010
0100
,
0001
0000
1100
0000
1000
0001
0100
0000
,
0001
0000
0010
0100
1000
0000
0001
0000
,
1000
0000
0110
0000
0100
0001
0010
0000
,
0001
0000
1000
0001
0200
0000
0000
0000
,
0310
1000
0010
1000
0001
0100
0001
0100
,
0010
0100
0001
0010
0100
0010
0001
0000
,
1000
0000
0100
0010
1000
0001
0000
0001
,
0010
0100
0010
0001
0000
1000
1000
0010
,
0100
0000
1001
0000
0010
0000
0100
0001
,
1000
0010
0100
0000
0001
1000
0010
0000
,
0100
0000
0011
0000
0001
0010
0100
0000
,
1000
0010
1000
0001
0200
0000
0000
0000
,
0301
0010
0001
0010
0001
0100
0001
0100
,
0001
1000
0001
1000
0001
0010
0001
0100
,
0001
0000
1000
0000
0010
1000
0100
0000
,
1000
0100
0010
0100
1000
0010
0100
0001
,
0010
0000
1000
0001
0000
1000
0010
0000
,
0100
0001
0000
0010
0000
0100
0010
0100
,
0010
0000
0001
0000
1000
0010
1000
0000
,
0010
0100
0000
0001
0000
0010
0001
0100
,
0010
0000
1000
0200
0000
1000
0000
0010
,
0000
0001
0001
0301
0000
1000
0100
0000
,
1000
0000
0010
0200
0000
0302
0000
2003
,
0000
0100
3100
0000
0010
0010
0010
0000
,
0100
0000
0001
2000
0000
3002
0000
0203
,
0000
0010
0310
0000
0001
0001
0001
0000
,
1000
0000
0010
0100
0000
0001
0010
0000
,
0001
1000
0100
0000
1000
0010
1000
0001
,
0100
0100
0010
0010
,
1000
0100
0010
0100
0010
0001
0010
0100
,
1000
0000
1001
0000
0100
0010
1000
0000
,
0001
0000
1000
0100
0001
0000
0010
0100
,
1000
0000
0000
0000
;

//---------------dance-single - ----------------
#NOTES:
     dance-single:
     :
     Easy:
     6:
     0.359,0.401,0.132,0.079,0.000:
0000
0000
0000
0000
,
0000
0000
0000
0000
,
0000
0000
0000
0000
,
0010
0010
0100
0001
,
1000
0100
0001
0010
,
1100
0010
0100
0001
,
1000
0000
0001
0000
0010
0000
0100
0100
,
0100
0100
0010
0010
,
1000
0001
1000
0001
,
0010
0010
0100
0100
,
1000
0000
0100
0000
0001
0100
1000
0010
,
0100
0001
1000
0010
,
1000
0100
0001
0100
,
0110
0100
0001
0010
,
1000
0000
0010
0000
1000
0000
0001
0100
,
2000
0100
0010
0001
,
0100
0001
0010
0001
,
3100
0100
1000
0001
,
0010
0100
0001
1000
,
1001
0010
1000
0100
,
0001
0100
1000
0010
,
0101
0010
0100
0001
,
0010
0010
1000
0100
,
0011
0100
1000
0001
,
0010
1000
0010
0100
,
1100
0010
1000
0001
,
0010
0100
1000
0001
,
2010
3001
0010
1000
,
0100
0001
0010
0100
,
0102
0013
0100
0001
,
1000
0100
0010
0100
,
1000
1000
0001
0001
,
1000
0001
1000
0001
1000
0001
1000
0001
,
0100
0010
1000
0100
,
0001
0010
1000
0100
,
1001
0010
0100
0001
,
1000
0100
0010
0100
,
2000
0010
0100
0001
,
0010
0100
0010
3001
,
0100
0100
0001
0001
,
0010
1000
0001
0100
,
0011
0100
0010
1000
,
0001
1000
0010
0100
,
1100
0010
0100
0001
,
1000
0100
0010
1000
,
0002
0010
0100
0010
,
1000
0100
1000
0013
,
1000
1000
0001
0001
,
0010
0100
1000
0010
,
0100
0100
0001
1000
,
0010
0010
1000
0100
,
0001
1000
0010
0100
,
0001
0010
0100
0010
,
2100
0010
0100
0001
,
0010
0001
3010
0100
,
0012
0100
0010
1000
,
0100
0010
0010
0103
,
1002
0100
1000
0100
,
2003
0010
0100
3001
,
1000
1000
0001
0001
,
0010
0100
1000
0010
,
0100
0100
0100
0100
,
0010
0010
0010
0010
0100
0100
0100
0100
,
0110
0010
1000
0001
,
0010
1000
0001
0100
,
0010
0000
0000
0000
;

//---------------dance-single - ----------------
#NOTES:
     dance-single:
     :
     Beginner:
     4:
     0.181,0.201,0.000,0.000,0.000:
0000
0000
0000
0000
,
0000
0000
0000
0000
,
0000
0000
0000
0000
,
1000
0000
0001
0000
,
0010
0000
0100
0000
,
0010
0000
0001
0000
,
1000
0000
0100
0000
,
1000
1000
1000
0000
,
0010
0010
0010
0000
,
0001
0001
0001
0000
,
0100
0100
0100
0000
,
0010
0000
0010
0000
,
1000
0000
0100
0000
,
1000
0000
0001
0000
,
0010
0000
0100
0000
,
0010
0010
0010
0000
,
0001
0001
0001
0000
,
0100
0100
0100
0000
,
1000
1000
1000
0000
,
0010
0000
0010
0000
,
0100
0000
0100
0000
,
1000
0000
0001
0000
,
1000
0000
0001
0000
,
1000
0000
0100
0000
,
1000
0000
0010
0000
,
0001
0000
0010
0000
,
0001
0000
0100
0000
,
0010
0000
1000
0000
,
0100
0000
1000
0000
,
0001
0000
0001
0000
,
1000
0000
0010
0000
,
1000
0000
0010
0000
,
0100
0100
0100
0000
,
0010
0000
1000
0000
,
0001
0000
0010
0000
,
0100
0000
0010
0000
,
0001
0000
1000
0000
,
0010
0010
0010
0000
,
0100
0100
0100
0000
,
1000
1000
1000
0000
,
0001
0001
0001
0000
,
0010
0000
1000
0000
,
0001
0000
0010
0000
,
0001
0000
0100
0000
,
0010
0000
1000
0000
,
0001
0001
0001
0000
,
1000
1000
1000
0000
,
0010
0000
1000
0000
,
0100
0000
0001
0000
,
0010
0000
0001
0000
,
0010
0000
0010
0000
,
0100
0000
1000
0000
,
0100
0000
0100
0000
,
1000
0000
0100
0000
,
0001
0001
0001
0000
,
1000
0000
0010
0000
,
0100
0100
0100
0000
,
0010
0000
1000
0000
,
0001
0000
0010
0000
,
0100
0000
0100
0000
,
1000
0000
0001
0000
,
0010
0000
0100
0000
,
0010
0010
0010
0010
,
0010
0000
1000
0000
,
0100
0000
1000
0000
,
0001
0000
0000
0000
;
