#TITLE:East West Wobble;
#SUBTITLE:;
#ARTIST:SHK;
#TITLETRANSLIT:;
#SUBTITLETRANSLIT:;
#ARTISTTRANSLIT:;
#CREDIT:;
#BANNER:;
#BACKGROUND:;
#LYRICSPATH:;
#CDTITLE:;
#MUSIC:East West Wobble.mp3;
#OFFSET:-0.200;
#SAMPLESTART:8.340;
#SAMPLELENGTH:12.000;
#SELECTABLE:YES;
#BPMS:0.000=140.100,212.000=70.050;
#STOPS:;
#BGCHANGES:;

//---------------dance-single - ----------------
#NOTES:
     dance-single:
     :
     Challenge:
     12:
     0.897,0.873,0.568,0.200,0.694: // measure 1
0000
0000
0000
0000
,  // measure 2
1001
0000
0000
0001
0000
0000
0001
0000
0110
0000
0000
0100
0000
0000
0100
0000
,  // measure 3
1001
0000
0000
1000
0000
0000
1000
0000
0110
0000
0010
0000
0201
0000
0000
0000
,  // measure 4
0310
0000
0000
0001
0010
0000
0011
0000
1100
0000
0000
0100
1000
0000
1100
0000
,  // measure 5
1001
0000
0000
0001
1000
0000
1001
0000
0011
0000
0100
0000
1001
0000
0100
0000
,  // measure 6
0110
0000
0000
0001
0010
0000
0100
0000
0010
0000
1000
0000
0010
0000
0100
0000
,  // measure 7
0001
0000
0100
0000
1000
0000
0100
0000
1001
0000
1001
0000
1001
0000
0010
0100
,  // measure 8
1000
0000
0000
0001
0100
0000
0010
0000
1000
0000
0100
0000
0010
0000
0001
0000
,  // measure 9
0010
0000
0100
0000
1000
0000
0001
0000
0101
0000
0101
0000
0101
0000
1000
0100
,  // measure 10
0001
0000
0000
0010
0001
0000
0100
0000
0001
0000
0010
0000
0100
0000
1000
0000
,  // measure 11
0010
0000
0100
0000
0001
0100
1000
0100
0001
0000
0010
0000
0100
0000
1000
0100
,  // measure 12
0001
0000
0000
0001
0010
0000
0100
0000
0001
0000
1000
0000
0100
0000
0010
0001
,  // measure 13
1000
0000
0100
0000
0001
0010
0100
1000
0010
0100
0010
1000
0001
0010
0001
0010
,  // measure 14
2001
0000
3010
0100
0002
0010
0100
1003
,  // measure 15
0010
0000
0100
0000
0001
0000
1000
0000
0110
0000
0001
0100
0010
1000
0010
1000
,  // measure 16
0201
0000
0310
0001
2000
0100
0010
3001
,  // measure 17
0010
0000
0100
0000
0001
0000
1000
0000
0101
0000
0010
0001
0100
1000
0100
1000
,  // measure 18
0210
0000
0301
0010
0200
0010
1000
0301
,  // measure 19
0010
0000
0100
0000
1000
0000
0001
0000
1001
0000
0010
0100
0001
0010
0001
0010
,  // measure 20
2100
0000
3010
0100
0002
0100
0010
1003
,  // measure 21
0100
0000
0001
0000
0010
0000
0100
0000
0011
0000
0100
1000
0010
0100
0001
0010
,  // measure 22
0100
1000
0100
1000
0010
0000
0100
0000
0001
0000
0010
0000
0100
0000
1000
0000
,  // measure 23
0001
0010
0001
0010
0100
0010
0100
0010
1000
0100
1000
0100
0010
0100
0010
0100
,  // measure 24
0001
0100
0001
0010
0100
1000
0001
1000
,  // measure 25
0010
0100
0001
0010
0100
0010
0100
1000
0001
0000
0100
0000
0010
0000
1000
0000
,  // measure 26
0010
0100
0001
0010
0100
0000
0001
0000
0010
0000
0100
0000
0001
0000
1000
0000
,  // measure 27
0010
0100
0010
0100
0001
0100
0001
0100
1000
0010
1000
0010
0100
0010
0100
0010
,  // measure 28
1000
0100
0001
0100
1000
0010
0001
0010
,  // measure 29
1000
0100
0010
0100
0001
0100
0010
0001
0100
0000
0110
0000
0010
0100
0010
0100
,  // measure 30
1001
0000
0100
0010
0001
0000
1001
0000
1001
0000
0010
0100
1000
0000
1001
0000
,  // measure 31
1010
0000
0000
0000
0000
0000
0100
0000
0000
0001
0000
0000
0010
0000
0000
0000
0000
0000
1010
0000
0000
0000
0000
0000
1001
0000
0000
0000
0100
0000
0000
0000
0010
0000
0000
0000
0001
0000
0000
0000
0010
0000
0000
0000
0100
0000
0000
0000
,  // measure 32
1001
0000
0010
0100
0001
0000
1001
0000
0011
0000
0010
0100
1000
0000
1100
0000
,  // measure 33
1010
0000
1000
0010
0001
0000
0011
0000
0100
0010
1000
0100
1001
0000
0000
0000
,  // measure 34
1000
0100
0010
0100
1000
0000
0001
0000
0100
0000
0010
0000
0100
0000
0001
0000
,  // measure 35
0001
0010
0100
0010
0001
0100
0010
0100
0001
1000
0100
1000
0001
0100
1000
0100
,  // measure 36
0001
1000
0100
0010
0100
0010
0001
0010
,  // measure 37
0001
1000
0010
0100
0001
0010
0100
1000
0001
0000
1001
0000
0100
0000
0110
0000
,  // measure 38
2001
0000
3010
0100
0002
0010
0100
1003
,  // measure 39
0010
0000
0100
0000
0001
0000
1000
0000
0110
0000
0001
0100
0010
1000
0010
1000
,  // measure 40
0201
0000
0310
0001
2000
0100
0010
3001
,  // measure 41
0010
0000
0100
0000
0001
0000
1000
0000
0101
0000
0010
0001
0100
1000
0100
1000
,  // measure 42
0210
0000
0301
0010
0200
0010
1000
0301
,  // measure 43
0010
0000
0100
0000
1000
0000
0001
0000
1001
0000
0010
0100
0001
0010
0001
0010
,  // measure 44
2100
0000
3010
0100
0002
0100
0010
1003
,  // measure 45
0100
0000
0001
0000
0010
0000
0100
0000
0011
0000
0100
1000
0010
0100
0001
0010
,  // measure 46
0100
1000
0100
1000
0010
0000
0100
0000
0001
0000
0010
0000
0100
0000
1000
0000
,  // measure 47
1000
0100
0010
0001
0100
0010
0001
0010
0100
0001
0010
0100
1000
0010
0100
0001
,  // measure 48
1000
0100
0001
0100
0010
0001
0100
0010
,  // measure 49
1000
0100
0010
0100
1000
0001
0010
0100
1000
0000
0001
0000
1000
0000
0001
0000
,  // measure 50
0010
0100
1000
0010
0100
0000
0001
0000
0010
0000
0100
0000
1000
0000
0001
0000
,  // measure 51
0001
0100
0010
0001
0010
1000
0100
0001
0100
0010
0001
1000
0100
1000
0001
0100
,  // measure 52
1000
0100
0001
0010
0100
0010
0001
1000
,  // measure 53
0001
0100
0010
1000
0100
0001
0100
1000
0001
0000
1001
0000
0010
0100
0010
0100
,  // measure 54
2002
0000
3003
0000
;
