#TITLE:Drown;
#SUBTITLE:;
#ARTIST:Bring Me The Horizon;
#TITLETRANSLIT:;
#SUBTITLETRANSLIT:;
#ARTISTTRANSLIT:;
#GENRE:;
#CREDIT:;
#BANNER:drown.png;
#BACKGROUND:drown bg.png;
#LYRICSPATH:;
#CDTITLE:;
#MUSIC:drown.mp3;
#OFFSET:0.079984;
#SAMPLESTART:34.720001;
#SAMPLELENGTH:12.000000;
#SELECTABLE:YES;
#BPMS:0.000000=143.009995
,35.000000=71.504997
,51.000000=143.009995
,113.000000=71.504997
,114.000000=143.009995
,234.000000=71.504997
,238.000000=143.009995
;
#STOPS:
;
#BGCHANGES:4.000=Drown.avi=1.000=1=0=1===CrossFade==,
334.000=drown bg.png=1.000=0=0=1=====,
99999=-nosongbg-=1.000=0=0=0 // don't automatically add -songbackground-
;
#KEYSOUNDS:;
#ATTACKS:;

//---------------dance-single - ----------------
#NOTES:
     dance-single:
     :
     Challenge:
     11:
     0.799273,0.962964,0.395400,0.415170,0.741375,849.000000,789.000000,60.000000,63.000000,0.000000,3.000000,0.799273,0.962964,0.395400,0.415170,0.741375,849.000000,789.000000,60.000000,63.000000,0.000000,3.000000:
// measure 0
0000
0000
0000
0000
0000
0000
1001
0001
,  // measure 1
1000
0001
1001
0001
1001
1000
1001
0001
,  // measure 2
1000
0001
1001
0001
1001
1000
1001
0001
,  // measure 3
1000
0001
1001
0001
1001
1000
1001
0001
,  // measure 4
1000
0001
1001
0001
1001
1000
1001
0001
,  // measure 5
0100
0001
0101
0001
0101
0100
0101
0001
,  // measure 6
0100
0001
0101
0001
0101
0100
0101
0001
,  // measure 7
0100
0000
0001
0000
0101
0000
0001
0000
0101
0000
0100
0000
0001
0010
0100
1000
,  // measure 8
0100
1000
0100
1000
0001
0010
0100
1000
0100
1000
0100
1000
0010
0000
0000
0000
,  // measure 9
0000
0000
0000
0000
0000
0000
0000
0000
0000
0000
0000
0000
0100
0001
0000
0001
,  // measure 10
0200
0000
0000
0000
0000
0000
0000
0000
0000
0000
0000
0000
0000
0000
0000
0300
0200
0000
0000
0000
0000
0000
0000
0000
0000
0000
0000
0000
0000
0000
0000
0000
0301
0000
0000
0000
0100
0000
0000
0000
0001
0000
0000
0000
0000
0000
0000
0000
0100
0000
0000
0000
0001
0000
0000
0000
0000
0000
0000
0000
0001
0000
0000
0000
,  // measure 11
0200
0000
0000
0000
0000
0000
0000
0000
0000
0000
0000
0000
0000
0000
0000
0000
0000
0000
0000
0000
0000
0000
0000
0000
0000
0000
0000
0000
0000
0000
0000
0000
0000
0000
0000
0000
0000
0000
0000
0000
0000
0000
0000
0000
0000
0000
0000
0300
0100
0000
0000
0000
0001
0000
0000
0000
0000
0000
0000
0000
0001
0000
0000
0000
,  // measure 12
0200
0000
0000
0000
0000
0000
0000
0000
0000
0000
0000
0000
0000
0000
0000
0000
0000
0000
0000
0000
0000
0000
0000
0000
0000
0000
0000
0300
0000
0000
0000
0000
1000
0000
0000
0000
0100
0000
0000
0000
1000
0000
0000
0000
0000
0000
0000
0000
0100
0000
0000
0000
0000
0000
0000
0000
0001
0000
0000
0000
0100
0000
0000
0000
,  // measure 13
0001
0000
0010
0000
0100
1000
0100
0000
0010
0000
0001
0100
0001
0000
0010
0000
,  // measure 14
0100
1000
0100
0000
0010
0001
0010
0000
0100
1000
0100
0000
0010
0000
0001
0010
,  // measure 15
0001
0000
0100
0000
0010
0100
0010
0000
1000
0000
0001
1000
0001
0000
0010
0000
,  // measure 16
0001
0010
0001
0000
1000
0100
1000
0000
0100
0010
0100
0000
1000
0000
1000
0100
,  // measure 17
0010
0000
0001
0000
0001
0100
0010
0000
1000
0000
1000
0100
0010
0000
0001
0000
,  // measure 18
0001
0100
0010
0000
1000
0100
0010
0000
0001
0100
0010
0000
1000
0000
1000
0001
,  // measure 19
1000
0000
0001
0000
0001
1000
0001
0000
1000
0000
1000
0001
1000
0000
0001
0000
,  // measure 20
0001
1000
0001
0000
1000
0100
0010
0001
0100
0010
1000
0100
1000
0100
1000
0100
,  // measure 21
1000
0100
1000
0100
0010
0001
0100
0001
0010
0100
1000
0100
1000
0100
1000
0100
,  // measure 22
1000
0100
1000
0100
0010
0001
0100
0001
0010
0100
1000
0001
1000
0001
1000
0100
,  // measure 23
1000
0100
1000
0100
0010
0001
0100
0001
0010
0100
1000
0100
1000
0100
1000
0100
,  // measure 24
1000
0100
1000
0100
0010
0100
1000
0001
1000
0100
1000
0100
1000
0100
1000
0100
,  // measure 25
1000
0100
1000
0010
1000
0100
0010
0100
1000
0100
1000
0100
1000
0100
0010
0100
,  // measure 26
0010
0001
0010
0001
0010
0100
1000
0010
1000
0100
1000
0001
1000
0100
0010
0100
,  // measure 27
1000
0010
1000
0100
0010
0100
1000
0001
1000
0100
1000
0000
1100
0000
0110
0000
,  // measure 28
0011
0000
0110
0000
1100
0100
1100
0100
1100
0000
1000
0000
0010
0000
0100
0000
,  // measure 29
0001
0010
1000
0010
0001
1000
0010
0100
,  // measure 30
0001
0010
1000
0010
0001
0001
0100
0010
,  // measure 31
1000
0100
0001
0100
1000
0001
0100
0010
,  // measure 32
1000
0100
0001
0100
1000
0010
0001
1000
,  // measure 33
0100
0001
0010
0001
0100
0010
0001
1000
,  // measure 34
0100
0001
0010
0001
0001
0100
1000
0001
,  // measure 35
0020
1000
1000
1000
2030
0001
0001
0001
,  // measure 36
3002
0000
0000
0000
0100
0000
0000
0000
0100
0000
0000
0000
0100
0000
0000
0003
0202
0000
0000
0000
0000
0000
0000
0000
0000
0000
0000
0000
0000
0000
0000
0000
,  // measure 37
0323
0030
0000
2000
3000
0000
0200
0300
0000
0020
0030
0000
0002
0003
0000
0020
0030
0000
0200
0300
0000
2000
3000
0000
,  // measure 38
1010
0000
0000
2000
3000
0000
0200
0300
0000
0020
0030
0000
0002
0003
0000
0020
0030
0000
0200
0300
0000
2000
3000
0000
,  // measure 39
1001
0000
0000
2000
3000
0000
0200
0300
0000
0020
0030
0000
0002
0003
0000
0020
0030
0000
0200
0300
0000
2000
3000
0000
,  // measure 40
1100
0000
0000
2000
3000
0000
0020
0030
0000
0200
0300
0000
0002
0003
0000
0200
0300
0000
0020
0030
0000
2000
3000
0000
,  // measure 41
1010
0000
0000
2000
3000
0000
0020
0030
0000
0200
0300
0000
0002
0003
0000
0200
0300
0000
0020
0030
0000
2000
3000
0000
,  // measure 42
1001
0000
0000
2000
3000
0000
0020
0030
0000
0200
0300
0000
0002
0003
0000
0200
0300
0000
0020
0030
0000
2000
3000
0000
,  // measure 43
2200
0000
0000
0000
0000
0000
0000
0000
0000
0000
0000
3300
0022
0000
0000
0000
0000
0000
0000
0000
0000
0000
0000
0033
,  // measure 44
0202
0000
0000
0000
0000
0000
0000
0000
0000
0000
0000
0000
0000
0000
0000
0000
0000
0000
0000
0000
0000
0000
0303
0000
1010
0000
0000
0000
0000
0000
0100
0000
0000
1000
0000
0000
0100
0000
0000
1000
0000
0000
0100
0000
0000
1000
0000
0000
,  // measure 45
0100
0010
0001
0100
0001
0010
0100
1000
0100
1000
0001
1000
0001
1000
0100
1000
,  // measure 46
0100
0010
0001
0100
0001
0010
0100
1000
0001
1000
0100
1000
0100
1000
0100
1000
,  // measure 47
0100
0010
0001
0100
0001
0010
0100
1000
0100
1000
0001
1000
0001
1000
0100
1000
,  // measure 48
0100
0010
0100
1000
0001
1000
0100
1000
0010
1000
0100
1000
0100
1000
0100
1000
,  // measure 49
0010
1000
0100
0010
0100
1000
0100
1000
0100
1000
0001
1000
0001
1000
0100
1000
,  // measure 50
0001
1000
0100
0010
0100
1000
0100
1000
0001
1000
0100
1000
0100
1000
0100
1000
,  // measure 51
0001
1000
0001
1000
0100
1000
0100
1000
0100
1000
0010
1000
0001
1000
0100
1000
,  // measure 52
0001
1000
0100
0010
0001
1000
0100
1000
0001
1000
0100
0010
0100
1000
0001
1000
,  // measure 53
0001
1000
0100
0010
0100
1000
0100
1000
0100
1000
0001
1000
0001
1000
0100
1000
,  // measure 54
0001
1000
0100
0010
0100
1000
0100
1000
0001
1000
0100
0010
0100
1000
0001
1000
,  // measure 55
0100
1000
0100
0010
0100
1000
0100
1000
0100
1000
0001
1000
0001
1000
0100
1000
,  // measure 56
0001
1000
0100
0010
0100
1000
0100
1000
0001
1000
0100
0010
0100
1000
0001
1000
,  // measure 57
0001
1000
0100
0010
0100
1000
0001
1000
0001
1000
0100
0010
0100
1000
0100
1000
,  // measure 58
0100
0010
0001
0010
0100
1000
0100
0010
0002
0000
0000
0000
0000
0000
0000
0000
,  // measure 59
0000
0000
0000
0000
0000
0003
0000
0000
1001
0000
0001
0000
1000
0000
0001
0000
,  // measure 60
1001
0001
1001
1000
1001
0001
1000
0001
,  // measure 61
1001
0001
1001
1000
1001
0001
1000
0001
,  // measure 62
1001
0001
1001
1000
1001
0001
1000
0001
,  // measure 63
1001
0001
1001
1000
1001
0001
0100
0001
,  // measure 64
0101
0001
0101
0100
0101
0001
0100
0001
,  // measure 65
0101
0001
0101
0100
0101
0001
0100
0001
,  // measure 66
0101
0000
0001
0000
0101
0000
0100
0000
0001
0010
0100
1000
0100
1000
0100
0010
,  // measure 67
0001
0010
0100
1000
0100
0010
0001
0000
1001
0000
1000
0000
0010
0000
0100
0000
,  // measure 68
0001
0010
1000
0010
0001
1000
0010
0100
,  // measure 69
0001
0010
1000
0010
0001
0001
0100
0010
,  // measure 70
1000
0100
0001
0100
1000
0001
0100
0010
,  // measure 71
1000
0100
0001
0100
1000
0010
0001
1000
,  // measure 72
0100
0001
0010
0001
0100
0010
0001
1000
,  // measure 73
0100
0001
0010
0001
1000
0010
0100
0001
,  // measure 74
0010
0000
1000
0000
0010
0000
0001
0000
1000
0100
0010
0100
1000
0001
0100
0010
,  // measure 75
1000
0100
0010
0001
0010
0100
1000
0001
2000
0000
0000
0000
0000
0000
0000
0000
,  // measure 76
0000
0000
0000
0000
,  // measure 77
0000
0000
0000
0000
,  // measure 78
0000
0000
0000
0000
,  // measure 79
0000
0000
0000
0000
,  // measure 80
0000
0000
0000
0000
,  // measure 81
0000
0000
0000
0000
,  // measure 82
0200
0000
0320
0000
,  // measure 83
0032
0000
0000
0000
0000
0000
0000
0000
0000
0000
0000
0000
0000
0000
0000
0003
3001
0000
0000
0000
0000
0000
0000
0000
0000
0000
0000
0000
0000
0000
0000
0000
;

//---------------dance-single - ----------------
#NOTES:
     dance-single:
     :
     Easy:
     3:
     0.194876,0.275133,0.118620,0.039540,0.000000,207.000000,189.000000,18.000000,6.000000,0.000000,0.000000,0.194876,0.275133,0.118620,0.039540,0.000000,207.000000,189.000000,18.000000,6.000000,0.000000,0.000000:
0000
0000
0000
1000
,
0000
0100
0000
0001
,
0000
0100
0000
1000
,
0000
0010
0000
0001
,
0000
0010
0000
1000
,
0000
0100
0000
0001
,
0000
0100
0000
1000
,
0000
0010
0000
0001
,
0000
0010
0000
2000
,
0000
0000
0000
0001
,
0000
0000
0000
0001
,
0000
0000
0000
0001
,
0000
0000
0000
0000
0000
0000
0001
3000
,
0001
0000
0000
1000
,
1000
0000
0000
0001
,
0001
0000
0000
1000
,
1000
0000
0000
0010
,
0010
0010
0000
0100
,
0100
0100
0000
1000
,
1000
1000
0000
0001
,
0001
0001
0000
1001
,
0000
1000
0000
0010
,
1000
0100
0000
0010
,
0001
0100
0000
0010
,
1000
0100
0000
1001
,
0000
1001
0000
1001
,
0000
1001
0000
1000
,
0100
0010
0001
0010
,
0100
1000
1000
0000
,
1000
0000
1000
0000
,
1000
0000
0001
0000
,
0001
0000
0001
0000
,
0001
0000
1000
0000
,
1000
0000
1000
0000
,
1000
0000
0010
0100
,
0001
0000
0010
0100
,
1000
0000
0001
0100
,
0001
0000
1000
0100
,
1000
0000
0001
0100
,
0001
0000
1000
0100
,
1000
0000
0001
0100
,
0001
0000
1000
0100
,
1000
0000
2000
0000
,
3200
0000
2300
0000
,
3002
0000
0203
0000
,
0000
0000
0000
0000
,
0010
0000
0000
0000
,
0010
0000
0000
0000
,
0001
0000
0000
0000
,
0010
0000
0000
0000
,
0001
0000
0000
0000
,
0010
0000
0001
0000
,
0010
0000
0001
0000
,
0010
0000
0001
0000
,
0010
0000
0001
0000
,
0010
0000
0001
0000
,
0010
0000
0001
0010
,
0001
0010
0001
0010
,
0001
0010
0301
0000
,
0000
0000
1001
0000
,
1001
0000
1001
0000
,
0010
1000
0100
0000
,
1001
0000
1001
0000
,
0010
0001
0100
0000
,
1001
0000
1001
0000
,
0010
0100
0010
0000
,
0110
0000
1001
0000
,
0110
0000
1001
0000
,
1000
0100
1000
0100
,
1000
0100
0010
0100
,
0010
0100
0010
0100
,
0010
0100
0010
0001
,
0010
0001
0010
0001
,
0010
0001
1000
0001
,
1000
0001
1000
0001
,
1000
0001
1001
0000
,
0000
0000
0100
0000
,
0000
0000
0010
0000
,
0000
0000
0001
0000
,
0000
0000
1000
0000
,
0000
0000
0010
0000
,
0000
0000
0100
0000
,
0001
0000
1000
0000
,
0100
0000
1001
0000
;

//---------------dance-single - ----------------
#NOTES:
     dance-single:
     :
     Medium:
     6:
     0.310672,0.385186,0.059310,0.065900,0.006590,330.000000,321.000000,9.000000,10.000000,0.000000,0.000000,0.310672,0.385186,0.059310,0.065900,0.006590,330.000000,321.000000,9.000000,10.000000,0.000000,0.000000:
0000
0000
0000
0001
,
0000
1000
0000
0001
,
1000
0001
0000
0010
,
0100
0010
0000
1000
,
0001
1000
0000
0001
,
0100
0001
0000
1000
,
0100
1000
0000
0001
,
0100
0001
0000
1000
,
0100
0010
0001
1000
,
0000
0000
0000
0001
,
1000
0000
0010
1000
,
0001
0000
0000
0100
,
1000
0000
0110
0001
,
1000
0001
1000
0001
,
1000
0000
0001
0000
1000
0000
0010
0100
,
0010
0000
1000
0001
1000
0000
0100
0010
,
0100
0000
1000
0001
1000
0000
0010
0100
,
0010
0000
1000
0001
1000
0000
0100
0010
,
0100
0000
1000
0001
1000
0000
0010
0100
,
0010
0000
1000
0001
1000
0000
0100
0010
,
0100
0000
1000
0001
1000
0000
1000
0000
,
0000
0000
0001
1000
0000
0000
0000
0000
,
0000
0000
0001
1000
0000
0000
0000
0000
,
0000
0000
0001
1000
0000
0000
0000
0000
,
0000
0001
1000
0010
,
1000
0100
0010
0001
,
0010
0000
0100
1000
0100
0000
0010
0001
,
0010
0000
0100
1000
0100
0000
1000
0000
,
0001
0000
0000
0000
1000
0100
1000
0100
1000
0000
0000
0000
1000
0000
0000
0000
,
1100
0000
0001
0100
,
0010
1000
0001
1000
,
0001
1000
0001
0000
1000
0001
1000
0000
,
0001
1000
0001
0000
1000
0000
0010
0000
,
0100
0001
0010
0100
,
1000
0000
0010
0000
0100
0001
0100
0000
,
0010
1000
0010
0000
0100
0001
0100
0000
,
0010
1000
0010
0000
2000
0000
0000
3000
,
0002
0000
0000
0003
1000
0000
0001
0000
,
0100
0010
1000
0000
,
1100
0000
1000
0010
,
0100
0001
1000
0000
,
1001
0000
0000
0000
0010
1000
0010
0000
,
0100
0001
0100
0000
0010
0000
0000
0000
,
1000
0000
0001
0000
,
1000
0000
1001
0001
,
0010
1000
0010
0001
,
1000
0010
0001
0010
,
1000
0001
0010
1000
,
0010
0001
1000
0010
,
0001
0010
1000
0001
,
0010
0100
1000
0010
,
0100
0001
1000
0100
,
0010
0100
0010
0000
0001
0000
1000
0000
,
0010
0100
0010
0000
1000
0001
1000
0000
,
0100
0010
0001
1000
,
0010
1000
0010
0000
1000
0000
0100
0000
,
0010
0001
0010
0000
0100
0000
1000
0000
,
0010
1000
0010
0000
0100
0000
0001
0000
,
1000
0001
1001
0000
,
0200
0000
0000
0300
1001
0000
0010
0000
,
1000
0100
1000
0000
0001
0000
0100
0000
,
0010
0100
0010
0000
1000
0000
0001
0000
,
0100
0001
0100
0000
0010
0000
1000
0000
,
0100
1000
0100
0000
0010
0000
0001
0000
,
0010
0001
0010
0000
0100
0000
1000
0000
,
0010
1000
0010
0000
1000
0000
0100
0000
,
0010
0001
0010
0000
0100
1000
0001
0010
,
0100
1000
0001
0000
1000
0000
0010
0000
,
0100
0001
2000
3200
,
0320
0032
0023
0000
,
0000
0000
0230
0000
,
0000
0000
1300
1000
,
0001
0000
0001
0000
1000
0010
0100
0000
,
0001
0000
1000
0000
0010
1000
0001
0000
,
1000
0000
0100
0000
0010
0001
0010
0000
,
0100
1000
0100
0000
1001
0000
0000
0000
,
0000
0000
0000
0000
,
0000
0000
0110
0000
,
1000
0000
0001
0000
,
1000
0000
0001
0000
,
1000
0000
0001
1000
,
0001
1000
0001
0000
,
1000
0000
0001
0000
,
2000
0000
3001
0000
;

//---------------dance-single - ----------------
#NOTES:
     dance-single:
     :
     Hard:
     8:
     0.448120,0.522752,0.177930,0.046130,0.000000,476.000000,449.000000,27.000000,7.000000,0.000000,0.000000,0.448120,0.522752,0.177930,0.046130,0.000000,476.000000,449.000000,27.000000,7.000000,0.000000,0.000000:
0000
0000
0000
1001
,
1000
0100
1000
0000
0001
0100
0001
0000
,
1000
0010
1000
0000
0001
0010
0001
0000
,
1000
0100
1000
0000
0001
0100
0001
0000
,
1000
0100
1000
0000
0010
1000
0001
0010
,
0100
1000
0001
0100
0010
1000
0001
0010
,
1000
0010
0001
1000
0010
0100
0001
0100
,
0010
0100
0001
0100
0010
1000
0001
0010
,
0100
0010
0001
1000
0010
0100
0002
0000
,
0000
0000
0000
1000
,
0100
0000
0010
1000
,
0100
0000
0000
0010
,
0100
0000
0000
0000
1000
0003
1001
0000
,
0010
0000
1000
0100
0010
0001
1000
0000
,
0100
0000
1000
0010
0100
0001
0010
0000
,
0100
0000
0001
0010
1000
0010
0001
0000
,
1000
0000
1000
0010
0001
0010
1000
0000
,
0100
0000
0010
0000
0001
0000
1000
0010
,
1000
0000
0001
0100
0001
0000
1010
0000
,
0101
0000
0011
0000
1100
0000
1000
0100
,
1000
0100
1000
0100
1000
0000
0010
0000
,
0100
0000
0001
0000
0010
0000
0100
1000
,
0100
0000
0001
0100
0001
0000
0010
0000
,
0100
0000
1000
0000
0010
0000
1000
0010
,
1000
0000
0001
1000
0001
1000
0100
0010
,
0001
0010
0100
0010
0100
0010
0100
1000
,
0100
1000
0010
1000
0010
1000
0001
0100
,
0010
0100
0001
1000
0100
0010
0001
1000
,
0100
0000
1100
1100
1100
0000
1000
0010
,
1000
0001
1000
0100
0010
0001
0010
0100
,
1000
0100
0010
0001
0010
0100
0010
0100
,
0010
0100
0010
0100
1000
0001
1000
0001
,
0100
0010
0100
0001
2000
0000
3002
0000
,
2003
0000
3001
0000
1000
0010
1000
0010
,
1000
0100
0010
0001
0100
0000
0101
0000
,
1010
0000
0010
1000
0100
0000
1001
0000
,
1010
0000
0010
0100
0001
0000
0010
0000
,
0100
0000
1000
0000
0010
1000
0001
0000
,
0001
0010
0100
0000
1000
0000
1000
0000
,
0001
0001
1001
0110
,
1001
0110
0001
0010
,
1000
0000
0010
0000
0001
0010
1000
0010
,
0001
0010
1000
0000
0010
0000
0001
0000
,
0100
0010
2000
0000
,
3002
0000
0000
0003
1000
0000
0100
0000
,
1000
0000
0010
0000
1000
0100
1000
0010
,
1000
0001
0100
0010
,
0100
0000
0001
0000
1000
0001
0010
0100
,
0010
1000
0010
0100
0010
0000
0001
0000
,
1000
0000
0010
0000
0010
0100
0001
0000
,
0010
0100
1000
0000
0010
0000
1000
0000
,
0001
0000
0010
0000
0100
1000
0010
0000
,
0010
0100
0001
0000
0010
0100
0010
0100
,
0010
0001
0010
0001
0010
0001
0010
0001
,
1000
0001
1000
0001
1000
0100
1000
0100
,
1000
0010
1000
0010
1000
0010
1000
0010
,
1000
0001
1000
0001
1000
0100
0010
0001
,
1000
0010
0100
0001
0010
0100
1000
0010
,
1000
0001
1000
0100
0020
0000
0000
0000
,
0000
0000
0001
0031
1001
0000
0001
0000
,
1000
0010
1000
0010
1000
0000
0001
0000
,
0001
0100
0001
0100
0001
0000
0010
0000
,
0010
0001
0010
0001
0010
0000
0100
0000
,
0100
1000
0100
1000
0100
0000
0100
0000
,
0000
0000
0100
0100
,
1000
0010
1000
0001
0100
0000
0100
0000
,
0001
0100
0001
0100
0010
0000
0010
0000
,
0010
1000
0100
0010
0001
0000
0001
0000
,
0001
0010
0100
1000
0010
0000
1000
0000
,
1000
0010
1000
0010
1000
0000
0001
0000
,
1001
0001
0001
0001
,
1001
0000
0001
1000
0001
0000
1000
0000
,
1000
0010
1000
0010
1000
0000
0100
0000
,
0010
0001
0010
0100
1000
0000
1000
0000
,
0010
0000
0100
0000
0001
0010
0100
1000
,
0100
0010
0001
0000
0010
0000
0000
0000
,
0000
0000
1001
0001
,
1000
0001
1001
0000
,
0000
0000
0010
0100
,
0010
1000
0001
0000
,
0000
0000
0001
0010
,
0100
1000
1010
0000
,
0101
0000
1001
0000
,
1100
0000
0011
0000
;
