#VERSION:0.83;
#TITLE:Din Don Dan DvF Ext Edit;
#SUBTITLE:;
#ARTIST:Ryu feat Mayumi Morinaga;
#TITLETRANSLIT:;
#SUBTITLETRANSLIT:;
#ARTISTTRANSLIT:;
#GENRE:;
#ORIGIN:;
#CREDIT:;
#BANNER:DinDonDanDvFEdit - banner.png;
#BACKGROUND:DinDonDanDvFEdit - BG.png;
#PREVIEWVID:;
#JACKET:DinDonDanDvFEdit - jacket.png;
#CDIMAGE:;
#DISCIMAGE:;
#LYRICSPATH:;
#CDTITLE:;
#MUSIC:DinDonDanDvFEdit.mp3;
#OFFSET:0.000000;
#SAMPLESTART:100.006027;
#SAMPLELENGTH:12.000000;
#SELECTABLE:YES;
#BPMS:0.000=140.000;
#STOPS:;
#DELAYS:;
#WARPS:;
#TIMESIGNATURES:0.000=4=4;
#TICKCOUNTS:0.000=4;
#COMBOS:0.000=1;
#SPEEDS:0.000=1.000=0.000=0;
#SCROLLS:0.000=1.000;
#FAKES:;
#LABELS:0.000=Song Start;
#BGCHANGES:0.000=DinDonDanDvFEdit.mp4=1.000=0=0=0=StretchNoLoop====,
99999=-nosongbg-=1.000=0=0=0 // don't automatically add -songbackground-
;
#KEYSOUNDS:;
#ATTACKS:
;

//---------------dance-single - ----------------
#NOTEDATA:;
#CHARTNAME:;
#STEPSTYPE:dance-single;
#DESCRIPTION:;
#CHARTSTYLE:;
#DIFFICULTY:Beginner;
#METER:5;
#RADARVALUES:0.222291,0.365833,0.312153,0.042566,0.000000,329.000000,263.000000,66.000000,9.000000,0.000000,0.000000,0.000000,0.000000,0.000000,0.222291,0.365833,0.312153,0.042566,0.000000,329.000000,263.000000,66.000000,9.000000,0.000000,0.000000,0.000000,0.000000,0.000000;
#CREDIT:;
#NOTES:
0000
0000
0000
0000
,
0000
0000
1001
0000
,
0000
0000
0000
0000
,
0000
0000
0110
0000
,
0000
0000
0000
0000
,
0000
0000
1010
0000
,
0000
0000
0000
0000
,
0000
0000
0010
0000
,
0000
0000
0000
0000
,
0000
0000
0000
0000
,
0000
0000
1001
0000
,
0110
0000
1001
0000
,
0010
0000
1001
0000
,
0110
0000
0000
1000
,
1000
0000
0110
0000
,
1001
0000
0110
0000
,
0001
0001
0000
1000
,
0001
1000
0000
0010
,
0100
0000
0000
0000
,
0000
0000
0001
0001
,
1000
1000
0000
0000
,
0001
0001
0000
1000
,
1000
0000
0010
0010
,
0000
0000
0100
0100
,
0010
0010
0000
0000
,
1000
1000
0000
0001
,
0001
0000
0000
0000
,
1001
0000
0000
0000
,
0010
0100
1000
0000
,
0000
0000
0001
0010
,
0000
0000
1000
0100
,
0010
0000
0000
0000
,
0001
0010
0001
0000
,
0000
1000
0100
0000
,
0000
0000
1000
0100
,
1000
0010
0001
0001
,
0000
0000
1000
0100
,
1000
0001
0001
0010
,
0000
0000
0010
0100
,
0100
0010
0100
0000
,
0001
0000
1000
1000
,
0001
0000
0020
0030
,
0200
0000
0300
0000
,
0000
0000
1001
0000
,
0110
0000
0101
0101
,
0101
0000
0110
0000
,
1001
0000
0010
0100
,
0010
0000
1001
0000
,
0110
0000
1100
1100
,
0011
0011
0000
0000
,
0110
0000
0000
1001
,
0010
0000
0100
0100
,
0000
0000
0010
0010
,
0000
0000
1000
1000
,
0000
0000
0001
0001
,
1000
0000
0000
1000
,
1000
0010
0010
0000
,
0100
0100
0000
0001
,
0001
0000
0000
1000
,
1000
0000
0110
0000
,
0001
1000
0001
0000
,
1000
1000
1000
0000
,
0001
0001
0001
0000
,
0110
0000
0010
0010
,
0100
0100
0000
0000
,
1001
0000
0010
0000
,
0100
0000
1001
0000
,
0010
0000
0100
0000
,
0010
0000
0110
0000
,
1001
0010
0000
0100
,
0000
0001
1000
0100
,
0000
0000
1000
1000
,
0100
0100
0010
0010
,
0001
0001
1001
0010
,
0101
0010
0100
0000
,
0200
0000
0000
0000
,
0300
0000
1001
1001
,
0110
0110
0100
0100
,
0100
0000
1001
0000
,
0110
0000
0100
0100
,
0100
0000
1001
1001
,
1001
0000
0010
0010
,
0010
0000
0101
0000
,
1010
0000
0101
0000
,
0110
0000
0100
0100
,
0000
0010
0010
0000
,
0100
0100
0000
0001
,
0001
1000
1000
0010
,
0100
0000
0001
0000
,
1000
0000
0001
0001
,
1000
1000
0100
0100
,
0000
0010
0010
0000
,
1000
0000
0002
0000
,
0000
0000
0000
0000
,
0000
0003
0000
0020
,
0000
0000
0000
0000
,
0030
0000
0200
0000
,
0000
0000
0000
0000
,
0300
0000
2000
0000
,
0000
0000
0000
0000
,
3000
0000
0000
0000
,
0000
0000
0000
0000
,
0000
0001
0001
1000
,
1000
0000
0110
0110
,
0110
0000
1000
1000
,
0001
0001
0000
0110
,
0100
0000
1001
1001
,
0110
0110
0001
0001
,
1000
1000
0010
0100
,
0010
0100
0000
0001
,
0001
0000
1000
1000
,
0001
0001
0110
0110
,
0110
0000
1000
0001
,
1000
0001
0000
0110
,
0110
0000
0001
1000
,
0001
1000
0110
0110
,
0110
0110
0001
1000
,
0001
1000
0000
0010
,
0100
0001
2002
0000
,
3003
0000
0000
0000
;

//---------------dance-single - ----------------
#NOTEDATA:;
#CHARTNAME:;
#STEPSTYPE:dance-single;
#DESCRIPTION:;
#CHARTSTYLE:;
#DIFFICULTY:Easy;
#METER:7;
#RADARVALUES:0.376340,0.481915,0.316882,0.165536,0.000000,557.000000,490.000000,67.000000,35.000000,0.000000,3.000000,0.000000,0.000000,0.000000,0.376340,0.481915,0.316882,0.165536,0.000000,557.000000,490.000000,67.000000,35.000000,0.000000,3.000000,0.000000,0.000000,0.000000;
#CREDIT:;
#NOTES:
0000
0000
0000
0000
,
0000
0000
0002
0000
,
0000
0013
0100
1000
0100
0000
0000
0000
,
0000
2000
0000
0000
0000
0000
0000
0000
,
0000
0010
0100
0001
0100
0000
0000
3000
,
0000
0001
1000
0000
0200
0000
0000
0000
,
0000
0010
0001
1000
0001
0000
0000
0000
,
0300
2000
0000
0000
,
0000
0010
0100
0001
0010
0000
0000
3000
,
0000
0000
0000
0000
,
0000
0000
1001
1001
0010
0000
0100
0000
,
0010
0100
0010
0000
0001
1000
0001
1000
,
1000
0000
0010
0100
,
0010
0100
0010
0000
0000
0001
0000
0001
,
0001
0000
1000
1000
0100
0000
0010
0000
,
0100
0010
0100
0000
1000
0001
1000
0001
,
1000
0001
1000
0000
0100
0000
0010
0000
,
0100
0010
0100
0000
0000
1000
0000
1000
,
1000
0000
0001
0001
1000
0000
0001
0000
,
1000
0001
1000
0000
0001
1000
0001
1000
,
0001
0000
1000
0001
,
1000
0001
1000
0000
0000
0100
0000
0100
,
0010
0000
0001
0001
1000
0000
0001
0000
,
1000
0001
1000
0000
0001
1000
0001
1000
,
0001
1000
0001
0000
0100
0000
0010
0000
,
0100
0010
0100
0000
0000
1000
0000
1000
,
1000
0000
0002
0010
,
0100
0000
0000
0000
0000
0000
0000
1000
,
0100
0010
0100
0000
1000
0000
0003
0000
,
0000
0000
1001
0110
,
0001
0001
1000
0100
0010
0000
1001
0000
,
0020
0000
0000
1000
,
0100
0001
2000
0000
,
0000
0000
0000
3030
0202
0000
0000
0000
,
0303
0000
0101
1010
,
0101
0000
0010
0100
0001
0000
1000
0200
,
0000
0300
0001
1000
,
0110
0000
0101
0000
1000
0100
0000
0020
,
0000
0030
1001
0101
,
0110
0000
0001
0000
1000
0000
0100
0020
,
0000
0030
1001
0101
,
0110
0000
0110
0000
2000
0000
0000
0200
,
0000
0000
0000
0000
0000
3300
0000
0000
,
0000
0000
0101
0101
0010
0000
0100
0000
,
0010
0100
0110
0000
0001
1000
0001
1000
,
0001
0000
0010
0100
,
0010
0100
0010
0000
0000
0001
0000
0001
,
1000
0000
0100
0100
0010
0000
0001
0000
,
0100
0010
0100
0000
1000
0100
1000
0100
,
1000
0100
1000
0000
0001
0000
0100
0000
,
0001
0100
0001
0000
0000
0010
0000
0010
,
0010
0000
0100
0100
0001
0000
1000
0000
,
0001
1000
0001
0000
0100
0010
0100
0010
,
0100
0000
1000
0100
,
1000
0100
1000
0000
0000
0001
0000
0001
,
0001
0000
0010
0010
0100
0000
0010
0000
,
0100
0010
0100
0000
0001
0101
0100
0000
,
1000
0100
1000
0000
0001
0000
1000
0000
,
0100
0010
0001
0000
0000
0001
0000
0001
,
0001
0000
0000
0000
0000
2000
0100
0100
,
0010
0000
0000
0000
0000
0000
0000
0100
,
0100
0010
0002
0000
,
0000
3003
0000
0000
0101
0000
1010
0000
,
0110
0001
0100
1000
0100
0000
0101
0000
,
0020
0000
0000
0000
0000
0000
0000
1000
,
1000
0100
2000
0000
,
0000
0000
0000
3030
0202
0000
0000
0000
,
0303
0000
0101
1010
,
0101
0000
0110
0000
0001
0000
0001
0001
,
0000
0000
0110
0101
,
0110
0000
1100
0000
1100
0000
1100
1100
,
0000
0000
0010
0100
,
0001
1000
0100
0000
0101
0000
0101
0101
,
0000
0000
0110
0110
,
0110
0000
0110
0000
2200
0000
3300
0200
,
0000
0000
0300
0000
,
0000
0000
0101
0101
0010
0000
0100
0000
,
0010
0100
0010
0000
0001
1000
0001
1000
,
0001
0000
0010
0100
,
0010
0100
0010
0000
0000
0001
0000
0001
,
1000
0000
0010
0010
0100
0000
1000
0000
,
0100
1000
0100
0000
0100
1000
0100
1000
,
0100
1000
0100
0000
0100
0000
0010
0000
,
0100
0010
0100
0000
0000
0100
0000
0010
,
0100
0000
0100
0100
0001
0000
0100
0000
,
1000
0100
1000
0000
0001
0010
0001
0010
,
0001
0000
0010
0100
,
0010
0100
0010
0000
0000
1000
0000
1000
,
1000
0000
0100
0100
0001
0000
0010
0010
,
0001
0010
0001
0000
0100
1000
0100
1000
,
0100
1000
0000
0000
0001
0000
0010
0000
,
0100
0001
0100
0000
0000
0001
0000
0001
,
0001
0000
0000
0101
,
0101
0000
0000
0010
0000
1000
0100
0010
,
0001
0100
1000
0000
0000
0000
1100
0000
,
1100
0000
0200
0000
0310
0001
0000
0002
,
0000
0003
0000
1100
,
1100
0000
0000
0010
0000
0100
0010
0100
,
0001
1000
0100
0000
0000
0000
0001
0000
,
0100
0000
0010
0000
0202
0000
0000
0323
,
2000
0000
0000
0000
,
3030
0000
0000
0000
,
0000
0000
1001
1001
0010
0000
0100
0000
,
0010
0100
0010
0000
0001
1000
0001
1000
,
0001
0000
0010
0100
,
0010
0100
0010
0000
0000
0101
0000
0101
,
0101
0000
0100
0100
1000
0000
0100
0000
,
0010
0100
0010
0000
1000
0100
1000
0100
,
1000
0100
1000
0000
0001
0000
0010
0000
,
0100
0010
0100
0000
0000
0101
0000
0100
,
1000
0000
0001
0001
0200
0000
1000
0000
,
1000
1000
1000
0000
0010
1000
0010
1000
,
0010
0300
0002
0010
,
0100
0010
0100
0000
0000
1000
0000
1000
,
1000
1000
1000
2000
0203
0000
3010
0000
,
0010
0010
0010
0300
0001
0001
0001
0000
,
1000
1000
1000
0000
0001
0000
1000
0000
,
0001
1000
0001
0000
0000
0110
0000
0110
,
0110
0000
1001
1001
2002
0000
0000
0000
,
0000
0000
0000
0000
0000
0000
0000
3003
;

//---------------dance-single - ----------------
#NOTEDATA:;
#CHARTNAME:;
#STEPSTYPE:dance-single;
#DESCRIPTION:;
#CHARTSTYLE:;
#DIFFICULTY:Medium;
#METER:9;
#RADARVALUES:0.383096,0.508667,0.217561,0.279046,0.212831,567.000000,521.000000,46.000000,59.000000,0.000000,0.000000,0.000000,0.000000,0.000000,0.383096,0.508667,0.217561,0.279046,0.212831,567.000000,521.000000,46.000000,59.000000,0.000000,0.000000,0.000000,0.000000,0.000000;
#CREDIT:DvF;
#NOTES:
0000
0000
0000
0000
,
0000
0000
2002
0000
,
0000
3003
0010
0000
0100
0000
0010
0000
0100
0000
0000
0000
0000
0000
0000
0000
,
0000
0000
0000
0000
0001
0010
0100
0000
1000
0000
0000
0000
0000
0000
0000
0000
,
0000
0000
1000
0000
0100
0010
0000
0000
0001
0000
0000
0000
0000
0000
0000
0000
,
0000
0000
0000
0001
0010
0000
0100
0000
1000
0000
0000
0000
1000
0000
1000
0000
,
0000
0100
0010
0001
0100
0000
0000
0000
,
0000
0000
0000
0000
1000
0100
0110
0001
0000
0000
0000
0000
0000
0000
0000
0000
,
0000
0000
0000
1000
0100
0000
0001
0000
0010
0000
0000
0000
0000
0000
0000
0000
,
0000
0000
0002
2003
,
0200
3000
0000
0000
0010
0300
0000
0000
1001
0000
0000
0000
1001
0000
0000
0000
,
0010
0100
0000
0010
0000
0000
0000
0000
0001
0000
1000
0000
0001
0000
1000
0000
,
0001
0000
0010
0100
,
0010
0000
0100
0010
0000
0000
0000
0000
0000
0000
0001
0000
0000
0000
0001
0001
,
0000
0000
1000
1000
0100
0000
0010
0000
,
0001
0010
0001
0000
1000
0100
1000
0100
,
1000
0000
0100
0000
1000
0000
0001
0000
0000
0010
0000
0000
0100
0000
0000
0000
,
0010
0100
0010
0000
0000
0101
0000
0101
,
0101
0000
0000
0000
0001
0000
0000
0000
0200
0000
0000
0000
2300
0000
0000
3000
,
0010
0100
0001
0000
0100
0001
0100
0001
,
0100
0000
0000
0000
0000
0000
0000
0000
1000
0000
0000
0000
0000
0010
0000
0000
,
1000
0000
0010
0000
1000
0000
0000
0000
0000
0000
0000
1000
0000
0000
1000
0000
,
1000
0000
0000
0000
0000
0010
0010
0000
0000
0001
0000
0000
1000
0000
0000
0000
,
0001
1000
0001
0000
0001
0001
0001
0000
,
1000
1000
1000
0000
0100
0000
0010
0000
,
0100
0010
0100
0000
0000
0001
0000
0001
,
0001
0000
0001
0000
0000
0000
0000
0000
0000
0000
0000
1000
0000
0100
0000
0010
,
0000
0001
0000
0100
0000
0000
0000
0000
0000
0000
0000
0000
0000
0000
0001
0000
,
0010
0100
1000
0000
0002
0000
0000
0000
,
0000
0003
0000
0000
0000
0000
0000
0000
1000
0000
0000
0000
0100
0000
0000
0000
,
0010
0001
1000
0100
0010
0000
0002
0000
,
2003
0000
0000
3000
0000
0000
0000
0010
,
0100
0000
0000
0000
1000
0000
0000
0000
0002
0000
0000
0003
0000
0000
0000
0000
,
0000
0000
0000
0000
2000
0000
0000
3000
0020
0000
0000
0000
0000
0000
0000
0030
,
0000
0000
0101
0101
0000
0000
0000
0000
0010
0000
0000
0000
0010
0000
0000
0000
,
0010
0000
0010
0000
0010
0000
0000
0000
0101
0000
0000
0100
0000
0000
0000
0200
,
0000
0300
0000
0000
1000
0000
1000
0000
,
0100
0000
0100
0100
0000
0100
0000
0000
0010
0000
0000
0001
0000
0000
0200
0000
,
0000
0300
1000
1000
,
0001
0000
0001
0000
0001
0001
0000
0000
0010
0000
0000
0100
0000
0000
2000
0000
,
0000
3000
0100
0010
,
0010
0000
0010
0000
0010
0010
0000
0000
0002
0000
0000
0000
0000
0000
2003
0000
,
0000
0000
0000
3000
0000
0000
0000
0000
,
0000
0000
0000
0000
1001
1001
0000
0000
0110
0000
0000
0000
0001
0000
0000
0000
,
0010
0100
0010
0000
0001
1000
0001
1000
,
0001
0000
0110
1001
,
0110
0000
0001
1000
0000
0000
0000
0000
0000
0000
0100
0000
0000
0000
0100
0000
,
0100
0000
0000
0000
0110
0110
0000
0000
0001
0000
0000
0000
2000
0000
0000
3000
,
0100
0010
0001
0000
0100
1000
0100
1000
,
0100
1000
0100
0000
0001
0000
0010
0000
,
0100
0000
0010
0000
0100
0000
0000
0000
0000
0000
0002
0000
0000
0000
0003
2000
,
0000
3000
0100
0100
0010
0000
0001
0000
,
1000
0100
1000
0000
0001
0010
0001
0010
,
0001
0000
1000
0100
,
1000
0100
1000
0000
0000
1000
0000
1000
,
0100
0000
0100
0010
0001
0000
0001
0000
,
0010
0100
0000
0010
0000
0000
0000
0000
0001
0000
1000
0001
1000
0000
0000
0000
,
0100
0000
0010
0001
0000
0000
0000
0000
1000
0000
0000
0000
1000
0000
0000
0000
,
0100
0010
0001
0000
0000
0010
0000
0010
,
0010
0020
0000
0000
0000
0000
0030
0000
0000
0000
0000
1000
0000
0100
0000
0000
,
2000
0000
0010
0001
,
0000
0100
0000
0000
0010
3000
0000
0000
0002
0000
0000
0000
0003
0000
0100
0000
,
0010
0000
1000
1000
,
1000
0100
0000
0001
0010
0000
0200
0000
,
0000
0000
0000
0300
0000
0000
0000
1000
,
0100
0010
0001
0000
0200
0000
0000
0000
,
0000
0300
0000
0000
0000
0000
0000
2002
0000
0000
0000
0000
0000
0000
0000
0000
,
3003
0000
0010
0010
,
0010
0000
0010
0000
0010
0010
0000
0000
0001
0000
0000
1000
0000
0000
0200
0000
,
0000
0300
0000
0000
0010
0000
0010
0000
,
0010
0000
0010
0000
0010
0010
0000
0000
1000
0000
0000
0001
0000
0000
2000
0000
,
0000
0000
0000
3000
0000
0000
0000
0000
0010
0000
0000
0000
0100
0000
0000
0000
,
0010
0000
0100
0010
0000
0100
0001
0000
0000
0200
0000
0000
0000
0000
0300
2000
,
0000
3000
0001
0001
,
1000
0000
0001
0000
1000
0000
0000
0200
0000
0000
0000
0000
0000
0300
0000
0002
,
0000
0000
0000
0000
0000
0000
0000
2000
0003
0000
0000
0000
0000
0000
3000
0100
,
0000
0000
0110
0110
0001
0000
1000
0000
,
0100
0000
1000
0000
0100
0000
0000
0000
0001
0000
0001
0001
0000
0000
0010
0200
,
0000
0000
0000
0300
0000
0000
0000
0000
1001
0000
0000
0000
0110
0000
0000
0000
,
0001
0100
0000
1000
0000
0100
0000
0000
0000
0000
0100
0000
0000
0000
0100
0000
,
0010
0000
0101
0101
1000
0000
0010
0000
,
0100
0000
0010
0100
0000
0000
0000
0000
0001
0000
0001
0000
1000
1000
0000
0000
,
0100
0000
0000
0100
0000
0000
0000
0000
0010
0000
0000
0000
0100
0000
0000
0000
,
1001
0000
0000
0010
0200
0000
0000
0000
0300
0000
0000
0001
0000
0000
1000
0000
,
0200
0000
0300
0000
1001
0000
1001
0000
0000
0010
0000
0000
0200
0000
0000
0300
,
1000
0100
1000
0000
0001
1000
0001
1000
,
0001
0000
0100
0010
,
0100
0000
0010
0000
0000
0100
0000
0000
0000
0000
0001
0000
0000
0000
0000
0001
,
0001
0000
1000
1000
0100
0000
0010
0000
,
0100
0010
0100
0000
1000
0001
1000
0001
,
1000
0000
0001
0000
1000
0000
0000
0000
0200
0000
0000
0300
0010
0000
0000
0000
,
0001
0000
1000
0000
0200
0000
0000
0300
0000
0000
0001
0000
0000
0000
0001
0000
,
0001
0000
1000
1000
,
1000
0000
0000
0000
0000
0020
0000
0000
0000
0000
0000
0100
0000
0100
0000
0100
,
0000
0000
0000
0000
0100
0000
0000
0030
0000
0000
0000
0002
0000
0000
0000
0000
,
1000
0000
0000
0000
1000
0000
0000
0000
1003
0000
0000
1000
0000
0000
2000
0000
,
0000
3000
0000
0000
0010
0000
0200
0000
,
0000
0000
0000
0000
0000
0000
0002
0000
0300
0003
1000
0000
0100
0000
1000
0000
,
0100
0000
0001
0000
0100
0000
0000
0000
0000
0000
0000
0102
0000
0000
0000
0000
,
0010
0000
0000
0003
0100
0000
0000
0000
2000
0000
0000
0000
0000
0000
0100
0000
,
0020
0000
0000
0000
,
3030
0000
0000
0000
,
0000
0000
0000
0000
1001
1001
0000
0000
0010
0000
0000
0000
0100
0000
0000
0000
,
0010
0100
0010
0000
0001
1000
0001
1000
,
0001
0000
0110
1001
,
0110
0000
0110
0000
0001
0000
0000
0000
0000
0000
0000
1000
0000
0000
1000
0000
,
1000
0000
0110
0110
0001
0000
1000
0000
,
0001
1000
0001
0000
0110
0110
0001
1000
,
0001
0000
1000
0000
0001
0000
0000
0100
0000
0010
0000
0000
0001
0000
0000
0000
,
1000
0001
1000
0000
0000
0101
0000
0101
,
0101
0000
0000
0000
0010
0000
0010
0000
2000
0000
0000
0000
0200
3000
0000
0000
,
0300
0010
0100
0000
0010
0000
0000
0000
0002
0000
0000
0000
1000
0000
0000
0000
,
0010
0000
0000
0003
0000
0000
0000
0000
0000
1001
0000
0000
0100
0000
0000
0000
,
0110
0000
0001
1000
0000
0000
0000
0000
0000
0000
2000
0000
0000
0000
0010
0000
,
0100
0000
0000
0000
0001
0000
0001
3000
0200
0000
0000
0000
0310
0000
0000
0000
,
0001
0000
1000
0000
0001
0000
0000
0000
0110
0000
0001
0000
0000
1000
0000
0100
,
0000
1000
0000
0100
1000
0000
0000
0000
0002
0000
0000
0000
0023
0000
0000
0000
,
0130
0000
1000
0000
0002
0000
0000
0000
0003
0000
1000
0000
0000
1000
0000
0001
,
0000
0000
0000
1000
0000
0001
1000
0000
0000
2002
0000
0000
0000
0000
0000
0000
,
0000
0000
3003
0000
;

//---------------dance-single - ----------------
#NOTEDATA:;
#CHARTNAME:;
#STEPSTYPE:dance-single;
#DESCRIPTION:;
#CHARTSTYLE:;
#DIFFICULTY:Hard;
#METER:13;
#RADARVALUES:0.400664,0.508667,0.444581,0.165536,0.418568,593.000000,499.000000,94.000000,35.000000,0.000000,0.000000,0.000000,0.000000,0.000000,0.400664,0.508667,0.444581,0.165536,0.418568,593.000000,499.000000,94.000000,35.000000,0.000000,0.000000,0.000000,0.000000,0.000000;
#CREDIT:;
#NOTES:
0000
0000
0000
0000
,
0000
0000
0000
0000
0000
0000
0000
0000
0000
0000
0000
0000
0000
2000
0000
0000
0000
0000
0000
0000
0000
0000
0000
0000
,
0000
0010
0100
0001
0100
0000
0000
0000
,
0000
3000
0002
0000
0000
0000
0000
0000
,
0000
0000
0000
0010
0000
0000
0100
0000
0000
1000
0000
0000
0000
0100
0000
0000
0000
0000
0000
0000
0000
0000
0000
0000
,
0000
0000
0000
0003
0000
0000
0001
1000
0000
0000
0000
0000
2000
0000
0000
0000
0000
0000
0000
0000
0000
0000
0000
0000
,
0000
0010
0100
0001
0010
0000
0000
0000
,
0000
0000
0000
0000
0000
0000
0000
0000
3000
0000
0000
0002
0000
0000
0000
0000
0000
0000
0000
0000
0000
0000
0000
0000
,
0000
0000
0000
0010
0000
0000
1000
0000
0000
0000
0000
0100
0000
0000
0000
0000
0000
0000
0000
0003
0000
0000
0000
0000
,
0000
0000
0000
0000
,
0000
0000
0000
0000
0000
1000
0001
0000
1001
0000
0000
0000
0010
0000
0000
0000
0000
0000
0100
0000
0000
0000
0000
0000
,
0010
0000
0100
0000
0000
0010
0000
0100
0000
0000
0000
0000
0001
0000
0000
1000
0000
0001
0000
0000
1000
0000
0000
0001
,
0000
1000
0000
0000
0000
0000
0000
0000
0000
0000
0000
0000
0010
0000
0000
0000
0000
0000
0100
0000
0000
0000
0000
0000
,
0010
0000
0000
0100
0000
0000
0010
0000
0100
0000
0000
0000
0000
0000
0000
0000
1000
0000
0000
0000
0000
0100
0000
0000
,
1000
0000
0001
0001
0100
0000
0010
0000
,
0100
0000
0010
0000
0000
0100
0000
0000
0000
0000
0000
0000
1000
0000
0100
0000
0000
0000
1000
0000
0000
0000
0000
0001
,
0000
0000
0010
0000
0000
0001
0000
0000
0010
0000
0000
0000
0100
0000
0000
0000
0000
0000
1000
0000
0000
0000
0000
0000
,
0100
0010
0001
0000
0000
0001
0000
0100
,
2000
0000
0000
0000
3000
0000
0100
0000
0000
0010
0000
0000
,
0100
0000
0000
0010
0000
0000
0000
0100
0000
0000
0000
0000
0000
1000
0000
0100
0000
0000
1000
0000
0000
0100
0000
0000
,
1000
0000
0010
0100
,
0000
0010
0000
0000
0100
0000
0010
0000
0000
0000
0000
0000
0000
0000
0000
0000
0010
0000
0000
0000
0000
0010
0000
0000
,
0010
0000
0001
0001
0010
0000
0100
0000
,
0010
0000
0000
0100
0000
0000
0010
0000
0000
0000
0000
0000
0000
0001
0000
0010
0000
0000
0000
0001
0000
0010
0000
0000
,
0000
0001
0000
0010
0000
0000
0000
0001
0000
0000
0000
0000
0100
0000
0000
0000
0000
0000
1000
0000
0000
0000
0000
0000
,
0100
1000
0100
0000
0000
0001
0000
0001
,
0001
0000
0000
0000
0000
1000
1000
0000
,
2000
0000
0000
0000
0000
0000
0000
0000
3000
0000
0000
0010
,
0000
0010
0000
0000
0000
0000
0001
0000
0000
0000
0000
0000
2002
0000
0000
0000
0000
0000
0000
0000
0000
0000
0000
0000
,
3000
0003
0000
0000
0000
0000
0000
0000
0000
0000
0000
0000
0001
0000
0000
0000
0000
0000
0010
0000
0000
0000
0000
0000
,
0100
0000
0000
0000
1000
0000
0100
0000
0000
0010
0000
0000
0001
0000
0000
0000
0000
0000
2000
0000
0000
0000
0000
0000
,
0100
0000
0000
0010
0000
0000
0100
0000
3000
0000
0000
0000
,
0001
0000
0000
0000
0000
0010
0000
0000
0000
0000
0000
0000
2000
0000
0000
0000
0000
0000
0000
0000
0000
0000
0000
3000
,
0000
0000
0000
0002
0000
0000
0000
0003
,
0000
0000
0101
0101
,
0000
0101
0000
0000
0000
0000
0101
0000
0000
0000
0000
0000
0000
0110
0000
0000
0000
0110
0000
0000
0000
0000
0110
0000
,
0000
0000
0000
0000
0000
0000
0000
0000
0000
0000
0000
0000
1010
0000
0000
0000
0000
0000
0000
1010
0000
0000
0000
0000
,
0000
1010
0000
0000
0000
0000
1000
0010
0000
0000
0000
0000
0000
0110
0000
0000
0000
0110
0000
0000
0000
0000
0110
0000
,
0000
0000
0000
0000
0000
0000
0000
0000
0000
0000
0000
0000
0010
1000
0000
0000
0000
0000
0000
0101
0000
0000
0000
0000
,
0000
1010
0000
0000
0000
0000
0000
0110
0000
0000
0000
0000
0000
0001
0000
0000
0000
0000
0101
0000
0000
0100
0001
0000
,
0000
0000
0110
0110
,
0000
0110
0000
0000
0110
0000
0110
0000
0110
0000
0000
0000
2000
0000
0000
0000
0000
0000
0000
0000
0000
0000
3200
0000
,
0000
0000
0000
0000
0000
0000
0000
0000
0000
0000
0000
0000
0000
0300
0000
0000
0000
0000
0000
0000
0000
0000
0000
0000
,
0000
0000
0000
0000
0000
0000
0001
0000
0001
0000
0000
0000
0000
0110
0000
0000
0000
0000
0101
0000
0000
0000
0000
0000
,
0010
0000
0000
0100
0000
0000
1000
0000
0000
0000
0000
0000
0000
0100
0000
1000
0000
0000
0100
0000
1000
0000
0000
0000
,
0100
0000
0110
0101
,
0010
0000
0100
0000
0000
0010
0000
0100
0000
0000
0000
0000
0000
0000
0000
0000
0110
0000
0000
0000
0000
0000
0110
0000
,
0000
0110
0000
0000
0000
0000
0001
0000
0001
0000
0000
0000
1000
0000
0000
0000
0000
0000
0100
0000
0000
0000
0000
0000
,
0000
0010
0000
0100
0000
0010
0000
0000
0000
0000
0000
0000
0101
0000
0101
0000
0000
0000
0000
0010
0000
0000
0000
0000
,
0000
1000
0000
1000
0000
0000
0000
1000
0000
0000
0000
0000
0000
0100
0000
0000
0000
0010
0000
0000
0000
0000
0000
0000
,
0100
0000
0010
0000
0000
0100
0000
0001
0000
0000
0000
0000
0000
0000
0000
0000
0101
0000
0000
0000
0000
0101
0000
0000
,
0101
0000
0000
0000
0000
0000
0001
0000
0001
0000
0000
0000
0000
1000
0000
0000
0000
0000
0100
0000
0000
0000
0000
0000
,
1000
0000
0000
0100
0000
0000
1000
0000
0000
0000
0000
0000
0000
0001
0000
0010
0000
0000
0000
0001
0000
0010
0000
0000
,
0001
0000
1000
0100
,
1000
0100
1000
0000
0000
0100
0000
0100
,
0100
0000
0010
0010
0100
0000
0100
0000
,
0001
1000
0100
0000
0001
1000
0001
1000
,
0001
0000
0000
1000
0000
0000
0000
0001
0000
0000
0000
0000
0000
0001
0000
0000
0000
0000
1000
0000
0000
0000
0000
0000
,
0100
0010
0100
0000
0000
0001
0000
0001
,
0001
0000
0002
0000
0000
0000
0000
0003
0000
0000
0000
0000
0000
0000
0000
1000
0000
0000
1000
0000
0000
0000
0000
0000
,
2000
0000
0000
0000
0000
0000
0000
0000
0000
0000
0000
0000
0000
3000
0000
0000
0000
0000
0000
0000
0000
0000
0010
0000
,
0100
0001
0010
0000
0200
0000
0000
0000
,
0300
0000
0001
0010
,
0100
0000
0000
1000
0000
0000
0100
0000
0000
0001
0000
0010
0000
0000
0000
0000
0000
0000
0100
0000
0000
0000
0000
0000
,
0000
0200
0000
0000
0000
0000
0000
0000
0000
0000
0300
0000
0000
0000
0000
0000
0000
0000
0000
0000
0000
0000
1000
0000
,
0000
0100
0000
0010
0000
0000
0001
0000
0000
0000
0000
0000
0002
0000
0000
0000
0000
0000
0000
0000
0000
0000
0000
0000
,
0000
0000
0000
0003
0000
0000
0000
0000
0000
0000
0000
0220
0000
0000
0000
0000
0000
0000
0000
0000
0000
0000
0330
0000
,
0000
0000
0000
0000
0000
0000
0000
0000
0000
0000
0000
0101
0000
0000
0000
0000
0000
1010
0000
0000
0000
0000
0000
0101
,
0000
0000
0000
0000
0000
0000
0110
0000
0000
0000
0000
0000
0000
0101
0000
0000
0000
0101
0000
0000
0000
0000
0101
0000
,
0000
0000
0000
0000
0000
0000
0000
0000
0000
0000
0000
0010
1000
0000
0000
0000
0000
0101
0000
0000
0000
0000
0000
0000
,
0110
0000
0000
0000
0000
0000
0000
0110
0000
0000
0000
0000
0000
1100
0000
0000
0000
0000
1100
0000
0000
0000
1100
0000
,
0000
0000
0000
0000
0000
0000
0000
0000
0000
0000
0000
0110
0000
0000
0000
0000
0000
0000
0101
0000
0000
0000
0000
0000
,
1010
0000
0000
0000
0000
0000
0000
0110
0000
0000
0000
0000
0000
0101
0000
0000
0000
0110
0000
0000
0000
0000
0000
2000
,
0000
3000
0110
0101
,
0000
0000
0110
0000
0000
0000
0000
0000
0000
0000
0000
0000
2000
0010
0000
0000
0000
3000
0000
0000
0000
0000
0000
2000
,
0020
0000
0000
0000
0000
0000
0000
0000
0000
0000
0000
0000
0000
0000
0000
0000
0000
0000
0000
3000
0030
0000
0000
0000
,
0000
0000
0000
0000
0000
0000
1001
0000
1000
0001
0000
0000
0000
0100
0000
0000
0000
0000
0010
0000
0000
0000
0000
0000
,
0100
0000
0000
0010
0000
0000
0100
0000
0000
0000
0000
0000
0001
0000
0010
0000
0000
0000
0001
0000
0010
0000
0000
0000
,
0001
0000
0110
1000
,
0100
0010
0100
0000
0000
1000
0000
1000
,
1000
0000
0000
0000
0000
0000
0100
0000
0000
0100
0000
0000
0000
0010
0000
0000
0000
0000
0100
0000
0000
0000
0000
0000
,
0010
0000
0000
0100
0000
0010
0000
0000
0000
0000
0000
0000
0101
0000
0101
0000
0000
0000
0010
0000
0000
0000
0000
0000
,
1000
0000
0000
1000
0000
1000
0000
0000
0000
0000
0000
0000
0100
0000
0000
0000
0000
0000
0010
0000
0000
0000
0000
0000
,
0100
0000
0010
0000
0000
0100
0000
0000
0000
0000
0000
0000
0000
0000
0000
0101
0000
0000
0000
0000
0000
0100
0000
0000
,
0101
0000
0000
0000
0000
0000
0000
0101
0000
0001
0001
0000
0000
2000
0000
0000
0000
0000
0000
0200
3000
0000
0000
0300
,
0010
0000
0000
0001
0000
0000
0010
0000
0000
0000
0000
0000
0100
0000
0000
1000
0000
0000
0100
0000
1000
0000
0000
0000
,
0001
0000
2000
0010
,
0000
0100
0000
0010
0000
0100
0000
0000
0000
0000
0000
0000
0000
0000
0000
0001
0000
0000
0000
0000
0000
0001
0000
0000
,
0001
0000
3000
0000
0000
0000
0001
0000
0000
0001
0002
0000
0000
0000
0000
0000
0000
0000
0010
0000
0000
0000
0000
0000
,
1000
0100
1000
0000
0100
1000
0100
1000
,
0100
0000
0000
1000
0000
0000
0100
0000
0000
0000
0000
0003
2000
0000
0000
0000
0000
0000
0000
0100
0000
0000
0000
0000
,
0010
0000
0000
0100
0000
0000
0010
0000
0000
0000
0000
0000
0000
3000
0000
0001
0000
0000
0000
0000
0001
0000
0000
0000
,
0002
0000
0000
0000
0000
0003
0000
0000
0000
0000
0000
0000
0000
0000
0000
0000
0000
0100
0001
0000
0000
0000
0000
0010
,
1000
0000
0000
0000
0000
0000
0000
0000
0000
0000
0110
0000
0000
0000
0000
0000
0000
0110
0000
0000
0000
0000
0000
0000
,
0000
0110
0000
0000
0000
0000
0110
0000
0000
0000
0000
0000
0000
0000
0000
0000
0000
0101
0000
0000
0000
0000
0000
1010
,
0000
0000
0000
0000
0000
0101
0000
0000
0000
0000
0000
0000
0010
0000
0000
0000
1000
0000
0000
0000
0000
0200
0000
0000
,
0000
0000
0000
0000
0000
0300
0000
0000
0000
0000
0000
0000
0000
0000
0000
0000
0000
0000
0110
0000
0000
0000
0000
0001
,
0100
0000
0000
0000
0000
0000
0000
0000
0000
0000
0010
0000
0000
0000
1000
0000
0000
0000
0000
0000
1000
0100
0000
0000
,
0000
0010
0001
0000
0000
0000
0110
0000
,
0101
0000
0000
0000
0000
0001
0000
0000
0000
0000
0000
0000
2000
0000
0000
0000
0000
0000
0000
0000
3000
0000
0000
0002
,
0000
0000
0000
0000
,
0000
0003
0000
0000
,
0000
0000
0000
0000
0000
0000
1001
0000
0000
1001
0000
0000
0000
0110
0000
0000
0000
0000
0000
0101
0000
0000
0000
0000
,
0110
0000
0000
0000
0100
0000
1000
0000
0000
0000
0000
0000
0000
0100
0000
0000
0010
0000
0000
0100
0000
0000
0010
0000
,
0000
0100
0000
0000
0000
0000
0000
0000
0000
0000
0000
0000
0110
0000
0000
0000
0000
0000
1001
0000
0000
0000
0000
0000
,
0110
0000
0000
0101
0000
0000
0000
0000
0000
0000
0000
0000
0000
0000
0100
0000
0000
0000
0000
0000
0000
1000
0000
0010
,
0000
0000
0010
0010
0100
0000
1000
0000
,
0100
0000
0000
1000
0000
0000
0100
0000
0000
0000
0000
0000
0001
0000
0010
0000
0000
0000
0001
0000
0010
0000
0000
0000
,
0100
0000
0000
0000
0000
0000
0100
0000
0000
0000
0000
0000
0000
0010
0000
0000
0000
0001
0000
0000
0000
0000
0000
0000
,
1000
0100
0010
0000
0000
0001
0000
0101
,
0101
0000
0000
0000
0000
0000
0010
0000
0010
0000
0000
0000
0000
0100
0000
0000
0000
0000
1000
0000
0000
0000
0000
0000
,
0000
0100
0000
0010
0000
0000
0100
0000
0000
0000
0000
0000
0000
0001
0000
1000
0000
0000
0000
0001
0000
1000
0000
0000
,
0000
0001
0000
0000
0000
0000
0000
0000
0000
0000
0000
0000
0010
0000
0000
0000
0000
0000
0100
0000
0000
0000
0000
0000
,
0000
0010
0000
0100
0000
0000
0010
0000
0000
0000
0000
0000
0000
0000
0000
0001
0000
0000
0000
0000
0001
0000
0000
0000
,
1000
0000
0000
0000
0000
0000
1000
0000
0000
1000
0000
0000
0000
0110
0000
0000
0000
0000
0100
0000
0000
0000
0000
0000
,
0010
0000
0100
0000
0000
0010
0000
0100
0000
0000
0000
0000
0001
0000
0000
1000
0000
0000
0001
0000
1000
0000
0000
0000
,
0001
1000
0001
0000
0010
0000
0100
0000
,
0010
0000
0100
0000
0000
0010
0000
0000
0000
0000
0000
0000
0000
0000
0000
0001
1000
0000
0000
0000
0000
1001
0000
0000
,
1001
0000
0000
0000
0000
0000
1001
0000
0000
1001
0000
0000
0000
2002
0000
0000
0000
0000
0000
0000
0000
0000
0000
0000
,
0000
0000
3003
0000
;

//---------------dance-single - ----------------
#NOTEDATA:;
#CHARTNAME:;
#STEPSTYPE:dance-single;
#DESCRIPTION:;
#CHARTSTYLE:;
#DIFFICULTY:Challenge;
#METER:13;
#RADARVALUES:0.424311,0.539173,0.378367,0.463499,0.801665,628.000000,548.000000,80.000000,98.000000,0.000000,0.000000,0.000000,0.000000,0.000000,0.424311,0.539173,0.378367,0.463499,0.801665,628.000000,548.000000,80.000000,98.000000,0.000000,0.000000,0.000000,0.000000,0.000000;
#CREDIT:;
#NOTES:
// measure 0
0000
0000
0000
0000
,  // measure 1
0000
0000
0000
0000
0000
0000
0000
0000
0000
0000
0000
0000
0000
0000
0000
0000
0000
0000
0000
0000
0000
0000
0000
0000
0000
1000
0000
0000
0000
0000
0000
0000
0000
0000
0100
0000
0000
0000
0000
0000
0000
0000
0000
0020
0000
0000
0000
0000
,  // measure 2
0000
0000
0000
0000
0000
0000
0000
0030
0001
0000
0000
0000
0000
1000
0000
0000
0000
0000
0000
0100
0000
0000
0000
0000
0020
0000
0000
0000
0000
0000
0000
0000
0000
0000
0000
0000
0000
0000
0000
0000
0000
0000
0000
0000
0000
0000
0000
0000
,  // measure 3
0000
0000
0000
0000
0000
0000
0000
0000
0000
0030
0000
0000
0001
0000
0000
0010
0000
0000
0000
0100
1000
0000
0000
0000
0000
0000
0000
0000
0000
0000
0000
0000
0000
0000
0000
0000
0000
0000
0000
0000
0000
0000
0000
0000
0000
0000
0000
0000
,  // measure 4
0000
0000
0000
0000
0000
0000
1000
0000
0000
0000
0000
0100
0000
0000
0000
0000
0000
0010
0000
0000
0000
0000
0000
0000
0001
0000
0000
0000
0000
0000
0000
0000
0000
0001
0000
0000
0000
0000
0000
0000
0000
0000
0001
0000
0000
0000
0000
0000
,  // measure 5
0000
0000
0000
0000
0000
0000
1000
0000
0000
0000
0000
0100
0000
0000
0000
0000
0000
0000
0010
0000
0000
0000
0000
0000
0000
0001
0000
0000
0000
0000
0000
0000
0000
0000
0000
0001
0000
0000
0000
0000
0000
0000
0000
0001
0000
0000
0000
0000
,  // measure 6
0000
0000
0000
0000
0000
0000
1000
0000
0000
0000
0000
0100
0000
0000
0000
0000
0000
0010
0000
0000
0000
0000
0000
0000
0001
0000
0000
0000
0000
0000
0000
0000
0000
0000
0001
0000
0000
0000
0000
0000
0000
0000
0000
0001
0000
0000
0000
0000
,  // measure 7
0000
0000
0000
0000
0000
0000
0000
0000
0000
0000
0000
0000
0001
0000
0000
0000
0010
0000
0000
0100
0000
0000
1000
0000
0000
0000
0000
0000
0000
0000
0000
0000
0000
1000
0000
0000
0000
0000
0000
0000
0000
0000
0000
1000
0000
0000
0000
0000
,  // measure 8
0000
0000
0000
0000
0000
0000
0000
1000
0000
0000
0000
0000
0000
1000
0000
0000
0000
0000
0100
0000
0000
0000
0000
0010
0000
0000
0000
0000
0000
0000
0000
0000
0000
0000
0010
0000
0000
0000
0000
0000
0000
0000
0000
0010
0000
0000
0000
0000
,  // measure 9
0000
0000
0000
0000
0000
0000
0001
0000
0000
0000
0000
0000
1000
0000
0000
0000
0000
0000
0100
0000
0000
0000
0000
0000
0000
0010
0000
0000
0000
0000
0000
0000
0000
0000
0000
0000
0000
0010
0000
0000
0000
0000
0000
0000
0000
0000
0000
0000
,  // measure 10
0010
0000
0000
0000
0000
0000
0000
0000
0000
0000
0000
0000
0000
0100
0000
0000
0000
0000
0010
0000
0000
0000
0000
0000
0000
0001
0000
0000
0000
0000
0000
0000
0000
0000
0000
0000
1000
0000
0000
0000
0000
0000
0000
0000
0000
0000
0000
0000
,  // measure 11
0000
0001
0000
0000
0000
0000
1000
0000
0000
0000
0000
0000
0000
0001
0000
0000
0000
0000
0000
0000
0000
0000
0000
0000
0000
0100
0000
0000
0000
0000
0000
0010
0000
0000
0000
0000
0000
0100
0000
0000
0000
0010
0000
0000
0000
0000
0000
0000
,  // measure 12
0000
0100
0000
0000
0000
0000
0000
0000
0000
0000
0000
0000
0000
0000
0000
0000
0000
0000
0000
0000
0000
0000
0000
0000
0001
0000
0000
0000
0000
0000
0000
0000
0000
0000
0000
0000
1000
0000
0000
0000
0000
0000
0000
0000
0000
0000
0000
0000
,  // measure 13
0000
0001
0000
0000
0000
0000
1000
0000
0000
0000
0000
0000
0000
0001
0000
0000
0000
0000
0000
0000
0000
0000
0000
0000
0000
0000
0000
0000
0000
0000
0110
0000
0000
0000
0000
0000
0110
0000
0000
0000
0000
0000
0000
0000
0000
0000
0000
0000
,  // measure 14
0001
0000
0000
0000
0000
0000
1000
0000
0000
1000
0000
0000
0000
0110
0000
0000
0000
0000
0001
0000
0000
0000
0000
0000
,  // measure 15
0000
0010
0000
0000
0000
0100
0000
0000
0000
0000
0000
0000
0010
0000
0000
0000
0000
0000
0000
0000
0000
0000
0000
0001
0000
0000
0000
0000
1000
0000
0000
0000
0000
0000
0000
0001
0000
0000
0000
1000
0000
0000
0000
0000
0000
0001
0000
0000
,  // measure 16
0000
0000
0000
1000
0000
0000
0000
0000
0001
0000
0000
0000
0000
1000
0000
0000
0000
0000
0000
0000
0100
0000
0000
0000
0000
0010
0000
0000
0000
0000
0000
0000
0000
0000
0000
0000
0010
0000
0000
0000
0000
0000
0000
0000
0000
0000
0000
0000
,  // measure 17
0100
0000
0000
0000
0000
0000
0010
0000
0000
0000
0000
0002
0000
0000
0000
0000
0000
0000
0000
0000
0000
0000
0000
0000
0000
0000
0003
0000
0000
0000
1000
0000
0000
0000
0000
1000
0000
0000
0000
0000
0000
0000
0000
0000
0000
0000
0000
0200
,  // measure 18
0000
0000
0000
0000
0000
0000
0000
0000
0000
0000
0000
0300
0010
0000
0000
0000
0000
0001
0000
0000
0000
0000
0000
0000
1000
0000
0000
0000
0000
0000
0000
0000
0000
0000
0000
0000
0001
0000
0000
0000
0000
0000
0000
0000
0000
0000
0000
0000
,  // measure 19
1000
0000
0000
0000
0000
0000
0001
0000
0000
0000
0000
0000
1000
0000
0000
0000
0000
0000
0000
0000
0000
0000
0000
0000
0100
0000
0000
0000
0000
0000
0010
0000
0000
0000
0000
0100
0000
0000
0000
0000
0000
0010
0000
0000
0000
0000
0000
0002
,  // measure 20
0000
0000
0000
0000
0000
0000
0000
0000
0000
0000
0000
0000
0000
0000
0000
0000
0000
0000
0000
0000
0000
0000
0000
0000
0000
1000
0000
0000
0000
0000
0000
0000
0000
0000
0000
0000
0000
0010
0000
0000
0000
0000
0000
0000
0000
0000
0000
0000
,  // measure 21
0100
0000
0000
0000
0000
1000
0000
0000
0000
0000
0000
0100
0000
0000
0000
0000
0000
0000
0000
0000
0000
0000
0000
0000
0000
0000
0000
0000
0000
0000
1000
0000
0000
0000
0000
0000
0000
0000
0000
0000
0000
1000
0000
0000
0000
0000
0000
0000
,  // measure 22
1000
0000
0000
0000
0000
0000
0000
0000
0000
0000
0000
0000
1000
0000
0000
0000
0000
0000
1000
0000
0000
0000
0000
0000
0000
0100
0000
0000
0000
0000
0000
0000
0000
0000
0000
0000
0010
0000
0000
0000
0000
0000
0100
0000
0000
0000
0000
0100
,  // measure 23
0000
0000
0000
0000
0010
0000
0000
0000
0000
0100
0000
0000
0000
0000
0010
0000
0000
0000
0000
0000
0000
0000
0000
0000
0000
0100
0000
0000
0000
0000
0010
0000
0000
0000
0000
0100
0000
0000
0000
0000
0010
0000
0000
0000
0000
0000
0000
1000
,  // measure 24
0000
0000
0000
1000
0000
0000
0000
0100
0000
0000
0000
0000
0000
1000
0000
0000
0000
0000
0000
0000
0003
0000
0000
0000
0000
0100
0000
0000
0000
0000
0000
0000
0000
0000
0000
0000
2000
0000
0000
0000
0000
0000
0000
0000
0000
0000
0000
0000
,  // measure 25
3100
0000
0000
0000
0000
0000
0000
0010
0000
0000
0000
0000
0002
0000
0000
0000
0000
0000
0000
0000
0000
0000
0000
0000
0000
0003
0000
0000
1000
0000
0000
0000
0100
0000
0000
0000
0000
0000
0010
0000
0000
0000
0000
0001
0000
0000
0000
0000
,  // measure 26
0000
0000
1000
0000
0000
0000
0000
0000
0000
0000
0000
0000
0000
0000
0000
0000
0000
0000
0000
0000
0000
0000
0000
0000
0000
0000
0000
0000
0000
0000
0101
0000
0000
0000
0000
0101
0000
0000
0000
0000
0000
0000
0000
0000
0000
0000
0000
0200
,  // measure 27
0000
0000
0000
0000
0000
0000
0000
0000
0000
0000
0000
0000
0000
0000
0000
0000
0000
0000
0000
0000
0000
0000
0000
0000
0300
0000
0000
0000
0000
0000
0000
0000
0000
0000
0000
0000
0000
0000
0000
0000
0000
0000
0000
0010
0000
0000
0000
0000
,  // measure 28
0000
1000
0000
0000
0000
0000
0100
0000
0000
0000
0000
0000
0100
0000
0000
0000
0000
0000
0000
0000
0000
0000
0002
0000
0000
0000
0000
0000
0000
0000
0000
0000
0000
0000
0000
0000
0000
0000
0000
0000
0000
0000
0000
0000
0000
0000
0000
0000
,  // measure 29
0000
0003
0000
0000
0000
0000
0000
0000
0000
0000
0000
0000
0000
0000
0000
0000
0000
0000
0000
0000
0000
0000
1001
0000
0000
0000
0000
0000
0000
0000
0000
0000
0000
0110
0000
0000
0000
0000
0000
0000
0000
0000
0000
0000
0000
0000
1001
0000
,  // measure 30
0000
0000
0000
0000
0000
0000
0000
0000
0000
0000
0100
0000
0000
0010
0000
0000
0000
0000
0100
0000
0000
0000
0000
0000
1000
0000
0000
0000
0000
0000
0000
0000
0000
0000
0000
0000
0000
0110
0000
0000
0000
0000
0000
0000
0000
0000
0000
0000
,  // measure 31
0000
0001
0000
0000
0000
2000
0000
0000
0000
0000
0000
0000
0000
0000
0000
0000
0000
0000
0000
0000
0000
0000
0000
0000
3000
0000
0000
0000
0000
0000
0000
0000
0000
0000
0000
0000
0000
0000
0000
0000
0000
0000
0110
0000
0000
0000
0000
0110
,  // measure 32
0000
0001
0200
0000
,  // measure 33
0000
0000
0000
0000
0000
0000
0000
0000
0000
0000
0000
0300
0000
0000
0000
0000
0000
0000
0000
0000
0000
0002
0000
0000
0000
0000
0000
0000
0000
0000
0000
0000
0000
0000
0000
0000
0000
0000
0000
0000
0000
0000
0000
0000
0000
0000
0000
0003
,  // measure 34
0000
0000
0000
0000
0000
0000
0000
0000
0000
0000
0000
0000
0000
0000
0000
0000
0000
0000
0000
0000
0000
0000
0000
0001
0000
0000
0000
0000
0000
0000
0000
0000
0000
0000
1000
0000
0000
0000
0000
0000
0000
0000
0000
0000
0000
0000
0000
0001
,  // measure 35
0000
0000
0000
0000
0000
0000
0000
0000
0000
0000
0000
0000
1000
0000
0000
0000
0000
0000
0000
0000
0000
0000
0000
0000
0000
0010
0000
0000
0000
0000
0000
0000
0000
0000
0010
0000
0000
0000
0000
0000
0000
0000
0000
0010
0000
0000
0000
0000
,  // measure 36
0000
0000
1000
0001
,  // measure 37
1000
0000
0000
0000
0000
0000
0000
0000
0000
0000
0000
0000
0000
0001
0000
0000
0000
0000
0000
0000
0000
0000
0000
0000
0000
1000
0000
0000
0000
0000
0000
0000
0000
1000
0000
0000
0000
0000
0000
0000
0000
0000
1000
0000
0000
0000
0000
0000
,  // measure 38
0000
0000
0000
0000
0000
0000
0000
0000
0000
0000
0000
0000
0000
0000
0000
0000
0000
0000
0000
0000
0000
0000
0000
0000
0001
0000
0000
0000
0000
0000
0000
0000
0000
0000
0000
0000
0000
1000
0000
0000
0000
0000
0000
0000
0000
0000
0000
0000
,  // measure 39
0000
0001
0000
0000
0000
0000
0000
0000
1000
0000
0000
0000
0000
0001
0000
0000
0000
0000
0000
0000
0000
0000
0000
0000
0000
0100
0000
0000
0000
0000
0000
0000
0000
0000
0010
0000
0000
0000
0000
0000
0000
0000
0200
0000
0000
0000
0000
0000
,  // measure 40
0000
0000
0000
0000
0000
0000
0000
0000
0000
0000
0000
0000
0000
0000
0000
0300
0000
0000
0000
0000
0000
0000
0000
0000
1001
0000
0000
0000
0000
0000
0000
0000
0000
0000
0100
0000
0000
0000
0000
0000
0000
0000
0000
0000
0000
0000
0000
0000
,  // measure 41
0010
0000
0000
0000
0000
0000
0100
0000
0000
0000
0000
0010
0000
0000
0000
0000
0000
0000
0010
0000
0000
0000
0000
0000
0000
0200
0000
0000
0000
0000
0000
0000
0000
0000
0000
0000
0000
0000
0000
0000
0000
0000
0000
0000
0000
0000
0300
0000
,  // measure 42
0002
0000
0000
0000
0000
0000
0000
0003
0000
0000
0000
0000
,  // measure 43
0000
0000
0000
0000
0000
0000
0000
0000
0000
0000
0000
0101
0000
0000
0000
0000
0000
0000
0000
0000
0000
0000
1010
0000
0000
0000
0000
0000
0000
0000
0000
0000
0000
0000
0101
0000
0000
0000
0000
0000
0000
0000
0000
0000
0000
0000
0000
0000
,  // measure 44
0110
0000
0000
0000
0000
0000
0000
0000
0000
0000
0000
0000
0101
0000
0000
0000
0000
0000
0000
0000
0000
0000
0000
0110
0000
0000
0000
0000
0000
0000
0000
0000
0000
0000
0000
0000
1100
0000
0000
0000
0000
0000
0000
0000
0000
0000
0000
0100
,  // measure 45
1000
0000
0000
0000
0000
0000
0000
0000
0000
0000
0000
0000
0000
0000
0000
0000
0000
0000
0000
0000
0000
0000
0101
0000
0000
0000
0000
0000
0000
0000
0000
0000
0000
0000
1010
0000
0000
0000
0000
0000
0000
0000
0000
0000
0000
0000
0100
0001
,  // measure 46
0000
0000
0000
0000
0000
0000
0000
0000
0000
0000
0000
0110
0000
0000
0000
0000
0000
0000
0000
0000
0000
0000
0000
0000
1000
0100
0000
0000
0000
0000
0000
0000
0000
0000
0000
0000
0000
0100
0001
0000
0000
0000
0000
0000
0000
0000
0000
0000
,  // measure 47
0000
0010
0000
0000
0000
0000
0000
0000
0000
0000
0000
0000
0101
0000
0000
0000
0101
0000
0000
0000
0000
0000
0000
0010
0000
0000
0000
0000
0000
0000
0000
0000
0000
0000
0000
0100
0000
0000
0000
0000
0000
0000
0000
0000
0000
0000
0000
0000
,  // measure 48
0000
1000
0000
0000
0000
0000
0100
0000
0000
0000
1000
0000
0000
0000
0000
0000
0000
0000
0000
0000
0000
0000
0000
0000
0101
0000
0000
0000
0000
0000
0010
0000
0000
0000
0000
0001
0000
0000
0000
0000
0000
0010
0000
0000
0000
0000
0000
0001
,  // measure 49
0000
0000
0000
0000
0010
0000
0000
0000
0000
0000
0000
0001
0000
0000
0000
0000
0000
0000
0000
1000
0000
0000
0000
0000
0000
0200
0000
0000
0000
0000
0000
0000
0000
0000
0000
0000
0310
0000
0000
0000
0000
0000
0000
0000
0000
0000
0000
0000
,  // measure 50
0001
0000
0000
0000
0000
1000
0000
0000
0000
0000
0000
0200
0000
0000
0000
0000
0000
0000
0000
0000
0300
0000
0000
0000
0000
0000
0000
0000
0000
0000
0000
0110
0000
0000
0000
0000
0000
0000
0000
0000
0000
0000
0000
0110
0000
0000
0000
0000
,  // measure 51
0110
0000
0000
0000
0000
0000
0000
0000
0000
0000
0000
0000
0000
0101
0000
0000
0000
0100
0001
0000
0000
0000
0000
0020
0000
0000
0000
0000
0000
0000
0000
0000
0000
0000
0000
0000
2030
0000
0000
0000
0000
0000
0000
0000
0000
0000
0000
0000
,  // measure 52
0000
3100
0000
0000
0000
0000
0000
0010
0000
0000
0000
0002
0000
0000
0000
0000
0000
0000
0000
0000
0000
0000
0000
0000
2000
0003
0000
0000
0000
0000
0000
0000
0000
0000
0000
0000
3200
0000
0000
0000
0000
0000
0000
0000
0000
0000
0000
0020
,  // measure 53
0000
0300
0000
0000
0000
0000
0000
0000
0000
0000
0000
0030
0000
0000
0000
0000
0000
0000
0000
0000
0000
0000
0000
0000
0000
0001
0000
0000
0000
0000
0000
0000
0000
0000
0000
2000
0000
0000
0000
0000
0000
0000
0000
0000
0000
0000
0000
3000
,  // measure 54
0100
0000
0000
0000
0000
0000
0010
0000
0000
0000
0000
0200
0000
0000
0000
0000
0000
0000
0000
0000
0000
0000
0000
0000
0000
0000
0000
0000
0300
0000
1000
0000
0000
0000
0000
0000
0000
0000
0000
0000
0000
0000
1000
0000
0000
0000
0000
0000
,  // measure 55
0001
0000
0000
0000
0000
0000
0000
0000
0000
0000
0000
0000
0001
0000
0000
0000
0000
0000
0000
0010
0000
0000
0000
0000
0200
0000
0000
0000
0000
0000
0000
0000
0000
0000
0000
0300
2000
0000
0000
0000
0000
0000
0000
0000
0000
0000
0000
0000
,  // measure 56
0000
3100
0000
0000
0000
0000
0000
0010
0000
0000
0000
0000
0002
0000
0000
0000
0000
0000
0000
0000
0000
0000
0000
0000
1003
0000
0000
0000
0000
0000
0001
0000
0000
0000
0000
1000
0000
0000
0000
0000
0000
0000
0001
0000
0000
0000
0000
1000
,  // measure 57
0000
0000
0000
0000
0000
0100
0000
0000
0000
0000
0000
0000
0010
0000
0000
0000
0000
0001
0000
0000
0000
0000
0000
0000
1000
0000
0000
0000
0000
0000
0000
0000
0000
0000
0000
0000
2000
0000
0000
0000
0000
0000
0000
0000
0000
3000
0000
0000
,  // measure 58
0000
0100
0000
0000
0000
0000
0000
0010
0000
0000
0000
0000
0002
0000
0000
0000
0000
0000
0000
0000
0000
0000
0000
0000
0000
0000
0000
0000
0000
0000
0003
1000
0000
0000
0000
0000
0000
0000
1000
0000
0000
0000
0000
1000
0000
0000
0000
0000
,  // measure 59
0200
0000
0000
0000
0000
0000
0000
0000
0000
0000
0000
0000
0000
0000
0300
0000
0000
0000
0000
0000
0000
0000
0000
0000
0000
0000
0000
0000
0000
1001
0000
0000
0000
0000
0000
0000
0101
0000
0000
0000
0000
0000
0000
0000
0000
0000
0000
0020
,  // measure 60
0000
0000
0000
0000
0000
0000
0000
0000
0000
0000
0000
0000
0000
0000
0000
0000
0000
0000
0000
0000
0000
0000
0000
0000
0000
0000
0000
0000
0000
0000
0030
0000
0000
0000
0000
0000
0000
0000
0000
0000
0000
0000
0000
0101
0000
0000
0000
0000
,  // measure 61
0000
0000
0010
0000
0000
0000
0000
1000
0000
0000
0000
0000
0000
0100
0000
0000
0000
0000
0000
0000
0000
0000
0000
0000
0200
0000
0000
0000
0000
0000
0000
0000
0000
0000
0000
0000
0000
0000
0000
0000
0000
0000
0000
0000
0000
0000
0000
0000
,  // measure 62
0000
0000
0000
0000
0000
0000
0000
0000
0000
0000
0000
0000
0000
0000
0000
0000
0000
0300
0000
0000
0000
0000
0000
0000
0101
0000
0000
0000
0000
0000
0000
0000
0000
0000
0000
0000
0000
0000
0000
0000
0000
0110
0000
0000
0000
0000
0000
0000
,  // measure 63
0000
0110
0000
0000
0000
0000
0000
0000
0000
0000
0000
0000
0000
0000
0010
0000
0000
0000
0000
0010
0000
0000
0000
0000
0100
0000
0000
0000
0000
0000
0000
0000
0000
0000
0000
2000
0000
0000
0000
0000
0000
0000
0000
0000
0000
0000
0000
0000
,  // measure 64
3000
0100
0000
0000
0000
0000
0020
0000
0000
0000
0000
0000
0000
0000
0000
0000
0000
0000
0000
0000
0000
0000
0000
0030
0000
0000
0000
0000
0000
0000
0000
0000
0000
0000
0000
0000
0000
0000
0000
0000
0000
0000
0001
0000
0000
0000
0001
0000
,  // measure 65
0000
0000
0000
0000
0000
0000
0000
0000
0200
0000
0000
0000
0000
0000
0000
0000
0000
0000
0000
0000
0000
0000
0000
2300
0000
0000
0000
0000
0000
0000
0000
0000
0000
0000
0000
0000
0000
0000
0000
0000
0000
0000
0000
0000
0000
0000
0000
0000
,  // measure 66
0000
3000
0000
0000
0000
0000
0000
0000
0000
0000
0000
0000
0000
0000
0000
0000
0000
0200
0002
0000
0000
0000
0000
0000
0000
0000
0000
0000
0000
0000
0000
0000
0000
0000
0000
0000
0000
0000
0000
0000
0000
0000
0000
0000
0000
0000
0000
0000
,  // measure 67
0003
0300
0000
0000
0000
0000
0000
0000
0000
0000
0000
0000
0000
0000
0000
0000
0000
0000
0000
0000
0000
0000
0000
0101
0000
0000
0000
0000
0000
0000
0000
0000
0000
0000
0010
1000
0000
0000
0000
0000
0000
0000
0000
0000
0000
0000
0000
0101
,  // measure 68
0000
0000
0000
0000
0000
0000
0100
0000
0000
0100
0000
0000
0000
0000
0100
0000
0000
0000
0000
0000
0000
0000
0000
0000
0001
0000
0000
0000
0000
0000
0000
0000
1000
0000
0000
0000
0000
0000
0000
0000
0000
0200
0000
0000
0000
0000
0000
0000
,  // measure 69
0000
0000
0000
0000
0000
0300
0000
0000
0000
0000
0000
0000
0000
0000
0000
0000
0000
0000
0000
0000
0000
0000
0000
0000
0101
0000
0000
0000
0000
0000
0000
0000
0000
0000
0000
0000
0101
0000
0000
0000
0000
0000
0000
0000
0000
0000
0000
0000
,  // measure 70
0101
0000
0000
0000
0000
0000
0101
0000
0000
0000
0000
0000
0101
0000
0000
0000
0101
0000
0000
0000
0000
0000
0000
0000
0020
0000
0000
0000
0000
0000
0000
0000
0000
0000
2000
0030
0000
0000
0000
0000
0000
0000
0000
0200
3000
0000
0000
0000
,  // measure 71
0000
0000
0000
0000
0000
0000
0000
0000
0000
0000
0000
0000
0300
0000
0000
0000
0000
0000
0000
0000
0000
0000
0000
0000
0101
0000
0000
0000
0000
0000
0000
0000
0000
0000
0010
1000
0000
0000
0000
0000
0000
0000
0000
0000
0000
0000
0101
0000
,  // measure 72
0000
0000
0000
0000
0100
0000
0000
0000
0101
0000
0000
0000
0001
0100
0000
0000
0000
0000
0000
0000
0000
0000
0000
0000
0200
0000
0000
0000
0000
0000
0000
0000
0000
0000
0000
0000
0010
0300
0000
0000
0000
0000
0000
0000
0002
0000
0000
0000
,  // measure 73
0000
0000
0000
0000
0000
0000
0000
0000
0000
0000
0000
0000
0000
0000
0000
0000
0000
0000
0003
0000
0000
0000
0000
0000
0101
0000
0000
0000
0000
0000
0000
0000
0000
0000
0000
0010
0100
0000
0000
0000
0000
0000
0000
0000
0000
0000
0000
0000
,  // measure 74
1000
0000
0000
0000
0000
0000
0100
0000
0000
0000
0000
0000
0010
0000
0000
0000
0000
0000
0000
0000
0000
0000
0002
0000
0000
0000
0000
0000
0000
0000
0000
0000
0000
0000
0000
0000
0000
0000
0000
0000
0000
0003
0000
2000
0000
0000
0000
0000
,  // measure 75
0000
0000
0000
0000
0000
0000
0000
0000
0000
0000
0000
0000
0000
0000
0000
0000
0000
0000
0000
0000
0000
0000
0000
0000
0000
0000
0000
0000
0000
0000
0000
3000
0000
0000
0000
0000
0000
0000
0000
0000
0000
0000
0000
0000
0000
0000
0000
0000
,  // measure 76
0000
0000
0000
0000
0000
0000
0000
0000
0000
0000
0000
0100
0010
0000
0000
0000
0110
0000
0000
0000
0000
0000
0000
0000
0001
0000
0000
0000
0000
0000
0000
0000
0000
0000
0010
0000
0000
0000
0000
0000
0000
0000
0000
0000
0000
0000
0000
0000
,  // measure 77
0100
0000
0000
0000
0000
0010
0000
0000
0000
0000
0000
0000
0100
0000
0000
0000
0000
0000
0000
0000
0000
0000
0000
0101
0000
0000
0000
0000
0000
0101
0000
0000
0000
0000
0000
0101
0000
0000
0000
0000
0000
0101
0000
0000
0000
0000
0000
0000
,  // measure 78
0101
0000
0000
0000
0000
0000
0000
0000
0000
0000
0000
0000
0000
0000
0000
0000
0000
0000
0000
0000
0000
0000
0000
0110
0000
0000
0000
0000
0000
0000
0000
0000
0000
0000
0000
0010
1000
0000
0000
0000
0000
0000
0000
0000
0000
0000
0000
0000
,  // measure 79
0100
0000
0000
0000
0000
0000
0000
0000
0000
0000
0000
0000
0000
0001
0000
0000
0000
0000
0000
0000
0000
0000
0000
0000
0000
0000
0000
0000
0000
0000
0000
0101
0000
0000
0000
0000
0000
0000
0000
0000
0000
0000
0010
0000
0000
0000
0000
0100
,  // measure 80
0000
0000
0000
0000
0000
0000
0000
0000
0000
0000
0000
0000
1000
0000
0000
0000
0000
1000
0000
0000
0000
0000
0000
0000
0000
0110
0000
0000
0000
0000
0000
0000
0000
0000
0000
0000
0100
0001
0000
0000
0000
0000
0000
0000
0000
0000
0000
0000
,  // measure 81
0000
0010
1000
0000
0000
0000
0000
0000
0000
0000
0000
0000
0100
0001
0000
0000
0000
0000
0000
0000
0000
0000
0000
0000
0000
0110
0000
0000
0000
0000
0000
0000
0000
0000
0000
0000
0000
0101
0000
0000
0000
0000
0000
0000
0000
0000
0000
0000
,  // measure 82
0110
0110
0101
0010
,  // measure 83
1000
0000
0000
0000
0000
0100
0000
0000
0000
0000
0000
0000
0000
0020
0000
0000
0000
0000
0000
0000
0000
0000
0000
0000
0000
0000
0000
0000
0030
0000
0101
0000
0000
0000
0000
0101
0000
0000
0000
0101
0000
0000
0000
0000
0000
0000
0000
0000
,  // measure 84
0020
0000
0000
0000
0000
0000
0000
0000
0000
0000
0000
0030
0100
0000
0000
0000
0000
0100
0000
0000
0000
0000
0000
2000
0000
0000
0000
0000
0000
0000
0000
0000
0000
0000
0000
0000
0000
0200
3000
0000
0000
0000
0000
0000
0000
0000
0000
0000
,  // measure 85
0310
0000
0000
0000
0000
0000
0001
0000
0000
0000
0000
0020
0000
0000
0000
0000
0000
0000
0000
0000
0000
0000
0000
0000
0030
0100
0000
0000
0000
0000
0000
0010
0000
0000
0000
0000
0000
0100
0000
0000
0000
0000
0010
0000
0000
0000
0000
0002
,  // measure 86
0000
0000
0000
0000
0000
0000
0000
0000
0000
0000
0000
0000
0000
0000
0000
0000
0000
0000
0000
0000
0000
0000
0003
2000
0000
0000
0000
0000
0000
0000
0000
0000
0000
0000
0000
0000
0000
3200
0000
0000
0000
0000
0000
0000
0000
0000
0000
0000
,  // measure 87
0010
0300
0000
0000
0000
0000
0100
0000
0000
0000
0000
0020
0000
0000
0000
0000
0000
0000
0000
0000
0000
0000
0000
0000
0000
0000
0000
0030
0001
0000
0000
0000
0000
0000
0000
0000
0000
0000
0000
0000
0001
0000
0000
0000
0000
0000
2000
0000
,  // measure 88
0000
0000
0000
0000
0000
0000
0000
0000
0000
3000
0000
0000
1000
0000
0000
0000
0000
0000
0000
0200
0000
0000
0000
0000
0000
0020
0000
0300
0000
0000
0000
0000
0000
0000
0000
0000
0031
0000
0000
0000
0000
0010
0000
0000
0000
0000
0000
0001
,  // measure 89
0000
0000
0000
0000
0000
0010
0000
0000
0000
0000
0000
0000
0002
0000
0000
0000
0000
0000
0000
0000
0000
0000
0000
0003
1000
0000
0000
0000
0000
0000
0100
0000
0000
0000
0000
0000
0010
0000
0000
0000
0000
0001
0000
0000
0000
0000
0000
1000
,  // measure 90
0000
0000
0000
0000
0000
0100
0000
0000
0000
0000
0000
0010
0000
0000
0000
0000
0000
0000
0000
0001
0000
0000
0000
0000
0000
1000
0000
0000
0000
0000
0000
0000
0000
0000
0000
0000
2000
0000
0000
0000
0000
0000
0000
0000
0000
0000
3000
0000
,  // measure 91
0100
0000
0000
0000
0000
0000
0010
0000
0000
0000
0000
0000
0000
0000
0002
0000
0000
0000
0000
0000
0000
0000
0000
0000
0000
0000
0000
0000
0000
0003
1000
0000
0000
0000
0000
1000
0000
0000
0000
0000
0000
0000
0100
0000
0000
0000
0000
0100
,  // measure 92
0000
0000
0000
0000
0000
0000
0000
0000
0000
0000
0000
0000
0000
0000
0000
0000
0000
0000
0000
0000
0000
0000
0000
0000
0000
0000
0000
0000
0000
0000
0000
0000
0000
0000
0000
0101
0000
0000
0000
0000
0000
0000
0000
0000
0000
0000
0000
0101
,  // measure 93
0000
0000
0000
0000
0000
0000
0000
0000
0000
0000
0000
0000
0000
0000
0000
0000
0000
0000
0000
0000
0100
0000
0000
0000
0000
0000
0000
0000
0000
0000
1000
0000
0000
0000
0000
0000
0000
0100
0000
0000
0000
0000
1000
0000
0000
0000
0000
0000
,  // measure 94
0000
0100
0000
0000
0000
0000
1000
0000
0000
0000
0000
0000
0100
0000
0000
0000
0000
1000
0000
0000
0000
0000
0000
0000
0000
0000
0000
0000
0000
0000
0000
0000
0000
0000
0000
0000
1010
0000
0000
0000
0000
0000
0000
0000
0000
0000
0000
0000
,  // measure 95
0010
1000
0000
0000
0000
0000
0000
0000
0000
0000
0000
0010
1000
0000
0000
0000
0000
0000
0000
0000
0000
0000
0000
0000
0000
0001
0000
0000
0000
0000
0000
0000
0000
0100
0000
0000
0000
0000
0000
0000
0000
0000
0000
0002
0000
0000
0000
0000
,  // measure 96
0000
0000
0000
0000
0000
0000
0000
0000
0000
0000
0000
0000
0000
0003
0000
0000
0000
0000
0000
0000
0000
0000
0000
0000
0000
0000
0000
0000
0000
0000
0000
0000
0000
0000
0000
1010
0000
0000
0000
0000
0000
0000
0000
0000
0000
0000
0000
1010
,  // measure 97
0000
0000
0000
0000
0000
0000
0000
0000
0000
0000
0000
0000
0000
0000
0000
0000
0000
0000
0000
0000
0010
1000
0000
0000
0000
0000
0000
0000
0000
0000
0000
0100
0000
0000
0000
0000
0000
0010
0000
0000
0000
0000
0000
0100
0000
0000
0000
0000
,  // measure 98
0000
0010
0000
0000
0000
0000
0100
0000
0000
0000
0000
0000
0000
0010
0000
0000
0000
0200
0000
0000
0000
0000
0000
0000
0000
0000
0000
0000
0000
0000
0000
0000
0000
0000
0300
0000
2000
0000
0000
0000
0000
0000
0000
0000
0000
0000
0000
0000
,  // measure 99
0000
0200
3000
0000
0000
0000
0000
0000
0000
0000
0000
0000
0020
0000
0300
0000
0000
0000
0000
0000
0000
0000
0000
0002
0000
0000
0000
0000
0030
0000
0000
0000
0000
0000
0000
0000
0000
0000
0000
0000
0000
0000
0000
0000
0000
0000
0000
0000
,  // measure 100
0003
2000
0000
0000
0000
0000
0000
0000
0000
0000
0000
0000
0000
0000
0000
0000
0000
0000
0000
0000
0000
0000
0000
0000
0000
0002
0000
0000
0000
0000
0000
0000
0000
0000
0000
0000
0000
0000
0000
0000
0000
0000
0000
0000
0000
0000
0000
0000
,  // measure 101
0000
0000
0000
0000
,  // measure 102
0000
0000
0000
0000
0000
0000
0000
0000
0000
3003
0000
0000
0000
0101
0000
0000
0000
0101
0000
0000
0000
0000
0000
0020
0000
0000
0000
0000
0000
0000
0000
0000
0000
0000
0000
0000
0000
2000
0030
0000
0000
0000
0000
0000
0000
0000
0000
0000
,  // measure 103
0000
0100
0000
3000
0000
0000
0000
0000
0010
0000
0000
0000
0200
0000
0000
0000
0000
0000
0000
0000
0000
0000
0000
0000
0000
0010
0300
0000
0000
0000
0001
0000
0000
0000
0000
0000
0010
0000
0000
0000
0000
0100
0000
0000
0000
0000
0000
2000
,  // measure 104
0000
0000
0000
0000
0000
0000
0000
0000
0000
0000
0000
0000
3000
0000
0000
0000
0000
0000
0000
0000
0000
0000
0000
0000
0000
0101
0000
0000
0000
0000
0000
0000
0000
0000
0000
0000
0010
1000
0000
0000
0000
0000
0000
0000
0000
0000
0000
0000
,  // measure 105
0101
0000
0000
0000
0000
0000
0010
0000
0000
0000
0200
0000
0000
0000
0000
0000
0000
0000
0000
0000
0000
0000
0000
0000
0000
0000
0000
0000
0000
0000
0300
1000
0000
0000
0000
0000
0000
0000
0000
0000
0000
0000
0001
0000
0000
0000
0000
0000
,  // measure 106
0010
0000
0000
0110
0110
0000
0002
0000
0000
2003
0000
0000
,  // measure 107
3100
0000
0000
0000
0000
0000
0010
0000
0000
0000
0000
0000
0000
0002
0000
0000
0000
0000
0000
0000
0000
0000
0000
0003
0000
1000
0000
0000
0000
0000
0000
0001
0000
0000
0000
0000
1000
0000
0000
0000
0000
0000
0001
0000
0000
0000
0000
0000
,  // measure 108
1000
0000
0000
0000
0000
0000
0000
0001
0000
0000
0000
0000
0000
1000
0000
0000
0000
0000
0001
0000
0000
0000
0000
0000
0020
0000
0000
0000
0000
0000
0000
0000
0000
0000
0000
0000
0000
0200
0030
0000
0000
0000
0000
0000
0000
0000
0000
0000
,  // measure 109
0000
1300
0000
0000
0000
0000
0000
0001
0000
0000
0000
0020
0000
0000
0000
0000
0000
0000
0000
0000
0000
0000
0000
0000
0000
0000
0000
0030
0000
0100
0001
0000
0000
0000
0000
0000
0000
0000
0000
0000
0000
0100
0000
0000
0000
2000
0000
0000
,  // measure 110
0000
0000
0000
0000
0000
3000
0000
0000
1000
0000
0000
0000
0000
0100
0000
0000
0000
0000
0000
0100
0000
0000
0000
0000
0000
0002
0000
0000
0000
0000
0000
0000
0000
0000
0000
0000
0020
0000
0003
0000
0000
0000
0000
0000
0000
0000
0000
0000
,  // measure 111
0000
0130
0000
0000
0000
0000
0010
0000
0000
0000
0000
0100
0000
0000
0000
0000
0000
0000
0000
0000
0000
0000
0000
0000
0002
0000
0000
0000
0000
0000
0000
0000
0000
0000
0000
0000
2000
0003
0000
0000
0000
0000
0000
0000
0000
0000
0000
0000
,  // measure 112
0200
0000
3000
0000
0000
0000
0000
0000
0000
0000
0000
0000
0300
0000
0000
0000
0000
0000
0000
0000
0000
0000
0000
0000
0000
0002
0000
0000
0000
0000
0000
0000
0000
0003
0000
0000
1000
0000
0000
0000
0000
0000
0000
0000
0000
0000
0000
0000
,  // measure 113
0000
0100
0000
0000
0000
0000
0000
0010
0000
0000
0000
0000
0000
0200
0000
0000
0000
0000
0000
0000
0000
0000
0000
0300
0000
0000
0000
0000
0000
0000
0000
0101
0000
0000
0000
0000
0000
0000
0000
0000
0000
0000
0101
0000
0000
0000
0000
0000
,  // measure 114
0101
0000
0000
0000
0000
0000
0000
0000
0000
0000
0000
0000
1000
0000
0000
0000
0000
1000
0000
0000
0000
0000
0000
0000
0200
0000
0000
0000
0000
0000
0000
0000
0000
0000
0000
0000
0000
0020
0000
0000
0300
0000
0000
0000
0000
0000
0000
0000
,  // measure 115
0000
0002
0000
0030
0000
0000
0000
0000
0000
0000
0000
0000
0000
2000
0000
0000
0000
0003
0000
0000
0000
0000
0000
3000
0000
0001
0000
0000
0000
0000
0000
1000
0000
0000
0000
0000
0000
0001
0000
0000
0000
1000
0000
0000
0000
0000
0000
0000
,  // measure 116
0001
0000
0000
0000
0000
1000
0000
0000
0000
0000
0000
0000
0001
0000
0000
0000
0000
0000
0100
0000
0000
0000
0000
0000
0000
0020
0000
0000
0000
0000
0000
0000
0000
0000
0000
0000
0000
0002
0030
0000
0000
0000
0000
0000
0000
0000
0000
0000
,  // measure 117
1003
0000
0000
0000
0000
0100
0000
0000
0000
0000
0000
0020
0000
0000
0000
0000
0000
0000
0000
0000
0000
0000
0000
0000
0000
0000
0000
0030
0000
0000
0101
0000
0000
0000
0000
0000
0000
0101
0000
0000
0000
0000
0000
0000
0001
0000
0000
0000
,  // measure 118
0002
0000
2000
0000
,  // measure 119
0000
0000
0000
0000
,  // measure 120
3003
0000
0000
0000
;
