#TITLE:Dark Horse;
#SUBTITLE:;
#ARTIST:Katy Perry feat. Juicy J;
#TITLETRANSLIT:;
#SUBTITLETRANSLIT:;
#ARTISTTRANSLIT:;
#GENRE:;
#CREDIT:;
#BANNER:Dark Horse.png;
#BACKGROUND:Dark Horse-bg.png;
#LYRICSPATH:;
#CDTITLE:;
#MUSIC:Dark Horse.mp3;
#OFFSET:0.142;
#SAMPLESTART:45.264;
#SAMPLELENGTH:8.500;
#SELECTABLE:YES;
#BPMS:0.000=132.000,98.000=66.000,114.000=132.000,222.500=66.001,222.750=66.002,223.000=66.000,238.500=132.001,331.000=66.002,331.500=66.000,347.000=132.001;
#STOPS:142.000=1.600
,266.750=1.600
;
#BGCHANGES:;
#KEYSOUNDS:;

//---------------dance-single - 370K----------------
#NOTES:
     dance-single:
     370K:
     Challenge:
     10:
     0.661,1.000,0.436,0.329,0.536:
0000
0000
4000
0000
,
3400
0000
0340
0000
,
0034
0000
0043
0000
,
0034
0000
4003
0000
,
3040
0000
0430
0000
,
0304
0000
0403
0000
,
0340
0000
4030
0000
,
3004
0000
0000
0003
1001
0000
0000
0000
,
0000
0000
0000
1000
0100
0010
0200
0000
,
0300
0000
0000
0000
1000
1000
0010
0010
,
0100
0001
0010
0100
1000
0100
0002
0000
,
0003
0000
0100
1000
1000
0001
0100
0000
,
0101
0001
1001
0010
0400
0000
0000
0000
,
0300
0000
0000
1000
0100
0001
0100
1000
,
0001
1000
0001
0000
1001
0000
0000
0000
0000
0000
0000
0000
0000
0000
0100
0000
,
0100
0010
0100
0000
0110
0000
0000
0000
0000
0000
0000
0000
0000
0000
1000
0000
,
0100
0010
0100
0000
0101
0000
0000
0000
0020
0000
0000
0000
2030
0000
3200
0000
,
0320
0000
0030
0000
0020
0000
0030
0000
0002
0023
0230
2300
3200
0320
0032
0023
,
0230
0300
0000
0000
1100
0000
0000
0000
0200
0000
0000
0000
0320
0000
0230
0000
,
0302
0000
0003
0000
0002
0000
0003
0000
0020
0230
2300
3200
0320
0032
0023
0230
,
2300
3000
0000
0000
1001
0000
0100
0000
0040
0000
0000
0000
0000
0000
0000
0000
,
0030
0000
0000
0000
1000
0000
0001
1000
,
0110
1001
0110
0000
0000
0000
0000
1000
,
0100
0100
0101
0000
0000
0000
0000
0100
,
0010
0000
0010
0100
0010
0100
0010
0100
1001
0000
0000
0000
1000
1000
0100
0100
,
0010
0000
0001
0020
0000
0200
0000
0330
0000
0000
0000
0000
1000
0000
0100
0100
,
0001
0000
0010
0010
0200
0000
0000
2300
0200
3000
0300
0000
0010
0010
0001
0100
,
2000
0000
0100
0100
0000
0200
0000
0000
3300
0000
0000
0000
0010
0001
0100
0100
,
1000
0000
1000
0000
0100
0000
0010
0000
0001
0010
0100
1000
0100
0010
0001
0010
0100
0000
0000
0000
0000
0000
0000
0000
0000
0000
0000
0000
0000
0000
0000
0000
,
1111
0000
0100
0010
0001
0010
0100
0000
,
1000
0100
1000
0000
0000
0000
0000
0000
,
1111
0000
0000
0010
0001
0100
0100
0000
,
0100
0001
0100
0000
1111
0000
0000
0000
,
1111
0000
0000
0010
1100
0010
0101
0000
,
1100
0110
0011
0000
1111
1000
1111
0100
,
1111
0010
1111
0001
1111
0100
0000
0000
,
1000
1100
0000
0110
0000
0000
0000
0000
,
0011
0110
0000
1100
0000
1100
0000
0000
,
0100
0011
0000
1100
0000
0000
0000
0000
,
0100
0202
0000
1000
0303
0010
0100
4000
,
0000
0000
3000
0000
0010
0001
0001
0100
,
0100
1000
1000
0010
0000
1000
0100
0040
,
0000
0000
0030
0000
0000
0001
0010
0001
,
1000
0010
0100
0001
0000
1100
0100
0220
,
0000
0000
0330
0000
0000
0001
0010
0100
,
0010
0010
0010
0110
0000
MMMM
0000
0000
,
0100
1000
0100
0101
0000
0000
0000
0000
,
0000
0000
1000
1000
1000
2000
0000
3200
,
0320
0000
0032
0000
0000
0000
0020
0000
0003
0000
0230
2300
3200
2300
3200
2300
,
3200
2300
3200
0300
0000
0000
0001
0000
0100
0000
1000
0000
0000
0000
1000
0000
,
0100
0000
0001
0000
0000
0000
0010
0000
0000
0000
0100
0010
0100
0001
0100
1000
,
0100
0010
0110
0000
0000
0000
0100
0000
0010
0000
0001
0000
0010
0000
0400
0000
,
0000
0000
0300
0000
0100
1000
0010
0001
,
0100
0010
0100
0110
0000
MMMM
0000
0000
,
0000
0000
0010
0100
0010
0000
0110
0000
0000
0000
MMMM
0000
0000
0000
0010
0000
,
0100
0000
1000
0000
1000
0000
0400
0000
0000
0000
1301
0000
0000
0000
1000
1000
,
0100
0100
0020
0000
0032
0023
0000
0200
0000
0000
0000
0000
0330
0000
1000
0000
,
0100
0010
0001
0000
0010
0010
0200
0000
2300
0200
3000
0000
0300
0000
0010
0010
,
0001
0002
0100
0000
0100
0100
0000
0100
0003
0000
0000
0000
0000
0000
0010
0100
,
1000
0000
1000
0000
0100
0000
0100
0000
0010
0000
0010
0000
0001
0010
0100
1000
0100
0010
0001
0100
1100
0000
0000
0000
0000
0000
0000
0000
0000
0000
0000
0000
,
0000
1111
0000
0001
0100
1000
0100
0001
,
0000
0001
0010
1000
0000
0000
0000
0000
,
0000
1111
0000
0000
0101
0100
1100
0100
,
0000
0011
0010
1010
0000
1111
0000
0000
,
0000
1111
0000
0000
0110
0010
0011
0010
,
0000
0110
0100
1100
0000
1111
1000
1111
,
0001
1111
0010
1111
0100
1111
0100
0000
,
0000
0000
1000
0100
0110
0000
0000
0000
,
0001
0000
0001
0010
0100
1000
0100
1100
,
0100
0110
0010
0011
,
0000
0001
1000
1000
0001
0010
0110
0000
,
0000
1000
1100
0000
0110
0000
0011
0000
,
0000
0001
0011
0000
0110
0000
1000
0000
,
0000
1000
0011
0000
0000
0010
0110
0000
,
0000
0000
0100
0000
1100
0000
0000
0000
0000
0000
1000
0100
0010
0000
0001
0010
,
0000
1000
0100
0000
0100
0000
0000
0000
0040
0000
1030
0100
0001
0000
0001
0010
,
0000
0100
0010
0001
0010
0000
0010
0000
0440
0000
1330
0000
0100
0000
0000
0010
,
0000
0001
0010
0000
1000
0100
0000
0010
0000
0000
0001
0000
0010
0000
0000
0100
,
0000
1000
0100
0000
0010
0000
0010
0000
0400
0000
1300
0000
0100
0000
0100
0000
,
0001
0000
0010
0010
0100
1000
0100
0010
,
0001
0000
0010
0100
0010
0000
1000
0000
0100
0000
0100
0000
0010
0000
0001
0000
,
0001
1000
1000
0100
0100
0010
0110
0011
,
1010
0000
0000
0000
0101
0000
0000
0000
1001
0000
0000
0000
0440
0000
0000
0000
0000
0000
0000
0000
0330
0000
0000
0000
1000
0100
1000
0100
1000
0000
0000
0000
,
0010
0100
0010
0100
0010
0000
0000
0000
0001
0000
0100
0000
1000
0000
0100
0000
0110
0000
0000
0100
0010
0000
0010
0000
1000
0000
0100
0000
0010
0000
0100
0000
,
1000
0000
0000
0000
0000
0000
0000
0000
0000
0000
0000
0000
1000
0000
0000
0000
0000
0000
0000
0000
0000
0000
0000
0000
0100
0000
0000
0000
0000
0000
0000
0000
0000
0000
0000
0000
0001
0000
0000
0000
0000
0000
0000
0000
0000
0000
0000
0000
0010
0000
0000
0000
0000
0000
0000
0000
0000
0000
0000
0000
0010
0000
0000
0000
0000
0000
0001
0000
0000
0000
0000
0000
0010
0000
0000
0000
0000
0000
0000
0000
0000
0000
0000
0000
0100
0000
0000
0000
0000
0000
0000
0000
0000
0000
0000
0000
1000
0000
0000
0000
0000
0000
0000
0000
0000
0000
0000
0000
0440
0000
0000
0000
0000
0000
0000
0000
0330
0000
0000
0000
0440
0000
0000
0000
0000
0000
0000
0000
0300
0000
0000
0000
0031
0000
0000
0000
0000
0000
0000
0000
0000
0000
0000
0000
0010
0000
0000
0000
0000
0000
0000
0000
0000
0000
0000
0000
0100
0000
0000
0000
0000
0000
0000
0000
0000
0000
0000
0000
1000
0000
0000
0000
0000
0000
0000
0000
0000
0000
0000
0000
1000
0000
0000
0000
0000
0000
0000
0000
0000
0000
0000
0000
,
0200
0000
0310
0010
0001
0001
0010
0001
0100
0100
1000
0100
0001
0100
4000
0000
,
3100
0010
0001
0010
0010
0100
0100
2000
0002
0020
3033
0000
1001
0100
0010
0100
,
0001
0100
0010
0100
1000
0100
0010
0001
0010
0100
0010
1000
0100
0010
0001
0100
,
0010
0100
1000
0100
0010
0100
1000
0100
0001
0010
0100
0001
1000
0100
0010
0100
,
0001
0010
1000
0100
0010
0100
0001
0010
0001
1000
0100
0010
0100
0001
0010
0100
,
1000
0001
0010
0100
0001
0010
1000
0100
0010
0100
0010
0001
0010
0100
0010
0001
,
0100
1000
0100
0001
0100
0010
0100
1000
0100
0001
0100
0010
1000
0010
1000
0100
,
1000
0100
1000
0001
1000
0010
1000
0001
1000
0100
0001
0010
0001
0010
0001
1000
,
0001
0100
0001
1000
0001
0010
0001
1000
0010
0001
0100
0010
0001
0100
1000
0001
,
0010
0001
0100
1000
0010
0001
1000
0010
0100
1000
0010
0100
0001
0010
0100
0010
,
1000
0010
0100
0010
1111
0100
0010
1000
0100
0001
1000
0100
0010
0100
0001
0100
,
0010
0100
1000
0100
0010
0001
0010
0100
1000
0100
0010
0001
1000
0001
0100
0010
,
1000
0001
0010
0100
1111
1000
0001
0100
0010
1000
0100
0001
0010
0100
0010
0100
,
1000
0100
1000
0100
0010
0001
0100
0001
0100
0010
0001
0100
0010
1000
0100
0010
,
0001
0100
1000
0010
1111
1000
0100
1000
0100
0010
0100
0010
0001
0010
0001
0010
,
0100
1000
0100
1000
0100
0001
0100
0010
0001
0100
1000
0010
1111
0010
0100
0010
,
1111
1000
0001
1000
1111
0010
0001
0010
1111
0100
1000
0100
1111
0000
0000
0000
,
0002
0000
0020
0003
0230
0000
2300
0000
3400
0000
M000
0000
00M0
0000
000M
0000
,
00M0
M000
03M0
0000
0000
0000
0000
0000
;
