#TITLE:Daft Punk;
#SUBTITLE:;
#ARTIST:Pentatonix;
#TITLETRANSLIT:;
#SUBTITLETRANSLIT:;
#ARTISTTRANSLIT:;
#GENRE:;
#CREDIT:;
#BANNER:;
#BACKGROUND:;
#LYRICSPATH:;
#CDTITLE:;
#MUSIC:[Official Video] Daft Punk - Pentatonix (mp3cut.net).mp3;
#OFFSET:-0.596000;
#SAMPLESTART:100.125000;
#SAMPLELENGTH:12.000000;
#SELECTABLE:YES;
#DISPLAYBPM:0.000000;
#BPMS:0.000000=133.020004
,368.000000=66.510002
,384.000000=133.020004
;
#STOPS:64.000000=0.451000,
64.500000=0.451000,
65.000000=0.451000,
65.500000=0.451000,
68.000000=0.451000,
68.500000=0.451000,
69.000000=0.451000,
69.500000=0.451000,
72.000000=0.451000,
72.500000=0.451000,
73.000000=0.451000,
73.500000=0.451000
;
#BGCHANGES:;
#KEYSOUNDS:;
#ATTACKS:;

//---------------dance-single - ----------------
#NOTES:
     dance-single:
     :
     Hard:
     10:
     0.435983,0.757532,0.228789,0.592400,0.136865,546.000000,56.000000,145.000000,0.000000,0.000000,0.000000,0.435983,0.757532,0.228789,0.592400,0.136865,546.000000,56.000000,145.000000,0.000000,0.000000,0.000000:
0000
0000
0000
0000
,
0000
0000
0000
0000
,
0000
0000
0000
0000
,
0000
0000
0000
0000
,
0000
0000
0000
0000
,
0000
0000
0000
0000
,
0000
0000
0000
0000
,
0000
0000
0000
0000
,
2001
0000
0001
0000
,
0001
0000
0001
0000
,
3020
0000
0100
0000
,
0100
0000
0100
0030
,
2200
3300
0202
0303
,
0022
0033
2020
3030
,
1100
1100
1001
1001
,
0201
0000
0310
0000
,
2000
3020
0230
0302
1003
0200
0000
0000
,
0320
0032
0203
0320
1030
1000
0100
0010
,
0200
2300
3002
0203
0301
0020
0000
0130
,
2200
3300
2200
3300
2002
3003
2002
3003
,
0010
0000
0000
0000
,
0100
0000
0000
0100
0000
0000
0010
0000
0000
1000
0000
0000
0001
0000
0000
0010
,
0000
0000
0010
0000
0000
0100
0000
0000
1000
0000
0000
0010
0000
0000
0010
0000
,
0100
0000
0000
0001
0000
0000
0010
0000
0000
0100
0000
0000
0001
0000
0000
0100
,
0000
0000
1000
0000
0000
0010
0000
0000
0100
0000
0000
0001
0000
0000
0100
0000
,
0210
0000
0000
0010
0000
0000
0302
0000
0000
1000
0000
0000
0023
0000
0000
0100
,
0000
0000
0032
0000
0000
0010
0000
0000
0203
0000
0000
0010
0000
0000
0301
0000
,
2001
0000
0000
0010
0000
0000
3200
0000
0000
0010
0000
0000
2300
0000
0000
0010
,
0000
0000
3002
0000
0000
1000
0003
0000
0220
0000
0000
0000
0000
0000
0330
0000
,
2001
0000
3100
0000
1000
0100
0010
0002
,
0000
0010
0000
1000
0000
0103
0001
2000
,
0000
0010
0000
0001
0000
3100
0001
0200
,
0000
1000
0000
0001
0000
0310
0000
1000
,
1002
0000
0100
0000
0013
0100
1000
0002
,
0000
1000
0000
0100
0000
0013
0100
0002
,
0000
1000
0000
0100
0000
1003
0001
0200
,
0000
1300
0001
1000
1001
0000
0000
0000
,
1000
0000
0010
0000
1000
0001
2002
3003
,
0010
0000
1000
0000
0100
1000
2002
3003
,
0010
0000
0100
0000
1000
0001
2002
3003
,
0100
0000
0010
0000
1000
0001
1001
1000
,
0100
0000
0010
0000
0001
1000
2200
3300
,
0010
0000
0001
0000
0100
0010
2020
3030
,
0100
0000
0001
0000
0010
0001
0022
0033
,
0100
0000
0000
0000
,
0100
0000
0000
0000
,
0100
0000
0000
0000
,
0001
1000
0000
0001
0000
1000
0001
0000
0010
0000
0010
0000
0100
0000
0100
0000
,
1000
1000
0000
0010
0000
0100
0000
0002
,
0000
0000
0000
0003
1000
0000
0000
0000
0010
0000
1000
0000
0001
1000
0001
0000
,
0010
0010
0000
0100
0000
1000
0000
0002
,
0000
0000
0000
0000
2000
0000
0000
3003
,
0010
1000
0001
0000
0010
0000
0000
0100
,
1000
0100
1000
0001
0200
0000
0310
0000
,
0000
0000
1000
0000
0000
0010
0000
0000
0001
0000
0000
0000
0000
0000
1000
0000
,
0100
1000
0100
1000
0002
0000
0013
0100
,
0000
1000
0001
0001
0100
0010
0000
1000
,
0100
1000
0100
1000
0100
1000
0002
0000
,
0003
0000
0100
0100
0010
0010
1000
0002
,
0000
0023
0000
0230
0000
0020
0000
0330
,
2200
0000
0000
3000
,
0020
0000
0000
0300
,
0002
0000
0000
0030
,
0200
0000
0000
0003
,
0020
0000
0000
0300
,
2000
0000
0000
0030
,
3002
1000
1000
1003
,
0010
0100
0001
1000
1001
0000
0000
0000
,
1000
0000
0010
1000
0002
0000
0103
0200
,
0000
0310
1000
0001
1000
0001
1000
0010
,
0200
0302
2003
3002
,
0013
0100
1000
0001
2000
0000
3020
0000
,
0130
0000
0001
1000
0100
0100
0010
0002
,
0000
0103
0010
0100
0001
1000
0100
1000
,
1010
0101
0011
1100
,
2002
0000
0000
0000
0000
0000
0000
3003
,
0100
0000
0000
0000
,
0010
0000
0000
0000
,
1000
0000
0000
0000
,
0001
0000
1000
1000
,
1010
1001
1100
0000
,
0011
1001
0101
0000
,
1010
0101
0011
1100
,
1001
0000
0100
0100
,
1000
0000
0000
0001
0000
0000
0002
0000
1000
0000
0000
0103
0000
0000
0200
0000
,
0010
0000
0000
0301
0000
0000
0002
0000
0010
0000
0000
1003
0000
0000
2000
0000
,
0010
0000
0000
3001
0000
0000
0200
0000
0001
0000
0000
0310
0000
0000
2000
0000
,
0001
0000
0000
3100
0000
0000
0020
0000
1000
0000
0000
0001
0030
0000
0100
0000
,
1001
0001
0100
0100
0010
0001
0010
0001
,
0010
1000
0100
0010
0001
0100
0010
0100
,
0001
0001
0010
0010
0001
0100
0000
0001
,
0010
0000
0001
1000
,
2100
0000
0000
0000
3100
0010
0000
0002
0000
2003
0000
0000
3002
0000
0203
0000
,
0320
0000
0000
0000
2030
0000
3001
0200
0000
0020
0300
1000
2030
0000
3002
0020
,
0003
0230
0000
0300
0100
2000
0000
3002
0000
0203
0000
0010
0320
0000
2030
0000
,
0200
0000
0000
0000
0000
0000
0000
0000
0000
0000
0000
0000
3000
0000
0000
0000
0310
0000
0001
0010
0000
0100
0010
0000
0100
1000
0000
0010
1000
0000
0100
0000
,
0020
0000
0000
0000
,
0002
0000
0000
0030
,
0200
0000
0000
0003
,
0020
0000
0300
0000
1000
1000
0000
1030
,
0002
0000
0020
0030
,
0020
0003
0200
0300
,
0200
0030
2000
3000
,
1300
0100
0010
0002
0000
0103
0010
1000
,
0001
0100
0000
0010
0000
1000
0000
0002
,
0000
0010
0000
0013
0100
1000
0010
0200
,
0000
1000
0000
0301
1000
0010
0100
0020
,
0000
1000
0000
0100
0000
0031
0010
1000
,
2001
0001
0000
3100
1000
0010
0100
0002
,
0000
0010
0000
0103
0001
0100
0010
2000
,
0000
0001
0000
3010
0100
0010
1000
0200
,
0010
0010
0010
0010
0020
0000
0330
0000
,
1100
0000
0000
0000
0000
0000
0000
0100
,
0010
0000
0000
0000
0000
0000
0000
0010
,
0001
0000
0000
0000
0000
0000
0000
0001
,
0100
0000
0000
0200
,
0310
0000
0000
0010
0000
0000
0010
0000
1000
0000
0000
1000
0000
0000
0100
0000
,
0010
0000
0000
0010
0000
0000
0010
0000
0001
0000
0000
0001
0000
0000
0100
0000
,
0010
0000
0000
0010
0000
0000
1000
0000
0100
0000
0000
0010
0000
0000
0100
0000
,
1001
0000
0011
0011
,
1000
0000
0100
1000
0000
0001
0000
1000
0000
0100
1000
0000
0001
0000
0100
0000
,
0110
0000
1000
0001
0100
0000
0010
2000
,
0000
3100
0000
0010
0001
0001
1000
1001
,
0000
0000
0000
1000
0000
0000
0100
0000
0000
0010
0000
0000
0001
0000
1000
0000
0001
0000
1000
0000
0000
0000
0000
0000
,
0010
0000
0100
0010
0000
1000
0000
0001
0000
0100
0010
0000
0120
0000
0000
0000
,
2030
0000
3100
0010
0002
0000
0103
0020
,
0000
0230
0000
0310
1000
0100
1001
0000
,
0001
0100
1000
0001
0010
1000
0100
0001
;

//---------------dance-single - ----------------
#NOTES:
     dance-single:
     :
     Challenge:
     14:
     0.704460,1.000000,0.367697,0.535203,0.524989,986.000000,90.000000,131.000000,0.000000,0.000000,0.000000,0.704460,1.000000,0.367697,0.535203,0.524989,986.000000,90.000000,131.000000,0.000000,0.000000,0.000000:
0000
0000
0000
0000
,
0000
0000
0000
0000
,
0000
0000
0000
0000
,
0000
0000
0000
0000
,
0000
0000
0000
0000
,
0000
0000
0000
0000
,
0000
0000
0000
0000
,
0000
0000
0000
0000
,
1100
0100
0010
0001
0100
0100
0010
1000
,
0100
0100
0010
0001
0100
0010
0010
0010
,
1100
1000
0001
0100
0010
0010
1000
0100
,
0010
0010
0001
0100
0010
1000
1000
1000
,
1100
0010
0001
0100
0101
0010
1000
0100
,
1100
0010
0001
0100
0101
0010
1000
0100
,
0011
1000
1010
0001
0101
1000
1100
0010
,
0110
0100
0010
0100
0010
0000
0100
0000
,
2002
3003
0000
0000
0000
0000
0000
0000
0202
0303
0000
0000
0000
0000
0000
0000
0022
0033
0000
0000
0000
0000
0000
0000
0220
0330
0000
0000
0000
0000
0000
0000
1000
0000
0000
0000
0000
0000
0000
0000
0102
0000
0000
0000
0000
0000
0000
0000
0000
0000
0000
0000
0000
0000
0000
0000
1003
0000
0000
0000
0000
0000
0000
0000
,
2200
3300
0000
0000
0000
0000
0000
0000
0022
0033
0000
0000
0000
0000
0000
0000
0202
0303
0000
0000
0000
0000
0000
0000
2020
3030
0000
0000
0000
0000
0000
0000
0100
0000
0000
0000
0000
0000
0000
0000
0120
0000
0000
0000
0000
0000
0000
0000
1000
0000
0000
0000
0000
0000
0000
0000
0130
0000
0000
0000
0000
0000
0000
0000
,
2002
3003
0000
0000
0000
0000
0000
0000
2200
3300
0000
0000
0000
0000
0000
0000
0220
0330
0000
0000
0000
0000
0000
0000
0022
0033
0000
0000
0000
0000
0000
0000
0100
0000
0000
0000
0000
0000
0000
0000
2001
0000
0000
0000
0000
0000
0000
0000
0000
0000
0000
0000
0000
0000
0000
0000
3100
0000
0000
0000
0000
0000
0000
0000
,
0210
0000
0301
2000
0000
3100
0001
0100
1000
0001
0100
0010
,
0100
0000
0000
0000
0010
0000
1000
0000
0001
0100
0000
0010
0000
0100
0000
0001
,
2000
0000
0000
3200
0000
0000
0320
0000
0000
0032
0000
0000
0100
0000
0000
2003
,
0000
0000
3020
0000
0000
0030
1000
0000
0002
0000
0000
0103
0000
0010
0000
1000
,
0002
0000
0000
0203
0000
0000
0320
0000
0000
2030
0000
0000
3002
0000
0000
0023
,
0000
0000
0230
0000
0000
0300
1000
0000
0010
0000
0100
0010
0000
0100
0000
0010
,
2001
0000
0000
3200
0000
0000
2300
0000
0000
3020
0000
0000
0100
0000
0000
2030
,
0000
0000
0100
0000
0000
0000
3001
0000
0100
0000
0010
1000
0000
0100
0000
0010
,
0002
0000
0000
2003
0000
0000
3020
0000
0000
0230
0000
0000
0302
0000
0000
0023
,
0000
0000
0230
0000
0000
1300
0000
0000
2002
0000
0000
0000
0000
0000
3003
0000
,
1100
0000
0000
0100
0010
0000
0001
0000
0100
0000
0010
1000
0010
0000
0200
0000
,
0001
0000
0000
0310
1000
0000
0001
0000
0010
0000
0100
1000
0100
0000
0020
0000
,
0001
0000
0000
0130
1000
0000
0001
0000
0100
0000
0010
1000
0001
0000
0020
0000
,
0100
0000
0000
1030
0010
0000
0001
0000
0100
0000
0010
1000
0100
0000
0010
0000
,
2001
0000
0000
3100
0010
0000
0001
0000
0100
0000
1000
0100
0001
0000
0020
0000
,
0100
0000
0000
0031
1000
0000
0100
0000
0001
0000
0100
1000
0010
0000
0002
0000
,
0010
0000
0000
1003
0100
0000
0001
0000
0010
0000
0100
1000
0001
0000
0020
0000
,
1000
0000
0000
0031
1000
0000
0010
0100
0002
0000
0000
0000
1003
0000
0000
0000
,
0010
0000
1000
0001
0000
0100
0000
0001
0000
1000
0010
0000
0200
0000
0000
0000
,
0301
0000
0010
0001
0000
1000
0000
0001
0000
0010
0100
0000
2000
0000
0000
0000
,
3010
0000
0100
0001
0000
1000
0000
0001
0000
0100
0010
0000
2000
0000
0000
0000
,
3100
0000
0010
0001
0000
1000
0000
0001
0000
0100
0001
0000
0100
0000
0100
0000
,
0010
0000
1000
0001
0000
0100
0000
0001
0000
1000
0100
0000
0020
0000
0000
0000
,
0031
0000
0100
0001
0000
1000
0000
0001
0000
0100
0010
0000
2000
0000
0000
0000
,
3100
0000
0010
0001
0000
1000
0000
0001
0000
0100
0010
0000
2000
0000
0000
0000
,
3100
0000
0010
0001
0000
0010
0000
0100
0000
1000
0001
0000
0100
0000
0100
0000
,
1010
0000
0100
0010
0000
1000
0000
0010
0000
0100
0001
0000
0010
0000
0010
0000
,
0110
0000
1000
0001
0000
0100
0000
0001
0000
0100
0000
0010
0000
1000
0001
0000
,
0010
0100
0000
0010
0000
0001
0100
0000
0010
0000
0010
0000
0100
0000
0100
0000
,
1010
0010
1000
0001
0000
0010
0100
2000
,
0000
0000
3010
0000
0010
0000
0100
0000
0001
0010
0100
1000
0100
0010
0100
0000
,
1000
1000
0001
0100
0000
0010
1000
0001
,
0010
0000
0010
0000
0010
0000
0000
0010
0100
0000
0100
0000
1000
0001
1000
0000
,
0010
0100
0001
0100
2000
0000
3100
0001
,
0010
1000
0010
0100
2000
0000
3020
0130
,
0001
0000
1000
0000
0000
0010
0000
0000
0101
0000
0000
0000
1000
0000
0100
0000
,
0001
0100
1000
0100
0002
0000
0103
1000
,
0010
0100
0001
0001
0020
0130
0000
1000
,
0010
0100
1000
0100
0010
1000
0002
0000
,
0003
0010
0100
0001
0100
1000
0010
0200
,
0000
0320
0000
2030
0000
0002
0000
3003
,
0021
0001
0000
1000
0000
0001
0000
0230
,
0000
1300
0001
2000
0000
3010
0100
0001
,
2001
0001
0000
0010
0000
0100
0000
3002
,
0000
0103
0010
1000
0100
0010
0001
0100
,
0210
0010
0000
1000
0000
0001
0000
0320
,
0000
1030
0100
0100
0001
0100
1000
0000
,
1000
0010
0100
0001
0000
0001
0100
0010
,
1000
0100
0010
0001
1002
0000
0103
0000
,
1020
0000
0000
1030
0001
0000
0100
0000
0210
0000
0000
0310
1000
0000
0001
0000
,
1000
0001
0000
0100
0001
0000
0100
0000
0010
0000
2002
0000
3000
0000
0103
0000
,
0120
0000
0000
0130
0001
0000
1000
0000
2100
0000
0000
3100
0010
0000
0001
0000
,
0100
0010
0000
1000
0010
0000
0100
0000
0001
0000
2002
0000
0003
0000
3010
0000
,
1020
0000
0000
1030
0001
0000
0010
0000
0012
0000
0000
0013
0100
0000
1000
0000
,
0001
0100
0000
0100
0010
0000
1000
0000
0100
0000
0022
0000
0030
0000
0103
0000
,
0010
0000
1000
0010
0000
0000
1000
0000
0001
1000
0000
0000
0100
0000
0010
0100
0000
0000
0010
0000
0001
0010
0000
0000
,
0220
0000
0000
0000
0000
0000
0000
0330
,
1100
0010
0001
0100
0001
0010
0100
1000
,
1100
1000
0001
1000
0001
0010
0100
0010
,
1100
0010
0001
1000
0001
0010
0100
1000
,
0101
0100
0010
1000
0001
0001
1000
1000
,
1100
1000
0101
1000
0011
0100
0010
0001
,
1100
1000
0101
0010
1100
0001
0100
0010
,
1010
0100
1001
0010
0101
1000
0110
0100
,
1001
0000
0100
0000
0010
0000
0001
0000
0100
0000
0100
0000
1000
0000
1000
0100
,
0001
0000
0001
0000
0010
0000
0010
0000
0200
1000
0000
0310
0000
0001
0000
0200
,
0000
0000
0310
0000
1000
0000
0001
0000
0200
0010
0000
0301
0000
0000
0000
0000
,
2000
0100
0000
3001
0000
0100
0001
0000
0010
0000
1000
0000
0010
0000
0001
0100
,
0000
1000
0000
0100
0000
0010
1000
0000
0001
0000
0010
0000
0000
0000
0000
0000
,
1001
0000
1000
0010
0000
0001
0010
0000
0110
0000
0001
0100
0000
1000
0100
0000
,
0110
0000
1000
0100
0000
0001
0010
0000
1100
0000
0001
0100
0000
0010
1000
0000
,
0101
0000
1000
0100
0000
0001
0100
0000
0011
0000
1000
0100
0000
0100
0001
0000
,
1001
0100
0010
1000
0001
1000
1000
0100
,
2200
0000
0000
0000
0000
0000
0000
0000
0000
0000
0000
0000
0000
0000
0000
0000
0000
0000
0000
0000
0000
0000
0000
0000
0000
0000
0000
0000
0000
0000
0000
0000
0000
0000
0000
0000
3300
0000
0000
0000
0000
0000
0000
0000
0000
0000
0000
0000
0010
0000
0000
0000
0000
0000
0000
0000
0001
0000
0000
0000
0000
0000
0000
0000
1000
0000
0000
0000
0000
0000
0000
0000
0001
0000
0000
0000
0000
0000
0000
0000
0000
0000
0000
0000
0100
0000
0000
0000
0000
0000
0010
0000
0000
0000
0000
0000
0100
0000
0000
0000
0000
0000
0001
0000
0000
0000
0000
0000
0100
0000
0000
0000
0000
0000
0010
0000
0000
0000
0000
0000
1000
0000
0000
0000
0001
0000
0000
0000
1000
0000
0000
0000
0001
0000
0000
0000
1000
0000
0000
0000
0001
0000
0000
0000
1000
0000
0000
0000
0000
0000
0000
0000
0000
0000
0000
0000
0001
0000
0000
0000
0000
0000
0100
0000
0000
0000
0000
0000
0000
0000
0000
0000
0000
0000
0010
0000
0000
0000
0000
0000
0100
0000
0000
0000
0000
0000
0001
0000
0000
0000
0000
0000
,
1000
0000
0000
0000
0000
0000
0000
0000
0100
0000
0000
0000
0000
0000
0000
0000
0010
0000
0000
0000
0000
0000
0000
0000
0001
0000
0000
0000
0000
0000
0000
0000
1000
0000
0000
0000
0000
0000
0000
0000
0001
0000
0000
0000
0000
0000
0000
0000
1001
0000
0000
0000
0000
0000
0000
0000
0000
0000
0000
0000
0001
0000
0000
0000
0000
0000
0000
0000
0000
0000
0000
0000
0001
0000
0000
0000
0000
0000
0000
0000
0000
0000
0000
0000
0100
0000
0000
0000
0000
0000
0000
0000
0000
0000
0000
0000
0010
0000
0000
0000
0000
0000
1000
0000
0000
0000
0000
0000
0001
0000
0000
0000
0000
0000
1000
0000
0000
0000
0000
0000
0010
0000
0000
0000
0000
0000
1000
0000
0000
0000
0000
0000
0010
0000
0000
0000
0000
0000
1000
0000
0000
0000
0000
0000
0001
0000
0000
0000
0000
0000
0000
0000
0000
0000
0000
0000
1000
0000
0000
0000
0000
0000
0010
0000
0000
0000
0000
0000
0000
0000
0000
0000
0000
0000
0010
0000
0000
0000
0000
0000
0100
0000
0000
0000
0000
0000
0001
0000
0000
0000
0000
0000
,
1000
0000
0000
0000
0000
0000
0000
0000
0000
0000
0000
0000
0100
0000
0000
0000
0000
0000
0000
0000
0000
0000
0000
0000
0010
0000
0000
0000
0000
0000
0001
0000
0000
0000
0000
0000
0010
0000
0000
0000
0000
0000
0001
0000
0000
0000
0000
0000
1000
0000
0000
0000
0000
0000
0000
0000
0000
0000
0000
0000
0010
0000
0000
0000
0000
0000
0000
0000
0000
0000
0000
0000
0010
0000
0000
0000
0000
0000
0000
0000
0000
0000
0000
0000
0100
0000
0000
0000
0000
0000
0000
0000
0000
0000
0000
0000
0001
0000
0000
0000
0000
0000
1000
0000
0000
0000
0000
0000
0100
0000
0000
0000
0000
0000
0000
0000
0000
0000
0000
0000
0010
0000
0000
0000
0001
0000
0000
0000
0010
0000
0000
0000
0001
0000
0000
0000
0010
0000
0000
0000
0001
0000
0000
0000
0010
0000
0000
0000
0000
0000
0000
0000
0100
0000
0000
0000
0000
0000
0000
0000
1000
0000
0000
0000
0000
0000
0000
0000
0001
0000
0000
0000
0000
0000
0000
0000
0100
0000
0000
0000
0000
0000
0000
0000
0010
0000
0000
0000
0000
0000
0000
0000
,
2000
0000
0000
0000
0000
0000
0000
0000
3001
0000
0000
0000
0000
0000
0000
0000
0100
0000
0010
0100
0000
0001
0100
0000
1000
0100
0000
0010
0100
0000
1000
0000
,
0100
0001
0001
0100
0001
0001
0100
0002
,
0200
0000
0000
0300
,
1003
0100
0010
0001
0200
0000
0310
2000
,
0200
0000
0000
3000
0010
0010
0000
0310
,
0001
0100
1000
0001
0010
1000
0100
0002
,
0000
0103
1000
0010
0100
0001
0010
0100
,
0001
0100
1000
0010
0100
0001
1000
1001
,
1000
0100
0010
0002
0000
0103
0010
1000
,
0002
0000
0000
0103
0010
0000
0100
0000
0001
0000
1000
0010
0100
0000
0020
0000
,
0001
0000
0000
0130
0001
0000
1000
0000
0100
0000
0010
0001
0100
0000
0020
0000
,
1000
0000
0000
0031
0010
0000
1000
0000
0100
0000
0001
0100
1000
0000
0020
0000
,
0100
0000
0000
0031
0010
0000
1000
0000
0001
0000
0010
1000
0010
0000
0100
0000
,
2001
0000
0000
3100
0010
0000
0001
0000
0100
0000
1000
0100
0010
0000
2000
0000
,
0100
0000
0000
3001
0010
0000
1000
0000
0010
0000
0001
1000
0010
0000
0002
0000
,
0010
0000
0000
1003
0100
0000
0001
0000
0010
0000
1000
0010
0100
0000
1000
0000
,
0010
0000
0011
0000
1000
0000
1100
0000
0001
0100
0001
0100
0010
1000
0010
1000
,
0010
0000
0100
0010
0000
1000
0000
0001
0000
1000
0010
0000
0200
0000
0010
0000
,
0310
0000
1000
0001
0000
0100
0000
1000
0000
0100
0001
0000
2000
0000
0001
0000
,
3001
0000
0010
1000
0000
0010
0000
0100
0000
1000
0001
0000
0200
0000
0010
0000
,
0310
0000
1000
0001
0000
0010
0000
0100
0000
0001
0100
0000
1000
0000
1000
0000
,
0001
0000
1000
0010
0000
1000
0010
0000
0100
0000
0001
0010
0000
0001
0010
0000
,
0100
0000
1000
0001
0000
0001
0100
0000
0010
0000
1000
0100
0000
0100
0010
0000
,
0001
0000
0100
1000
0000
0100
0010
0000
1000
0000
0100
0001
0000
0100
0010
0000
,
1001
0100
0010
0001
0011
0000
1001
0100
,
0110
0000
0010
1000
0000
0001
0000
0010
0000
0100
0010
0000
0011
0000
1000
0000
,
1100
0100
0010
0001
0200
1000
0301
0010
,
0110
0000
0100
0000
1000
0000
0010
0000
0001
0000
0010
1000
0010
0001
0010
0000
,
0000
0000
0000
1000
0000
0000
0100
0000
0000
0010
0000
0000
1001
0000
0001
0000
0100
0000
0110
0000
0000
0000
0000
0000
,
1100
0000
0001
0100
0000
0010
0000
1000
0000
0100
0010
0000
1001
0000
0100
0000
,
0110
1000
0100
0010
0200
0001
1300
0010
,
0001
1000
0100
0001
0010
1000
0010
0000
,
0021
0001
0100
0100
1000
0100
0001
0130
;

//---------------dance-single - ----------------
#NOTES:
     dance-single:
     :
     Medium:
     8:
     0.339682,0.444070,0.130737,0.245131,0.044941,490.000000,32.000000,60.000000,0.000000,0.000000,0.000000,0.339682,0.444070,0.130737,0.245131,0.044941,490.000000,32.000000,60.000000,0.000000,0.000000,0.000000:
0000
0000
0000
0000
,
0000
0000
0000
0000
,
0000
0000
0000
0000
,
0000
0000
0000
0000
,
0000
0000
0000
0000
,
0000
0000
0000
0000
,
0000
0000
0000
0000
,
0000
0000
0000
0000
,
1000
1000
0001
0001
,
0100
0000
0100
0000
0010
1000
0010
1000
,
0100
0100
0010
0010
,
0001
0000
0001
0000
1000
0100
1000
0100
,
0010
0010
0001
0001
,
0100
0000
0100
0000
0010
1000
0010
1000
,
0001
0001
1000
1000
,
0100
0010
0100
0010
0000
0000
0000
0000
,
0001
0100
0010
1000
0000
0002
0000
0000
,
1003
0100
0010
0001
1001
0000
0110
0000
,
1001
0100
0010
1000
0000
2000
0000
3000
,
0200
0320
0032
2003
,
3010
0000
0000
0000
,
0010
1000
0010
1000
,
0001
0100
0001
0100
,
0001
0010
0001
0010
,
0100
1000
0100
1000
,
0110
0001
0100
0010
,
1000
0100
0010
0100
,
1001
0100
0010
1000
,
0100
0000
0010
0000
0002
0000
0000
0003
,
0100
0010
0100
0000
0001
0000
1000
0000
,
0100
1000
0100
0000
0010
0000
0001
0000
,
0100
0001
0100
0000
0010
0000
1000
0000
,
0001
1000
0001
0000
0100
0000
0010
0000
,
1000
0100
0010
0000
0001
0000
0100
0000
,
0010
0100
0001
0000
1000
0000
0100
0000
,
0010
0100
1000
0000
0010
0000
0100
0000
,
0001
0100
0010
0100
0001
0000
0000
0000
,
0100
0100
0010
0110
,
1000
1000
0001
1001
,
0010
0010
0001
0011
,
1000
1000
0100
1100
,
0010
0001
0100
0110
,
0010
1000
0100
0110
,
0010
0001
0100
0110
,
1001
0000
0000
0000
,
0110
0000
0000
0000
,
1001
0000
0000
0000
,
0100
0000
0000
0100
0000
0000
0100
0000
0010
0000
0000
0000
1001
0000
0000
0000
,
0100
0010
0000
0100
0000
0010
0000
0200
,
0000
0300
0000
0000
0001
1000
0001
1000
,
0001
0100
0000
0010
0000
1000
0000
0200
,
0000
0000
0020
0330
,
0001
1000
0001
0000
0100
0000
0100
0000
,
0010
1000
0010
0000
0100
0000
0100
0000
,
0010
1000
0001
0000
0100
0000
0010
0000
,
1000
0100
1000
0000
0001
0000
0010
0000
,
0100
0010
0001
0000
0100
0000
0010
0000
,
1000
0010
0100
0010
0100
0000
1001
0000
,
0100
0000
0010
1000
0010
1000
0001
0100
,
0000
0100
0000
0010
0000
1000
0000
0000
,
0200
0000
0000
0000
,
0320
0000
0000
0000
,
0032
0000
0000
0000
,
2003
0000
0000
0000
,
3020
0000
0000
0000
,
0230
0000
0000
0000
,
0301
1000
0100
0010
,
0002
0000
0103
0000
,
0220
0000
0330
0010
0020
0000
1030
0001
,
0000
0010
0000
0000
0100
0000
0000
0000
0000
0000
2002
0000
0000
0000
3003
0000
,
0202
0000
0303
0100
0200
0000
0310
1000
,
0000
0100
0000
0000
0010
0000
0000
0000
0000
0000
0022
0000
0000
0000
0033
0000
,
2200
0000
3300
0001
0002
0000
0103
0010
,
0000
1000
0000
0000
0001
0000
0000
0000
0000
0000
0220
0000
0000
0000
0330
0000
,
0010
0010
0010
0010
,
2002
0000
0000
3003
,
0100
0000
0000
0000
,
0010
0000
0000
0000
,
1000
0000
0000
0000
,
0001
0000
0010
0100
,
1000
1000
1000
0000
,
0001
0001
0001
0000
,
0100
0100
0100
0100
,
0020
0000
0100
0130
,
1000
0000
0100
0000
1000
0000
0100
0000
1000
0000
0000
0001
0000
0000
0000
0000
,
0100
0000
0010
0000
0100
0000
0010
0000
0100
0000
0000
0001
0000
0000
0000
0000
,
1000
0100
0010
0100
0010
0001
0100
0010
,
1000
0100
0010
0100
0010
0001
1000
0000
,
0010
0010
0000
0000
1000
1000
0001
0001
,
0100
0100
0000
0000
0010
0010
1000
1000
,
0001
0010
0001
0100
0001
1000
0000
0001
,
0010
0000
0100
1000
,
0200
0000
1300
0000
0000
0000
0002
0023
,
2030
0000
3010
0000
0001
0100
0010
1000
,
2002
0000
0000
3003
0010
0000
0000
0000
0100
0000
1000
0000
0001
0000
0100
0000
,
0020
0000
0000
0000
0000
0000
0000
0000
0000
0000
0000
0000
0000
0000
0000
0000
1030
0000
1000
0000
0000
0001
0000
0000
0001
0000
0000
0100
0010
0000
0000
0000
,
0020
0000
0000
0000
,
0230
0000
0000
0000
,
0302
0000
0000
0000
,
0023
0000
0000
0000
,
0230
0000
2300
0000
,
3002
0000
0203
0000
,
0320
0000
2030
0000
,
3001
1000
0001
1000
0000
0001
1000
0000
,
0010
0000
0000
1000
0010
0000
0000
0000
1000
0000
0010
0000
0100
0000
0000
0000
,
0001
0000
0000
0010
0001
0000
0000
0000
0100
0000
0010
0000
0100
0000
0000
0000
,
0010
0000
0000
1000
0010
0000
0000
0000
0100
0000
0001
0000
0010
0000
0000
0000
,
0100
0000
0000
1000
0100
0000
0000
0000
0010
0000
0001
0000
0100
0000
0010
0000
,
0100
0000
0000
0010
0100
0000
0000
0000
1000
0000
0100
0000
0001
0000
0000
0000
,
0010
0000
0000
0100
0010
0000
0000
0000
1000
0000
0010
0000
0001
0000
0000
0000
,
0100
0000
0000
0001
0100
0000
0000
0000
0010
0000
1000
0000
0010
0000
0000
0000
,
0100
0010
0100
0010
0200
0000
0000
0000
,
0310
0000
0000
0000
0000
0000
0000
0100
,
0010
0000
0000
0000
0000
0000
0000
1000
,
0001
0000
0000
0000
0000
0000
0000
0001
,
0010
0000
0000
0000
,
1000
0000
0000
0100
0000
0000
1000
0000
0010
0000
0000
1000
0000
0000
0010
0000
,
0100
0000
0000
0010
0000
0000
0100
0000
0001
0000
0000
0100
0000
0000
0001
0000
,
0010
0000
0000
0001
0000
0000
0010
0000
0100
0000
0000
0010
0000
0000
0100
0000
,
0110
0000
0101
1010
,
1001
0000
0100
0000
0010
1000
0001
0000
,
0020
0000
0100
0130
2000
0000
3010
0200
,
0000
0320
0000
0030
1000
0001
1000
0001
,
0000
0100
0010
1000
1001
0000
1001
0000
,
0010
0000
1000
0000
0100
1000
0001
0000
,
0110
0000
1000
0001
0200
0000
0310
0200
,
0000
0020
0330
0000
0100
0010
0100
0000
,
0001
0100
0010
1000
0001
0010
0100
1000
;

//---------------dance-double - ----------------
#NOTES:
     dance-double:
     :
     Challenge:
     15:
     0.688118,1.000000,0.249217,0.482091,0.522946,1000.000000,61.000000,118.000000,0.000000,0.000000,0.000000,0.688118,1.000000,0.249217,0.482091,0.522946,1000.000000,61.000000,118.000000,0.000000,0.000000,0.000000:
00000000
00000000
00000000
00000000
,
00000000
00000000
00000000
00000000
,
00000000
00000000
00000000
00000000
,
00000000
00000000
00000000
00000000
,
00000000
00000000
00000000
00000000
,
00000000
00000000
00000000
00000000
,
00000000
00000000
00000000
00000000
,
00000000
00000000
00000000
00000000
,
10000000
01000000
00100000
01000000
00010000
01000000
00100000
00010000
,
01000000
00100000
00010000
00001000
00000100
00000010
00000010
00000010
,
00000001
00000010
00001000
00000010
00000100
00000010
00000001
00000010
,
00001000
00000100
00010000
00001000
00100000
00010000
00010000
00010000
,
01010000
01000000
00100000
10000000
11000000
10000000
00100000
00010000
,
00011000
00001000
00000010
00000001
00001001
00000001
00000100
00001000
,
00011000
00100000
00110000
01000000
01100000
00100000
11000000
00010000
,
01010000
01000000
00001000
00010000
00001000
00000000
00010000
00000000
,
00022000
00033000
00000000
00000000
00002020
00003030
00000000
00000000
00000022
00000033
00000000
00000000
00000202
00000303
00000000
00000000
00000010
00000000
00000000
00000000
00002001
00000000
00000000
00000000
00000000
00000000
00000000
00000000
00003100
00000000
00000000
00000000
,
00022000
00033000
00000000
00000000
00220000
00330000
00000000
00000000
20200000
30300000
00000000
00000000
22000000
33000000
00000000
00000000
01000000
00000000
00000000
00000000
00100000
00000000
00000000
00000000
00010000
00000000
00000000
00000000
00001000
00000000
00000000
00000000
,
00022000
00033000
00000000
00000000
22000000
33000000
00000000
00000000
00022000
00033000
00000000
00000000
00000202
00000303
00000000
00000000
00010000
00000000
00000000
00000000
00012000
00000000
00000000
00000000
00000000
00000000
00000000
00000000
00013000
00000000
00000000
00000000
,
00010000
00100000
10000000
01000000
00100000
01000000
00010000
00001000
00000010
00000001
00000100
00001000
,
00010000
00000000
00000000
00000000
00001000
00000000
00010000
00000000
00001000
00010000
00000000
00001000
00000000
00010000
00000000
00001000
,
00020000
00000000
00000000
02030000
00000000
00000000
23000000
00000000
00000000
30200000
00000000
00000000
02300000
00000000
00000000
03020000
,
00000000
00000000
00230000
00000000
00000000
00300000
00001000
00000000
00020000
00000000
00000000
00031000
00000000
00010000
00000000
00001000
,
00020000
00000000
00000000
00030200
00000000
00000000
00000320
00000000
00000000
00000032
00000000
00000000
00000203
00000000
00000000
00000320
,
00000000
00000000
00002030
00000000
00000000
00003000
00000100
00000000
00010000
00000000
00001000
00010000
00000000
00001000
00000000
00010000
,
00200000
00000000
00000000
02300000
00000000
00000000
03002000
00000000
00000000
00003020
00000000
00000000
00000230
00000000
00000000
00020300
,
00000000
00000000
02030000
00000000
00000000
03000000
10000000
00000000
00010000
00000000
01000000
00001000
00000000
00010000
00000000
00000100
,
00020000
00000000
00000000
02030000
00000000
00000000
03002000
00000000
00000000
00003200
00000000
00000000
02000300
00000000
00000000
03002000
,
00000000
00000000
00203000
00000000
00000000
00310000
00000000
00000000
20020000
00000000
00000000
00000000
00000000
00000000
30030000
00000000
,
10000000
00000000
00010000
00100000
01000000
00000000
00010000
00000000
00001000
00000000
00010000
00001000
00000100
00000000
00000010
00000000
,
00001000
00000000
00000100
00001000
00000001
00000000
00000010
00000000
00000100
00000000
00010000
00001000
00010000
00000000
01000000
00000000
,
10000000
00000000
00100000
01000000
10000000
00000000
01000000
00000000
00010000
00000000
00100000
00001000
00010000
00000000
00000100
00000000
,
00000010
00000000
00000001
00000100
00001000
00000000
00010000
00000000
01000000
00000000
10000000
00010000
01000000
00000000
00100000
00000000
,
10010000
00000000
01000000
00010000
00100000
00000000
01000000
00000000
00010000
00000000
00001000
00010000
01000000
00000000
00010000
00000000
,
00001000
00000000
00000100
00000010
00001000
00000000
00000001
00000000
00000010
00000000
00001000
00000010
00000100
00000000
00010000
00000000
,
00001000
00000000
00100000
00010000
01000000
00000000
00100000
00000000
10000000
00000000
00010000
00100000
01000000
00000000
00010000
00000000
,
00001000
00000000
00000100
00000010
00001000
00000000
00001000
00000100
00020000
00000000
00000000
00000000
00031000
00000000
00000000
00000000
,
00010000
00000000
00001000
00010000
00000000
00010000
00000000
00100000
00000000
10000000
00010000
00000000
00200000
00000000
00000000
00000000
,
00301000
00000000
00010000
00001000
00000000
00001000
00000000
00000010
00000000
00000001
00001000
00000000
00000200
00000000
00000000
00000000
,
00010300
00000000
00001000
00010000
00000000
00010000
00000000
01000000
00000000
10000000
00010000
00000000
00200000
00000000
00000000
00000000
,
00301000
00000000
00010000
00001000
00000000
00001000
00000000
00000100
00000000
00000001
00001000
00000000
00000100
00000000
00000100
00000000
,
00010000
00000000
00001000
00010000
00000000
00010000
00000000
00100000
00000000
10000000
00010000
00000000
00200000
00000000
00000000
00000000
,
00301000
00000000
00010000
00001000
00000000
00001000
00000000
00000100
00000000
00000001
00001000
00000000
00000200
00000000
00000000
00000000
,
00010300
00000000
00001000
00010000
00000000
00001000
00000000
00100000
00000000
01000000
00010000
00000000
00002000
00000000
00000000
00000000
,
00103000
00000000
00001000
00010000
00000000
00001000
00000000
00000100
00000000
00000010
00001000
00000000
00000100
00000000
00010000
00000000
,
00011000
00000000
00010000
00001000
00000000
00010000
00000000
01000000
00000000
00100000
00010000
00000000
01000000
00000000
00001000
00000000
,
00011000
00000000
00010000
00001000
00000000
00000100
00000000
00000010
00000000
00001000
00000000
00000100
00000000
00010000
00001000
00000000
,
00100000
00010000
00000000
10000000
00000000
01000000
00010000
00000000
00001000
00000000
00001000
00000000
00010000
00000000
00010000
00000000
,
00011000
00001000
00000100
00000010
00001000
00000001
00000010
00000100
,
00001000
00000000
00002000
00000000
00000100
00000000
00003100
00000000
00010000
00001000
00010000
00001000
00010000
00001000
00010000
00000000
,
00011000
00010000
00100000
01000000
00010000
10000000
01000000
00100000
,
00001000
00000000
00010000
00000000
00001000
00000000
00000000
00010000
00001000
00000000
00010000
00000000
00001000
00010000
00001000
00000000
,
00010000
01000000
10000000
00100000
00020000
00000000
00031000
00010000
,
00000010
00000100
00000001
00000010
00000200
00000000
00001300
00000100
,
00010000
00000000
00001000
00000000
00000000
00000010
00000000
00000000
00000011
00000000
00000000
00000001
00000100
00000000
00000010
00000000
,
00001000
00000100
00010000
00001000
00100000
00010000
01000000
00100000
,
00010000
10000000
01000000
00001000
00002000
00013000
00000000
01000000
,
10000000
00100000
00010000
00001000
00000100
00000001
00000010
00000000
,
00001000
00010000
00000100
00010000
00001000
00001000
00010000
00200000
,
00000000
02300000
03020000
20030000
00000000
02000000
00000000
33000000
,
00210000
00010000
00000000
10000000
00000000
01000000
00000000
00320000
,
00000000
01030000
00001000
00020000
00000000
00031000
00000100
00000010
,
00001020
00001000
00000000
00000001
00000000
00000100
00000000
00002030
,
00000000
00003100
00000010
00000001
00000100
00001000
00010000
00100000
,
10200000
10000000
00000000
00010000
00000000
01000000
00000000
20300000
,
00000000
31000000
00010000
00001000
00000010
00000001
00000200
00000000
,
00001300
00010000
01000000
00010000
00000000
00000100
00000010
00000001
,
00000100
00001000
00010000
00100000
20010000
00000000
31000000
00000000
,
00120000
00000000
00000000
00130000
00001000
00000000
00010000
00000000
00021000
00000000
00000000
00031000
00000100
00000000
00000010
00000000
,
00001000
00000001
00000000
00000100
00000001
00000000
00000010
00000000
00000100
00000000
00001200
00000000
00000000
00000000
00010300
00000000
,
00002100
00000000
00000000
00003100
00010000
00000000
00001000
00000000
00012000
00000000
00000000
00013000
00100000
00000000
01000000
00000000
,
00010000
10000000
00000000
00100000
10000000
00000000
01000000
00000000
00100000
00000000
00210000
00000000
00000000
00000000
00301000
00000000
,
00002010
00000000
00000000
00003010
00000001
00000000
00000100
00000000
00000120
00000000
00000000
00000130
00000001
00000000
00001000
00000000
,
00000100
00010000
00000000
00001000
00010000
00000000
00001000
00000000
00000100
00000000
00000120
00000000
00000000
00000000
00010030
00000000
,
00001000
00000000
00010000
00001000
00000000
00000000
00010000
00000000
01000000
00010000
00000000
00000000
01000000
00000000
10000000
01000000
00000000
00000000
00100000
00000000
01000000
00100000
00000000
00000000
,
02200000
00000000
00000000
00000000
00000000
00000000
00000000
03300000
,
10000000
01000000
00100000
10000000
00010000
00001000
00000100
00000001
,
00001000
00000100
00000001
00001000
00000001
00000100
00001000
00000010
,
00010000
00001000
00100000
00010000
00001000
00010000
00100000
01000000
,
10000000
00100000
00010000
00001000
00000100
00000100
00000010
00000010
,
00010000
00000100
00000010
00001000
00000001
00000100
00001000
00000010
,
00010000
00001000
00100000
00001000
00010000
01000000
10000000
00010000
,
10000000
00100000
00001000
00100000
00000100
00001000
00010000
00000100
,
00000001
00000000
00001000
00000000
00000010
00000000
00000001
00000000
00000100
00000000
00000100
00000000
00000010
00000000
00001000
00000001
,
00000100
00000000
00000100
00000000
00001000
00000000
00001000
00000000
00010000
00001000
00000000
00010000
00000000
01000000
00000000
20000000
,
00000000
00000000
30100000
00000000
00010000
00000000
00001000
00000000
00010000
00001000
00000000
00010000
00000000
00000000
00000000
00000000
,
00001000
00000100
00000000
00000010
00000000
00001000
00000001
00000000
00000010
00000000
00001000
00000000
00010000
00000000
00001000
00010000
,
00000000
01000000
00000000
10000000
00000000
00100000
01000000
00000000
00010000
00000000
00100000
00000000
00001000
00000000
00001000
00000000
,
00010000
00000000
00001000
00010000
00000000
00000010
00000100
00000000
00000010
00000000
00010000
00001000
00000000
00100000
01000000
00000000
,
10000000
00000000
00100000
00010000
00000000
00001000
00000100
00000000
00000001
00000000
00000010
00001000
00000000
00010000
01000000
00000000
,
00100000
00000000
00001000
00010000
00000000
01000000
10000000
00000000
00100000
00000000
00010000
00001000
00000000
00000100
00000001
00000000
,
00000110
00000100
00001000
00000010
00010000
00010000
00001000
00001000
,
00022000
00000000
00000000
00000000
00000000
00000000
00000000
00000000
00000000
00000000
00000000
00000000
00000000
00000000
00000000
00000000
00000000
00000000
00000000
00000000
00000000
00000000
00000000
00000000
00000000
00000000
00000000
00000000
00000000
00000000
00000000
00000000
00000000
00000000
00000000
00000000
00033000
00000000
00000000
00000000
00000000
00000000
00000000
00000000
00000000
00000000
00000000
00000000
00001000
00000000
00000000
00000000
00000000
00000000
00000000
00000000
00010000
00000000
00000000
00000000
00000000
00000000
00000000
00000000
00001000
00000000
00000000
00000000
00000000
00000000
00000000
00000000
00010000
00000000
00000000
00000000
00000000
00000000
00000000
00000000
00000000
00000000
00000000
00000000
00001000
00000000
00000000
00000000
00000000
00000000
00010000
00000000
00000000
00000000
00000000
00000000
00001000
00000000
00000000
00000000
00000000
00000000
00010000
00000000
00000000
00000000
00000000
00000000
00001000
00000000
00000000
00000000
00000000
00000000
00010000
00000000
00000000
00000000
00000000
00000000
00001000
00000000
00000000
00000000
00010000
00000000
00000000
00000000
00001000
00000000
00000000
00000000
00010000
00000000
00000000
00000000
00001000
00000000
00000000
00000000
00010000
00000000
00000000
00000000
00001000
00000000
00000000
00000000
00000000
00000000
00000000
00000000
00000000
00000000
00000000
00000000
00010000
00000000
00000000
00000000
00000000
00000000
00001000
00000000
00000000
00000000
00000000
00000000
00000000
00000000
00000000
00000000
00000000
00000000
00001000
00000000
00000000
00000000
00000000
00000000
00010000
00000000
00000000
00000000
00000000
00000000
01000000
00000000
00000000
00000000
00000000
00000000
,
10000000
00000000
00000000
00000000
00000000
00000000
00000000
00000000
00010000
00000000
00000000
00000000
00000000
00000000
00000000
00000000
10000000
00000000
00000000
00000000
00000000
00000000
00000000
00000000
00010000
00000000
00000000
00000000
00000000
00000000
00000000
00000000
10000000
00000000
00000000
00000000
00000000
00000000
00000000
00000000
00010000
00000000
00000000
00000000
00000000
00000000
00000000
00000000
10010000
00000000
00000000
00000000
00000000
00000000
00000000
00000000
00000000
00000000
00000000
00000000
10000000
00000000
00000000
00000000
00000000
00000000
00000000
00000000
00000000
00000000
00000000
00000000
10000000
00000000
00000000
00000000
00000000
00000000
00000000
00000000
00000000
00000000
00000000
00000000
10000000
00000000
00000000
00000000
00000000
00000000
00000000
00000000
00000000
00000000
00000000
00000000
00010000
00000000
00000000
00000000
00000000
00000000
10000000
00000000
00000000
00000000
00000000
00000000
00010000
00000000
00000000
00000000
00000000
00000000
10000000
00000000
00000000
00000000
00000000
00000000
00010000
00000000
00000000
00000000
00000000
00000000
10000000
00000000
00000000
00000000
00000000
00000000
00010000
00000000
00000000
00000000
00000000
00000000
10000000
00000000
00000000
00000000
00000000
00000000
00100000
00000000
00000000
00000000
00000000
00000000
00000000
00000000
00000000
00000000
00000000
00000000
01000000
00000000
00000000
00000000
00000000
00000000
00010000
00000000
00000000
00000000
00000000
00000000
00000000
00000000
00000000
00000000
00000000
00000000
00100000
00000000
00000000
00000000
00000000
00000000
00001000
00000000
00000000
00000000
00000000
00000000
00010000
00000000
00000000
00000000
00000000
00000000
,
00000200
00000000
00000000
00000000
00000000
00000000
00000000
00000000
00000000
00000000
00000000
00000000
00000010
00000000
00000000
00000000
00000000
00000000
00000000
00000000
00000000
00000000
00000000
00000000
00001300
00000000
00000000
00000000
00000000
00000000
00000001
00000000
00000000
00000000
00000000
00000000
00001000
00000000
00000000
00000000
00000000
00000000
00000001
00000000
00000000
00000000
00000000
00000000
00001000
00000000
00000000
00000000
00000000
00000000
00000000
00000000
00000000
00000000
00000000
00000000
00000010
00000000
00000000
00000000
00000000
00000000
00000000
00000000
00000000
00000000
00000000
00000000
00000010
00000000
00000000
00000000
00000000
00000000
00000000
00000000
00000000
00000000
00000000
00000000
00000100
00000000
00000000
00000000
00000000
00000000
00000001
00000000
00000000
00000000
00000000
00000000
00001000
00000000
00000000
00000000
00000000
00000000
00000000
00000000
00000000
00000000
00000000
00000000
00000001
00000000
00000000
00000000
00000000
00000000
00000000
00000000
00000000
00000000
00000000
00000000
00001000
00000000
00000000
00000000
00000001
00000000
00000000
00000000
00001000
00000000
00000000
00000000
00000001
00000000
00000000
00000000
00001000
00000000
00000000
00000000
00000001
00000000
00000000
00000000
00001000
00000000
00000000
00000000
00000000
00000000
00000000
00000000
01000000
00000000
00000000
00000000
00000000
00000000
00000000
00000000
00010000
00000000
00000000
00000000
00000000
00000000
00000000
00000000
00001000
00000000
00000000
00000000
00000000
00000000
00000000
00000000
00000100
00000000
00000000
00000000
00000000
00000000
00000000
00000000
00001000
00000000
00000000
00000000
00000000
00000000
00000000
00000000
,
00020000
00000000
00000000
00000000
00000000
00000000
00000000
00000000
00001000
00000000
00000000
00000000
00000000
00000000
00000000
00000000
00030001
00000000
00000100
00000010
00000000
00010000
00001000
00000000
00100000
01000000
00000000
10000000
00010000
00000000
00000000
00000000
,
10000000
01000000
01000000
00010000
00000100
00000100
00000010
00000002
,
00000200
00000000
00000000
00000003
,
00001300
00010000
01000000
10000000
00200000
00000000
01300000
00002000
,
00020000
00000000
00000000
00003000
00000100
00000100
00000000
00030100
,
00000020
00000001
00000130
00010000
00002000
00000100
00013000
02000000
,
00000000
13000000
00100000
00100000
00010000
00001000
00010000
01000000
,
00010000
00000100
00000100
00010000
00000100
00010000
00001000
00000100
,
00000010
00001000
00000100
00000002
00000000
00000103
00001000
00000010
,
00000100
00000000
00000001
00000100
00001000
00000000
00000100
00000000
00000010
00000000
00010000
00000000
00001000
00000000
00200000
00000000
,
00010000
00000000
00000000
00000000
10000000
00000000
00000000
00000000
01300000
00000000
00010000
00001000
00000100
00000000
00000020
00000000
,
00000001
00000000
00000000
00000000
00000100
00000000
00000000
00000000
00001030
00000000
00000100
00010000
00001000
00000000
00200000
00000000
,
10000000
00000000
00001000
00000000
01000000
00000000
00310000
01000000
,
00021000
00000000
00001000
00000000
00030100
00000000
00000010
00000001
00000010
00000000
00000100
00010000
00001000
00000000
02000000
00000000
,
10000000
00000000
10000000
00000000
00100000
00000000
10000000
00000000
03010000
00000000
01000000
00010000
00001000
00000000
00020000
00000000
,
00000100
00000100
00001000
01000000
01000000
00001000
00031000
00010000
,
00000100
00000000
00000001
00000000
00000010
00000000
00010000
00000000
10000000
01000000
00100000
00010000
01000000
00100000
00010000
00001000
,
00010000
00000000
00001000
00010000
00000000
00000100
00000000
00010000
00000000
00000100
00000010
00000000
00000012
00000000
00001000
00000000
,
00000103
00000000
00001000
00010000
00000000
00100000
00000000
00010000
00000000
00100000
10000000
00000000
20100000
00000000
01000000
00000000
,
30010000
00000000
00001000
00010000
00000000
00001000
00000000
00000010
00000000
00000001
00000100
00000000
00002010
00000000
00000001
00000000
,
00003100
00000000
00010000
00001000
00000000
00100000
00000000
10000000
00000000
00100000
00010000
00000000
01000000
00000000
01000000
00000000
,
00001000
00000000
00010000
00001000
00000000
00000100
00000010
00000000
00010000
00000000
00001000
00010000
00000000
01000000
00100000
00000000
,
10000000
00000000
00100000
00010000
00000000
00000010
00001000
00000000
00000001
00000000
00000100
00001000
00000000
01000000
00010000
00000000
,
00001000
00000000
00000100
00000001
00000000
00000010
00001000
00000000
00010000
00000000
01000000
10000000
00000000
00100000
00010000
00000000
,
00011000
00000100
00000010
00000100
00011000
00000000
01100000
10000000
,
11000000
00000000
01000000
00010000
00000000
00001000
00000000
00000100
00000000
00000001
00000010
00000000
00000011
00000000
00001000
00000000
,
00001100
00000000
00000100
00000000
00000001
00000000
00000100
00000000
00001000
00000000
00000010
00000001
00000000
00000010
00001000
00000000
,
00000100
00000001
00001000
00000010
00000001
00001000
00000100
00010100
,
00000000
00000000
00000000
00010000
00000000
00000000
00000100
00000000
00000000
00010000
00000000
00000000
00100000
00000000
00010000
00000000
00001000
00000000
00000010
00000000
00000000
00000000
00000000
00000000
,
00001000
00000000
00010000
01000000
00000000
00010000
00000000
00001000
00000000
00000100
00000010
00000000
00000110
00000000
00001000
00000000
,
00010100
00000000
00001000
00100000
01000000
00000000
00100000
00000000
00001000
00000000
00000100
00000001
00000010
00000000
00000100
00000000
,
00000001
00000000
00000100
00010000
00001000
00000000
01000000
00000000
10000000
01000000
00010000
00100000
00001000
00000000
00000000
00000000
,
00021000
00000010
00000100
00001000
00032000
00100000
01000000
00013000
;

//---------------dance-single - ----------------
#NOTES:
     dance-single:
     :
     Easy:
     5:
     0.250968,0.339583,0.118480,0.269644,0.000000,335.000000,29.000000,66.000000,0.000000,0.000000,0.000000,0.250968,0.339583,0.118480,0.269644,0.000000,335.000000,29.000000,66.000000,0.000000,0.000000,0.000000:
// measure 0
0000
0000
0000
0000
,  // measure 1
0000
0000
0000
0000
,  // measure 2
0000
0000
0000
0000
,  // measure 3
0000
0000
0000
0000
,  // measure 4
0000
0000
0000
0000
,  // measure 5
0000
0000
0000
0000
,  // measure 6
0000
0000
0000
0000
,  // measure 7
0000
0000
0000
0000
,  // measure 8
1000
0000
1000
0000
,  // measure 9
1000
0000
1000
0000
,  // measure 10
0001
0000
0001
0000
,  // measure 11
0001
0000
0001
0000
,  // measure 12
0200
0300
0200
0300
,  // measure 13
0200
0300
0200
0300
,  // measure 14
0010
0010
0100
0100
,  // measure 15
0020
0000
0130
0000
,  // measure 16
1000
1000
1000
1000
0000
0002
0000
0000
,  // measure 17
0103
0100
0100
0100
0010
0000
1000
0000
,  // measure 18
0001
0001
0001
0001
0000
2000
0000
3000
,  // measure 19
0010
0010
0010
0010
,  // measure 20
1001
0000
0000
0000
,  // measure 21
1000
0000
1000
0000
,  // measure 22
0001
0000
0001
0000
,  // measure 23
0100
0000
0100
0000
,  // measure 24
0010
0000
0010
0000
,  // measure 25
1000
0000
0100
0000
,  // measure 26
0001
0000
0010
0000
,  // measure 27
1000
0000
0100
0000
,  // measure 28
0010
0000
2002
3003
,  // measure 29
0010
0010
1000
1000
,  // measure 30
0001
0001
0010
0010
,  // measure 31
0100
0100
1000
1000
,  // measure 32
0001
0001
0100
0010
,  // measure 33
1001
0001
0100
0001
,  // measure 34
1000
1000
0100
1000
,  // measure 35
0010
0010
0100
0010
,  // measure 36
1000
0001
2000
3000
,  // measure 37
0100
0100
0100
0020
,  // measure 38
0031
0001
0001
2000
,  // measure 39
3010
0010
0010
2000
,  // measure 40
3100
0100
0100
0020
,  // measure 41
0031
1000
0001
0200
,  // measure 42
0310
1000
0010
0200
,  // measure 43
0301
1000
0001
0020
,  // measure 44
0130
0000
0000
0000
,  // measure 45
0100
0000
0000
0000
,  // measure 46
0100
0000
0000
0000
,  // measure 47
0100
1000
0001
1000
,  // measure 48
0010
0000
1000
0000
,  // measure 49
0200
0000
0010
0310
,  // measure 50
0001
0000
0100
0000
,  // measure 51
0020
0000
0200
0330
,  // measure 52
0001
0001
1000
0000
,  // measure 53
0010
0010
0100
0001
,  // measure 54
1000
1000
0100
0000
,  // measure 55
0010
0010
0001
0100
,  // measure 56
0010
0010
1000
0000
,  // measure 57
0001
0100
0010
1000
,  // measure 58
0100
0100
0010
0000
,  // measure 59
0001
1000
0010
0100
,  // measure 60
0210
0000
0000
0000
,  // measure 61
0000
0000
0000
0300
,  // measure 62
0002
0000
0000
0000
,  // measure 63
0000
0000
0000
0003
,  // measure 64
2000
0000
0000
0000
,  // measure 65
0000
0000
0000
3000
,  // measure 66
0001
0001
1000
1000
,  // measure 67
0001
1000
1001
0000
,  // measure 68
0200
0300
0020
0030
,  // measure 69
1000
0000
0001
0000
1000
0002
0000
0003
,  // measure 70
2000
3000
0002
0003
,  // measure 71
0100
0000
0010
0000
0100
0020
0000
0030
,  // measure 72
2000
3000
0200
0300
,  // measure 73
0010
0000
0001
0000
1000
0002
0000
0003
,  // measure 74
0200
0320
2030
3002
,  // measure 75
2000
0000
0000
3003
,  // measure 76
0100
0000
0000
0000
,  // measure 77
1000
0000
0000
0000
,  // measure 78
0001
0000
0000
0000
,  // measure 79
0100
0000
0010
0010
,  // measure 80
0100
0100
0100
0000
,  // measure 81
0001
0001
0001
0000
,  // measure 82
1000
1000
0010
0100
,  // measure 83
0110
0000
0001
1000
,  // measure 84
0100
0100
0010
0001
,  // measure 85
0100
0100
0020
0030
,  // measure 86
1000
0100
0001
0100
,  // measure 87
1000
0010
0200
0300
,  // measure 88
0110
0000
1001
1001
,  // measure 89
0011
0000
1100
1100
,  // measure 90
1001
0100
0100
0000
,  // measure 91
1001
0000
0000
0000
,  // measure 92
0020
1030
0001
0200
,  // measure 93
0302
1003
0100
0020
,  // measure 94
0230
1300
0010
0200
,  // measure 95
0302
0000
0010
0000
1003
0100
0010
0001
,  // measure 96
2001
0000
0000
0000
0000
0000
0000
3000
,  // measure 97
0020
0000
0000
0000
0000
0000
0000
0030
,  // measure 98
0200
0000
0000
0000
0000
0000
0000
0300
,  // measure 99
0002
0000
0000
0000
0000
0000
0000
0003
,  // measure 100
0200
0000
0000
0300
0020
0000
0000
0030
,  // measure 101
0200
0000
0000
0300
0002
0000
0000
0003
,  // measure 102
2000
0000
0000
3000
0200
0000
0000
0300
,  // measure 103
0020
0000
0000
0030
,  // measure 104
0100
1000
0010
1000
,  // measure 105
0002
1003
0010
1000
,  // measure 106
0002
0013
0001
1000
,  // measure 107
0002
0103
0010
0100
,  // measure 108
0020
1030
0010
0001
,  // measure 109
0020
0130
0010
1000
,  // measure 110
0200
0301
0100
0010
,  // measure 111
0200
0000
0000
0300
,  // measure 112
0110
0000
0000
0000
,  // measure 113
1001
0000
0000
0000
,  // measure 114
0101
0000
0000
0000
,  // measure 115
1100
0000
0000
0000
,  // measure 116
0010
0000
0010
0000
,  // measure 117
1000
0000
1000
0000
,  // measure 118
0001
0000
0001
0000
,  // measure 119
1001
0000
1000
0001
,  // measure 120
1001
1000
0010
0100
,  // measure 121
0110
1000
0001
0010
,  // measure 122
0110
0000
1000
0000
0001
0000
0100
0100
,  // measure 123
0000
0010
0010
0000
1001
0000
1001
0000
,  // measure 124
0110
1000
0100
0001
,  // measure 125
0110
0100
1000
0010
,  // measure 126
0101
1000
0100
0010
,  // measure 127
2002
0000
0000
0000
0000
0000
0000
3003
;
