#TITLE:DYE/Reflection+(DDRedit);
#SUBTITLE:;
#ARTIST:AVTechNO!×Treow by 巡音ルカ;
#TITLETRANSLIT:;
#SUBTITLETRANSLIT:;
#ARTISTTRANSLIT:;
#CREDIT:;
#BANNER:Luka_b.jpg;
#BACKGROUND:Luka.jpg;
#LYRICSPATH:;
#CDTITLE:215edit.png;
#MUSIC:DYEReflection.mp3;
#OFFSET:-0.260;
#SAMPLESTART:45.644;
#SAMPLELENGTH:12.000;
#SELECTABLE:YES;
#BPMS:0.000=165.000,28.000=82.500,44.000=165.000;
#STOPS:;
#BGCHANGES:25.000=DYEReflection.avi=1.000=1=0=1,
304.000=Luka.jpg=1.000=1=0=1,
99999=-nosongbg-=1.000=0=0=0 // don't automatically add -songbackground-
;

//---------------dance-single - ----------------
#NOTES:
     dance-single:
     :
     Hard:
     17:
     0.876,1.000,0.628,0.251,0.733:
0000
0000
0000
0000
,
0000
0000
0000
0000
,
0000
0000
0000
0000
,
0000
0000
0000
0000
,
0000
0000
0000
0000
,
0000
0000
0000
0000
,
0000
0000
0000
0000
,
0000
0000
1001
0000
0101
0000
1001
0000
0010
0200
0000
1300
0001
1000
0100
0000
,
0000
0000
0110
0000
1100
0000
0101
0000
0010
0200
0000
0301
1000
0100
0010
0000
,
0000
0000
1100
0000
0011
0000
0101
0000
1000
0200
0000
0310
0001
0100
1000
0000
,
0000
0000
1010
0000
0101
0000
1010
0000
0100
0002
0000
0103
0010
1000
0100
0000
,
0011
0000
0000
0000
1001
0000
0000
0010
0100
0000
0001
0000
0100
0000
0010
0000
,
1010
0000
0000
0000
0101
0000
0000
1000
0010
0000
0100
0000
0001
0000
0000
0000
,
1010
0000
0000
0000
1001
0000
0000
0100
1000
0000
0001
0000
1000
0000
0010
0000
,
1010
0000
0000
0000
0011
0000
0000
0100
0010
0000
0100
0000
0001
0000
0000
0000
,
1100
0000
0000
0000
0011
0000
0000
1000
0100
0000
0001
0000
0100
0000
1000
0000
,
0101
0000
0000
0000
1010
0000
0000
1000
0010
0000
1000
0000
0001
0000
0000
0000
,
0110
0000
0000
0000
1001
0000
0000
0100
0010
0000
1000
0000
1000
0000
0010
0000
,
1010
0000
0000
0000
0110
0000
0000
0100
0001
0000
1000
0000
0100
0000
0000
0000
,
0010
0000
0100
0000
0010
0000
1000
0001
0100
0010
0100
0000
0011
0000
1000
0100
,
0010
0000
0001
0000
0101
0000
0010
0100
0001
0100
0010
0000
1010
0000
0000
0000
,
1000
0000
0100
0000
0100
0000
1000
0100
1000
0001
0100
0000
0011
0000
0010
0100
,
1000
0000
0010
0000
0110
0000
1000
0001
0100
0010
1000
0010
1010
0000
0000
0000
,
0100
0000
0100
0000
0001
0000
1000
0100
0010
0100
1000
0000
0110
0000
0001
0100
,
1000
0000
0010
0000
0101
0000
1000
0100
0001
0100
0010
0000
1001
0000
0000
0000
,
0010
0000
0110
0000
1001
0000
1000
0100
0010
0001
0100
0000
1010
0000
1000
0100
,
0010
0000
0001
0000
0011
0000
1000
0010
0100
0001
0100
0010
1001
0000
0000
0000
,
2100
0010
0100
3010
,
0102
0010
0100
0013
,
1200
0010
1000
0310
,
0012
1000
0100
1003
,
0201
1000
0001
1300
,
0120
1000
0001
0130
,
2001
0010
0001
3100
,
0210
1000
0001
0310
,
0001
1000
0200
0000
0310
0000
0001
0000
0100
0010
2000
0000
3100
0000
0010
0000
,
0001
0100
1000
0100
0010
1000
0011
0010
,
1000
0001
0200
0000
0310
0000
1000
0000
0001
0010
0200
0000
0310
0000
0001
0000
,
0100
0010
1000
0100
0010
0001
0101
0001
,
1000
0010
2000
0000
3001
0000
0100
0000
0010
0100
0020
0000
0130
0000
0001
0000
,
1000
0100
0001
0100
1000
0001
0110
0010
,
1000
0010
0100
0000
0001
0100
0010
0000
,
1000
1100
0010
0011
,
0001
0000
0010
0000
0100
0000
1000
0000
0010
0100
0001
0010
0100
1000
0010
0100
,
1001
0000
0200
0000
0310
0000
1000
0001
0100
0010
1000
0001
0010
0000
1000
0100
,
0010
0000
0012
0000
0013
0000
0100
0010
0001
0010
0100
1000
0010
0000
0100
0001
,
0100
0000
1020
0000
0130
0000
0001
0100
0010
0100
0001
1000
0100
0000
0001
0010
,
0001
0100
0010
1000
0100
1000
0010
0100
0001
0010
0001
1000
0100
0001
0100
1000
,
0100
0000
1200
0000
0310
0000
0001
0100
0010
0100
0010
1000
0100
0000
0010
0100
,
1000
0000
1200
0000
0310
0000
0001
0100
1000
0100
0001
0010
0100
0000
0100
1000
,
0100
0000
0012
0000
0103
0000
0010
0100
1000
0100
0010
0100
0001
0000
1000
0100
,
0010
0000
0001
1000
0100
1000
0010
1000
0100
0010
0100
1000
0100
0010
0001
0010
,
0001
0000
0012
0000
1003
0000
1000
0001
0100
0010
1000
0001
0010
0000
0001
0100
,
1000
0000
1200
0000
0310
0000
0100
0010
0001
0010
0100
1000
0100
0000
0010
0100
,
0010
0000
2001
0000
3100
0000
1000
0100
0001
0100
0010
0001
0100
0001
1000
0100
,
1000
0010
0100
0001
0010
0001
0100
0010
1000
0100
1000
0001
0010
1000
0010
0001
,
0010
0000
2001
0000
3001
0000
0001
0010
0100
1000
0100
0010
0001
0000
0010
0100
,
1000
0000
0120
0000
0031
0000
1000
0100
0010
0001
0010
0100
1000
0000
0010
1000
,
0100
0000
0102
0000
1003
0000
0100
0010
0100
0001
0010
0100
0010
0001
1000
0100
,
0010
0100
1000
0010
0100
0001
0010
0001
1000
0010
1000
0100
1000
0010
0100
0001
,
0100
0010
0100
0001
1000
0100
0011
0001
,
1000
0010
0100
0010
1000
0100
0110
0001
,
0100
0010
1000
0100
0010
0100
1100
0100
,
1000
0010
0100
0001
0010
0001
0101
0010
,
0100
0001
0011
1000
0010
0100
0101
0010
,
0100
0001
1100
0010
0100
0001
0011
0010
,
0100
1000
1100
0010
0100
0010
1001
0100
,
0010
1000
1100
1000
0010
0100
0011
0001
,
0100
0010
1000
0001
0100
0000
0010
1000
0100
1000
0010
0000
0100
0001
0100
0010
,
1000
0100
1000
0010
0100
0000
0001
0100
1000
0100
0010
0000
1000
0001
0100
0010
,
1000
0001
0010
0100
0010
0000
0001
0010
0100
1000
0100
0000
1000
0100
0001
0100
,
1000
0010
0100
0001
0100
0010
1000
0100
0010
0001
0010
0100
1000
0010
0100
0001
,
0010
0001
0100
0010
0100
0000
0010
1000
0100
1000
0010
0000
0100
0001
0100
0010
,
0100
0001
1000
0100
1000
0000
0010
0100
0010
1000
0001
0000
0001
0010
0001
1000
,
0100
1000
0010
0100
0001
0010
0100
1000
0100
0010
0100
0010
0001
1000
0100
0010
,
0001
0100
0010
1000
0001
0010
0100
1000
0010
0100
0001
0010
0100
1000
0010
0100
,
2002
0000
0000
0000
,
0000
0000
0000
3003
;

//---------------dance-single - ----------------
#NOTES:
     dance-single:
     :
     Medium:
     10:
     0.566,0.544,0.494,0.212,0.004:
0000
0000
0000
0000
,
0000
0000
0000
0000
,
0000
0000
0000
0000
,
0000
0000
0000
0000
,
0000
0000
0000
0000
,
0000
0000
0000
0000
,
0000
0000
0000
0000
,
0000
0100
0010
1000
0010
0100
0001
0101
,
0000
0010
1000
0100
1000
0010
0100
0110
,
0000
1000
0100
0010
0001
0010
0001
0101
,
0000
0010
0100
1000
0100
0010
0001
0101
,
0010
1000
0100
0000
0010
1000
0100
0000
,
1010
0000
0101
0000
0010
0001
0100
0000
,
0100
0001
1000
0000
0100
0001
1000
0000
,
0110
0000
1001
0000
0001
0100
1000
0000
,
0001
0010
0100
0000
0001
0010
0100
0000
,
0011
0000
1100
0000
0010
0001
0100
0000
,
0010
0100
1000
0000
0010
0100
1000
0000
,
0110
0000
1100
0000
0001
0010
1001
0000
,
1000
0010
0100
0010
1000
0100
1000
0001
,
0100
0010
1000
0001
0010
0001
1000
0000
,
0010
0100
1000
0010
0100
0001
0010
0001
,
0100
0010
1000
0100
1000
0001
0010
0000
,
1000
0010
0100
0010
0100
0001
1000
0100
,
1000
0010
0100
0001
0010
0100
1000
0000
,
1000
0010
0100
0001
1000
0010
0100
0001
,
1000
0100
0010
0100
1000
0001
0010
0000
,
2100
3010
0100
0010
,
0210
0301
0010
0001
,
0021
0130
1000
0010
,
2010
3100
0001
0100
,
2100
3010
0100
0001
,
0012
1003
0100
1000
,
0120
0130
0001
0100
,
1002
1003
1001
1001
,
0110
0100
0100
0000
1010
0010
0010
0000
,
0001
0100
0010
1000
0100
1000
0010
0000
,
0101
0001
0001
0000
1010
1000
1000
0000
,
0010
0100
0001
0010
0001
1000
0100
0000
,
1100
0001
0001
0000
0101
1000
1000
0000
,
1000
0100
0010
0100
0001
0100
1000
0000
,
0011
1000
1010
0000
1010
0001
0011
0000
,
0010
0100
0001
0100
0010
1000
0100
1000
,
0110
0000
0000
0000
0220
0000
0000
0000
0000
0000
0330
0000
0000
0000
0000
1000
0000
0000
0001
0000
0000
1000
0000
0000
,
0010
0000
0101
0000
0010
1000
0100
1000
,
0010
0000
1100
0000
1000
0100
0010
0100
,
1000
0000
0011
0000
0010
0100
1000
0010
,
0100
0001
0010
0001
1000
0100
1000
0010
,
0100
0000
0101
0000
0010
1000
0100
0010
,
0100
0000
0011
0000
0010
0100
0010
0100
,
0010
0000
0011
0000
0100
0010
0100
0001
,
0100
0010
1000
0001
0100
0001
0100
0001
,
1000
0000
1100
0000
0010
0100
0001
0100
,
0010
0000
1010
0000
0100
0010
0100
1000
,
0100
0000
0011
0000
1000
0100
1000
0010
,
0100
1000
0100
0010
0001
0010
0001
0010
,
0100
0000
0101
0000
0010
1000
0001
0100
,
0001
0000
0110
0000
1000
0100
1000
0100
,
0010
0000
0011
0000
0010
0100
1000
0100
,
1000
0001
0010
0001
1000
0100
0010
0100
,
0210
0301
1020
0130
,
2100
3001
0102
1003
,
0120
1030
0201
0310
,
2010
3001
0120
1030
,
0102
1003
1200
0310
,
1020
0031
2100
3001
,
0210
0301
0102
1003
,
1020
0130
2100
3100
,
0100
0010
0100
0000
0001
0010
0001
0000
,
0100
1000
0100
0000
0010
0100
0010
0000
,
0001
1000
0100
0000
0100
1000
0001
0000
,
0010
0100
0010
0000
0001
1000
0100
0000
,
0001
0010
0100
1000
0010
1000
0001
0100
,
0010
1000
0001
0010
0100
1000
0100
0001
,
0100
1000
0010
0001
0010
1000
0100
1000
,
0001
0100
1000
0100
0001
0100
1000
0100
,
0002
0000
0000
0000
,
0003
0000
0000
0000
;

//---------------dance-single - ----------------
#NOTES:
     dance-single:
     :
     Easy:
     8:
     0.346,0.423,0.259,0.196,0.004:
0000
0000
0000
0000
,
0000
0000
0000
0000
,
0000
0000
0000
0000
,
0000
0000
0000
0000
,
0000
0000
0000
0000
,
0000
0000
0000
0000
,
0000
0000
0000
0000
,
0001
0001
0001
0001
,
1000
1000
1000
1000
,
0001
0001
0001
0001
,
1000
1000
1000
1000
,
1000
1000
0100
0100
,
1000
1000
0010
0010
,
0100
0100
0001
0001
,
0010
0010
0100
0100
,
1000
1000
0010
0100
,
0001
0001
0100
0010
,
1000
1000
0010
0100
,
0001
0001
0010
0001
,
0100
0100
0010
1000
,
0100
0100
1000
0010
,
0100
0100
0010
0100
,
0001
0001
0010
0001
,
0100
0100
0010
1000
,
0010
0010
0100
0010
,
0100
0100
0001
0010
,
0001
0001
1000
0100
,
2000
0000
0000
0000
,
3020
0000
0000
0000
,
0230
0000
0000
0000
,
0302
0000
0000
0000
,
0023
0000
0000
0000
,
0032
0000
0000
0000
,
2003
0000
0000
0000
,
3200
0000
0000
0000
,
1300
1100
0010
0110
,
2000
0001
0001
3001
,
0010
0011
1000
1100
,
0020
0100
0100
0130
,
0001
0101
1000
1010
,
0002
1000
1000
1003
,
0010
0110
1000
1001
,
0020
1000
0001
0130
,
1000
0000
0202
0000
0000
0000
0000
0303
0000
0000
0000
0000
,
1000
0100
0010
1001
,
0010
0100
1000
0011
,
0100
0010
1000
1100
,
0011
1100
0011
1100
,
0001
0001
0100
0010
,
1000
1000
0100
0010
,
0100
1000
0100
1000
,
0001
0010
0011
0011
,
0100
1000
0010
0100
,
0001
0100
0010
1000
,
0100
1000
0100
0010
,
0002
1000
0100
1003
,
0100
0100
0011
0101
,
0010
0010
1010
1100
,
0001
0001
0100
0010
,
1000
0001
0101
1001
,
0002
0100
0100
1003
,
0020
0100
0100
1030
,
0200
0010
0010
0301
,
2000
0010
0010
3001
,
0200
0001
0001
0301
,
0020
0100
0100
0130
,
0002
1000
1000
1003
,
0200
0010
1000
0310
,
0001
0011
0100
0010
,
1000
0011
0100
0010
,
1000
0110
0001
0100
,
0010
1010
0100
0001
,
0100
1010
0100
0010
,
1000
0011
0100
1000
,
0010
0110
0001
1000
,
0100
0011
0100
1000
,
0220
0000
0000
0000
,
0330
0000
0000
0000
;

//---------------dance-single - ----------------
#NOTES:
     dance-single:
     :
     Beginner:
     2:
     0.099,0.179,0.078,0.031,0.000:
0000
0000
0000
0000
,
0000
0000
0000
0000
,
0000
0000
0000
0000
,
0000
0000
0000
0000
,
0000
0000
0000
0000
,
0000
0000
0000
0000
,
0000
0000
0000
0000
,
0001
0000
0000
0000
,
0001
0000
0000
0000
,
0010
0000
0000
0000
,
0100
0000
0000
0000
,
1000
0000
0000
0000
,
0010
0000
0000
0000
,
0100
0000
0000
0000
,
0010
0000
0000
0000
,
1000
0000
0000
0000
,
0100
0000
0000
0000
,
0010
0000
0000
0000
,
0001
0000
0000
0000
,
0100
0000
0000
0000
,
0010
0000
0000
0000
,
1000
0000
0000
0000
,
0010
0000
0000
0000
,
0100
0000
0000
0000
,
0010
0000
0000
0000
,
1000
0000
0000
0000
,
0001
0000
0000
0000
,
0020
0000
0000
0000
,
0030
0000
0000
0000
,
2000
0000
0000
0000
,
3000
0000
0000
0000
,
0002
0000
0000
0000
,
0003
0000
0000
0000
,
0200
0000
0000
0000
,
0300
0000
0000
0000
,
0001
0000
0100
0000
,
0000
0000
0000
0000
,
0010
0000
1000
0000
,
0000
0000
0000
0000
,
0010
0000
0100
0000
,
0000
0000
0000
0000
,
0001
0000
1000
0000
,
0000
0000
0000
0000
,
1001
0000
0000
0000
,
0001
0000
0000
0000
,
0010
0000
0000
0000
,
0100
0000
0000
0000
,
1000
0000
0000
0000
,
1000
0000
0000
0000
,
0100
0000
0000
0000
,
0010
0000
0000
0000
,
0001
0000
0000
0000
,
0100
0000
0000
0000
,
0010
0000
0000
0000
,
0100
0000
0000
0000
,
0001
0000
0000
0000
,
1000
0000
0000
0000
,
0100
0000
0000
0000
,
0010
0000
0000
0000
,
0100
0000
0000
0000
,
1010
0000
0000
0000
,
0110
0000
0000
0000
,
1001
0000
0000
0000
,
0110
0000
0000
0000
,
0011
0000
0000
0000
,
1100
0000
0000
0000
,
1001
0000
0000
0000
,
0110
0000
0000
0000
,
0100
0000
0100
0000
,
0010
0000
0010
0000
,
1000
0000
1000
0000
,
0001
0000
0001
0000
,
0100
0000
0100
0000
,
0010
0000
0010
0000
,
1000
0000
1000
0000
,
0010
0000
0010
0000
,
0110
0000
0000
0000
;

//---------------dance-single - ----------------
#NOTES:
     dance-single:
     :
     Challenge:
     13:
     0.707,0.725,0.439,0.588,0.094: // measure 1
0000
0000
0000
0000
,  // measure 2
0000
0000
0000
0000
,  // measure 3
0000
0000
0000
0000
,  // measure 4
0000
0000
0000
0000
,  // measure 5
0000
0000
0000
0000
,  // measure 6
0000
0000
0000
0000
,  // measure 7
0000
0000
0000
0000
,  // measure 8
2001
0000
0100
0000
0010
0000
3100
0000
1000
0100
0010
0001
0010
0100
1000
0000
,  // measure 9
0000
0000
0102
0000
1000
0000
0103
0000
0001
0010
0100
1000
0100
0010
0001
0000
,  // measure 10
0000
0000
0120
0000
1000
0000
0130
0000
1000
0100
0001
0100
1000
0100
0001
0000
,  // measure 11
0000
0000
1020
0000
0100
0000
0130
0000
0001
0010
1000
0010
0001
0010
1000
0000
,  // measure 12
2010
3100
0001
0101
,  // measure 13
1020
0130
0001
1001
,  // measure 14
0021
0130
1000
1010
,  // measure 15
0102
0013
0100
1100
,  // measure 16
0210
0301
1000
0101
,  // measure 17
1020
0130
0001
1100
,  // measure 18
2001
3100
0010
0110
,  // measure 19
0012
0100
0103
1010
,  // measure 20
0010
0100
0002
0000
0103
0010
2000
0000
,  // measure 21
3010
0100
0001
0100
1000
0100
0002
0000
,  // measure 22
0013
0100
2000
0000
3010
0100
0002
0000
,  // measure 23
0013
0001
1000
0100
0001
0100
2000
0000
,  // measure 24
3010
0100
0002
0000
0103
0010
2000
0000
,  // measure 25
3001
0010
0100
0010
0001
0100
0020
0000
,  // measure 26
1030
0001
0200
0000
0310
1000
0200
0000
,  // measure 27
1300
0001
0100
1000
0100
0001
0010
0100
,  // measure 28
2001
3010
0100
0001
0010
0001
1000
0100
,  // measure 29
0012
0103
0010
1000
0100
1000
0010
0100
,  // measure 30
1020
0130
0001
0100
0010
1000
0100
1000
,  // measure 31
1200
0310
0001
0010
0100
1000
0100
0010
,  // measure 32
0021
0130
1000
0010
0100
0001
0100
0010
,  // measure 33
1020
0130
0001
1000
0100
0010
0100
1000
,  // measure 34
0210
0301
1000
0010
0100
0010
1000
0100
,  // measure 35
1020
0130
0001
0100
0010
0100
0001
1000
,  // measure 36
0010
0100
0001
0000
0100
0000
0010
0000
1000
0100
0010
0000
0001
0000
0100
0000
,  // measure 37
0010
1000
0100
0010
0001
0010
0100
1000
,  // measure 38
0001
0100
0010
0000
0100
0000
0001
0000
0010
0100
1000
0000
0010
0000
0100
0000
,  // measure 39
0001
0100
1000
0100
0010
1000
0100
0010
,  // measure 40
0100
1000
0010
0000
0100
0000
0001
0000
1000
0100
0010
0000
0001
0000
0100
0000
,  // measure 41
0010
1000
0010
0001
0010
1000
0100
0010
,  // measure 42
0001
0100
1000
0000
0010
0000
0100
0000
1000
0100
0001
0000
1000
0000
0010
0000
,  // measure 43
0001
0100
0010
1000
0100
0010
0001
0100
,  // measure 44
0101
0000
0100
0000
1010
0000
0100
0000
0001
0010
0001
0010
0100
1000
0100
1000
,  // measure 45
0002
0000
0103
0010
1000
1000
0010
0200
,  // measure 46
0000
0300
0001
0010
0001
0001
0100
0020
,  // measure 47
0000
1030
1000
0001
1000
0010
0100
0100
,  // measure 48
0001
0100
0010
0100
0010
1000
0100
0012
,  // measure 49
0000
0013
0100
0100
1000
0010
0200
0002
,  // measure 50
0000
0000
0300
0000
0103
0010
0100
2010
,  // measure 51
0000
3001
0100
0010
0100
0010
0010
2001
,  // measure 52
0000
3010
1000
0100
0001
0100
1000
0220
,  // measure 53
0000
0330
0001
0010
0100
1000
1000
0002
,  // measure 54
0100
0203
0310
1000
2000
0100
3001
0012
,  // measure 55
0000
0013
0001
0100
1000
0100
0020
1030
,  // measure 56
0001
0200
0301
0010
1000
0010
0001
1002
,  // measure 57
0000
0013
0100
1000
0100
0010
0100
2000
,  // measure 58
0000
0000
0001
3001
0002
0013
0100
2000
,  // measure 59
0000
3001
0100
1000
0100
0001
0010
0001
,  // measure 60
0010
1000
0010
0001
0100
0010
1000
0220
,  // measure 61
0330
0000
0120
0130
0001
0100
0010
2020
,  // measure 62
0000
3030
0201
0310
1000
0100
0010
0012
,  // measure 63
0000
0013
0100
1000
0100
0010
0001
0100
,  // measure 64
2100
3010
0100
0001
0012
0103
1010
2002
,  // measure 65
3003
0010
0210
0301
1000
0100
0011
0200
,  // measure 66
0000
0310
1000
0100
2010
3100
0001
0022
,  // measure 67
0033
0001
0100
1000
0110
0001
0010
1000
,  // measure 68
0110
0001
0100
0010
1000
0100
0011
2002
,  // measure 69
0000
3003
0100
0001
0010
0100
0010
1020
,  // measure 70
0000
1030
0100
0002
0103
0010
1000
2010
,  // measure 71
0000
3010
0100
0010
1000
0100
0010
0001
,  // measure 72
0010
1000
0100
0010
0001
0010
0100
2000
,  // measure 73
0000
3001
0100
0010
1000
0100
1000
0010
,  // measure 74
0100
0001
0010
0100
1000
0010
0001
0010
,  // measure 75
1000
0100
0001
0100
1000
0010
0001
0100
,  // measure 76
1000
0001
0010
0001
1000
0100
0001
0010
,  // measure 77
2002
0000
0000
0000
,  // measure 78
3003
0000
0000
0000
;
