#TITLE:DYE/Reflection+(DDRedit);
#SUBTITLE:;
#ARTIST:FINAL EVOLUTION;
#TITLETRANSLIT:;
#SUBTITLETRANSLIT:;
#ARTISTTRANSLIT:;
#CREDIT:;
#BANNER:Luka_b.jpg;
#BACKGROUND:Luka.jpg;
#LYRICSPATH:;
#CDTITLE:215edit.png;
#MUSIC:DYEReflection.mp3;
#OFFSET:-0.260;
#SAMPLESTART:70.144;
#SAMPLELENGTH:12.000;
#SELECTABLE:YES;
#BPMS:0.000=165.000,28.000=82.500,44.000=165.000,172.000=82.500,174.000=329.999,430.000=100.000;
#STOPS:;
#BGCHANGES:22.000=DYEReflection.avi=1.000=1=0=1,
430.000=Luka.jpg=1.000=1=0=1,
99999=-nosongbg-=1.000=0=0=0 // don't automatically add -songbackground-
;

//---------------dance-single - goodbye...----------------
#NOTES:
     dance-single:
     goodbye...:
     Challenge:
     20:
     1.000,1.000,0.275,0.220,0.847: // measure 1
0000
0000
0000
0000
,  // measure 2
0000
0000
0000
0000
,  // measure 3
0000
0000
0000
0000
,  // measure 4
0000
0000
0000
0000
,  // measure 5
0000
0000
0000
0000
,  // measure 6
0000
0000
0000
0000
,  // measure 7
0000
0000
0000
0000
,  // measure 8
2000
0000
0000
0000
,  // measure 9
3020
0000
0000
0000
,  // measure 10
0230
0000
0000
0000
,  // measure 11
0002
0303
2002
3003
,  // measure 12
1000
0000
1000
0100
0001
0000
1000
0000
1000
0100
0001
0000
1000
0000
1000
0100
,  // measure 13
0001
0000
0010
1000
0100
0010
0100
1000
0010
0100
0001
0100
0020
0000
0030
0000
,  // measure 14
0001
0000
0001
0010
1000
0000
0001
0000
0001
0010
1000
0000
0001
0000
0001
0010
,  // measure 15
1000
0000
1000
0010
0001
0100
1000
0100
0010
1000
0010
0100
0001
0000
0000
0000
,  // measure 16
0010
0000
0010
1000
0100
0000
0010
0000
0010
1000
0100
0000
0010
0000
0010
1000
,  // measure 17
0100
0000
1000
0100
0001
0010
0100
0001
0100
1000
0010
0100
0001
0000
0000
0000
,  // measure 18
0100
0000
0100
0001
0010
0000
0100
0000
0100
0001
0010
0000
0100
0000
0100
0001
,  // measure 19
0010
0000
0001
0010
0001
0010
0100
0010
0100
0010
0100
1000
0100
0000
0000
0000
,  // measure 20
1000
0010
0100
0001
0100
0000
0001
0010
0100
1000
0010
0000
1000
0010
0001
0100
,  // measure 21
1000
0000
1000
0010
0100
0001
0010
0001
0010
0100
1000
0010
0001
0000
0000
0000
,  // measure 22
0010
0100
1000
0001
0100
0000
0010
1000
0000
0001
0100
0001
0000
1000
0100
0010
,  // measure 23
0100
1000
0001
0100
0010
0100
0001
0010
0100
0010
0001
1000
0010
0000
0000
0000
,  // measure 24
0001
0010
0100
1000
0000
1000
0100
0010
0001
0010
0100
0000
0001
0100
1000
0010
,  // measure 25
0001
0010
0100
1000
0000
1000
0100
0010
1000
0100
0010
0001
0010
0000
0000
0000
,  // measure 26
0100
0010
0001
1000
0010
0001
1000
0100
0001
1000
0000
0001
0100
0001
0010
0001
,  // measure 27
1000
0001
0010
0100
1000
0001
1000
0010
0100
0001
1000
0010
2002
0000
3003
0000
,  // measure 28
0120
0100
1000
0100
0100
0100
1000
0130
,  // measure 29
0102
0010
0010
0100
0010
0010
0100
0103
,  // measure 30
0210
1000
1000
0010
1000
1000
0001
0310
,  // measure 31
2001
0100
0100
0001
0010
0010
0001
3100
,  // measure 32
0120
0001
1000
1000
0001
1000
0100
0130
,  // measure 33
0201
1000
1000
0001
0010
0010
0001
0310
,  // measure 34
1020
0100
0001
0100
0100
0100
0001
0130
,  // measure 35
1002
0100
0100
0010
1000
0100
0100
0103
,  // measure 36
0001
0001
0010
0010
0100
0100
1000
1000
0100
0100
0010
0010
0001
0001
0010
0010
,  // measure 37
0001
0100
0010
0000
1000
0001
0100
0010
1000
0100
0010
0100
1000
0010
0100
0001
,  // measure 38
1000
1000
0100
0100
0010
0010
0001
0001
0010
0010
0100
0100
1000
1000
0100
0100
,  // measure 39
1000
0001
0100
0000
0010
0100
0001
1000
0010
0100
0010
1000
0100
0010
0100
0010
,  // measure 40
0001
0001
0010
0010
0100
0100
1000
1000
0010
0010
0100
0100
0001
0001
0010
0010
,  // measure 41
0100
1000
0010
0000
0100
0010
1000
0010
0001
1000
0100
0001
1000
0010
0100
0001
,  // measure 42
1000
1000
0010
0010
0100
0100
0001
0001
0010
0010
0001
0001
0100
0100
0010
0010
,  // measure 43
1000
1000
1010
0000
0001
0001
0011
0000
0001
0010
1000
0001
0010
1000
0010
0001
,  // measure 44
1001
0000
0020
0130
2000
3020
0230
0301
0020
0130
2000
3020
0230
0301
0020
0130
1001
0000
0000
0000
0000
0000
0000
0000
0010
0000
0000
0000
0100
0000
0000
0000
,  // measure 45
1000
0010
0100
0001
0100
0010
1000
0001
,  // measure 46
0010
0000
0100
0000
1000
0100
0010
0001
0010
0000
0100
0000
0010
0000
0001
0000
,  // measure 47
0100
0010
1000
0001
0100
1000
0100
0001
,  // measure 48
0010
0000
0100
0000
1000
0001
0010
0100
1000
0000
0010
0000
0100
0000
0010
0000
,  // measure 49
0100
0001
0010
0001
0010
0100
1000
0010
,  // measure 50
0100
0000
0001
0000
0100
0010
0100
0010
0100
0000
0001
0000
0010
0000
0100
0000
,  // measure 51
1000
0000
0010
0000
0001
0010
0100
1000
0100
0000
0010
0000
0100
0010
0100
1000
,  // measure 52
0100
0000
0010
0000
0001
1000
0010
0100
0001
0000
1000
0000
0010
0000
0100
0000
,  // measure 53
0010
1000
0001
0010
1000
0010
0001
0100
,  // measure 54
0010
0000
0100
0000
0010
1000
0100
0010
0100
0000
1000
0000
0010
0000
0100
0000
,  // measure 55
0001
1000
0100
0010
0001
0010
0001
0010
,  // measure 56
0100
0000
1000
0000
0100
0010
0001
0010
0100
0000
0010
0000
0100
0000
1000
0000
,  // measure 57
0001
0100
1000
0100
0001
0010
1000
0010
,  // measure 58
0001
0000
0100
0000
0010
1000
0100
0010
0001
0000
0010
0000
0100
0000
0010
0000
,  // measure 59
0100
0000
0001
0000
0100
1000
0010
0100
0001
0000
0010
0000
0001
0010
0100
1000
,  // measure 60
0010
0000
0100
0000
1000
0100
0010
0001
0010
0000
0100
0000
0010
0000
0001
0000
,  // measure 61
1000
0100
1000
0100
0010
0001
0010
0001
,  // measure 62
0100
0000
0010
0000
1000
0001
0010
0100
1000
0000
0010
0000
0100
0000
0010
0000
,  // measure 63
1000
0001
0010
1000
0010
0100
1000
0001
,  // measure 64
0100
0000
1000
0000
0100
0010
0001
0010
0100
0000
0001
0000
0100
0000
0010
0000
,  // measure 65
1000
0001
0010
1000
0010
0001
0100
1000
,  // measure 66
0100
0000
0010
0000
0100
0001
1000
0001
1000
0000
0010
0000
0001
0000
0010
0000
,  // measure 67
1000
0000
0010
0000
0100
0010
0100
0010
0100
0000
0001
0000
1000
0010
1000
0010
,  // measure 68
1000
0000
0010
0000
0100
0001
0100
0001
0100
0000
0010
0000
1000
0000
0100
0000
,  // measure 69
0010
0001
0100
0010
1000
0100
0010
0001
,  // measure 70
0100
0000
0010
0000
1000
0001
0010
0001
0100
0000
0010
0000
0100
0000
0001
0000
,  // measure 71
1000
0001
0010
0100
0010
0001
1000
0100
,  // measure 72
0010
0000
0100
0000
1000
0100
0010
0100
1000
0000
0001
0000
0010
0000
0100
0000
,  // measure 73
1000
0001
0010
0100
1000
0001
0100
0010
,  // measure 74
1000
0000
0001
0000
1000
0100
0010
0001
0010
0000
0001
0000
0001
0010
0100
1000
,  // measure 75
0100
0000
0100
0000
0010
0001
0010
0100
1000
0000
1000
0000
1000
0100
0010
0001
,  // measure 76
0010
0000
0010
0000
0001
0010
0100
1000
1001
0000
0000
0000
0001
0000
0010
0000
,  // measure 77
0001
0010
0100
1000
0010
0100
0001
0100
,  // measure 78
0010
1000
0010
0100
1001
0100
0010
0100
,  // measure 79
0001
0010
0100
1000
0100
0001
0100
1000
,  // measure 80
0010
0100
0001
0100
1010
0100
0010
0100
,  // measure 81
0001
1000
0001
1000
0010
1000
0010
0100
,  // measure 82
0001
0010
1000
0010
1001
0001
1000
0010
,  // measure 83
0001
0010
1000
0010
0100
0001
0010
0100
,  // measure 84
1000
0001
0100
0001
1010
0100
0010
0100
,  // measure 85
0001
0010
0100
1000
1001
1000
0100
0010
,  // measure 86
0001
0010
0100
0010
1001
0010
0100
0010
,  // measure 87
0001
0010
0100
1000
1001
0100
0010
0001
,  // measure 88
0010
0100
1000
0010
0110
0100
0001
1000
,  // measure 89
0001
0100
0010
0100
0101
0010
0100
0010
,  // measure 90
1000
0100
0010
0001
1001
0010
0100
1000
,  // measure 91
0010
0100
0010
1000
1001
0010
0100
0010
,  // measure 92
0001
0010
0100
1000
1010
0010
0100
0001
,  // measure 93
0100
0010
1000
0001
0100
0010
0100
0001
,  // measure 94
0010
1000
0010
0001
1001
0100
1000
0100
,  // measure 95
0001
0010
1000
0010
0001
0100
0010
1000
,  // measure 96
0100
0001
1000
0010
1001
0010
0100
1000
,  // measure 97
0100
0010
0001
0100
0010
0100
0010
1000
,  // measure 98
0001
0100
0010
1000
0110
0001
0010
1000
,  // measure 99
0010
0001
0010
1000
0010
0001
0100
1000
,  // measure 100
0100
0001
0010
0001
0011
0010
0100
1000
,  // measure 101
0100
1000
0100
0010
0011
0001
0010
0100
,  // measure 102
0010
0001
1000
0100
1010
0100
0001
0100
,  // measure 103
0010
1000
0010
0100
1001
0010
0100
1000
,  // measure 104
0100
0000
0010
0000
0100
0000
0001
0000
1000
0100
0010
0001
0010
0000
0100
0000
,  // measure 105
0010
0000
0100
0000
0001
0000
0100
0000
0001
0010
0100
1000
0100
0000
0010
0000
,  // measure 106
0001
0000
0100
0000
0010
0000
0010
0000
1000
0100
0010
0001
0010
0000
0001
0000
,  // measure 107
0100
0010
0100
0001
1000
0000
0010
0000
0100
0001
1000
0010
1000
0000
0001
0000
,  // measure 108
0001
0010
0100
1000
0100
0010
0001
0000
2002
0000
0000
0000
0000
0000
0000
0000
,  // measure 109
3003
0000
0000
0000
;
