#TITLE:DRAGONLADY;
#SUBTITLE:;
#ARTIST:Nankumo;
#TITLETRANSLIT:;
#SUBTITLETRANSLIT:;
#ARTISTTRANSLIT:;
#CREDIT:;
#BANNER:;
#BACKGROUND:;
#LYRICSPATH:;
#CDTITLE:;
#MUSIC:DRAGONLADY.mp3;
#OFFSET:-6.400;
#SAMPLESTART:19.100;
#SAMPLELENGTH:12.000;
#SELECTABLE:YES;
#BPMS:0.000=149.970;
#STOPS:29.750=0.100
,30.250=0.100
,30.750=0.100
,159.250=0.695
,159.500=0.690
,159.750=0.695
,160.000=0.690
,160.250=0.690
,160.500=0.695
,169.500=0.385
,170.500=0.390
;
#BGCHANGES:;

//---------------dance-single - ----------------
#NOTES:
     dance-single:
     :
     Challenge:
     10:
     0.865,0.937,0.898,0.454,1.000: // measure 1
0000
0000
0000
0000
,  // measure 2
0000
0000
0000
0000
,  // measure 3
0000
0000
0000
0000
,  // measure 4
0000
0000
0000
0000
0000
0000
0000
0000
0001
1000
0001
1000
0010
0100
0010
0100
,  // measure 5
1000
0000
1000
0010
0001
1000
0010
0000
0001
0000
0001
0100
1000
0010
0100
0000
,  // measure 6
0010
0000
0010
0001
1000
0100
0001
0000
0001
0000
0001
0010
1000
0100
0001
0000
,  // measure 7
0100
0000
0100
1000
0100
0001
1000
0000
0010
0000
0010
1000
0001
0100
1000
0000
,  // measure 8
0001
0000
0001
1000
0010
0100
0000
2002
3003
2002
3003
2002
3003
0100
0000
0100
,  // measure 9
0010
1000
0100
0001
0000
0010
0000
0010
1000
0100
0001
0010
0000
0001
0000
0001
,  // measure 10
0100
0010
1000
0001
0000
2200
3300
0100
1000
0001
0010
1000
0000
0010
0000
0010
,  // measure 11
1000
0100
0001
0010
0000
1000
0000
1000
0001
0010
1000
0100
0000
0001
0000
0001
,  // measure 12
1000
0001
0100
1000
0000
0100
0000
0100
0001
0010
1000
0100
0000
0010
0000
0010
,  // measure 13
0100
0001
1000
0010
0000
1000
0000
1000
0010
0001
0100
0010
0000
0001
0000
0001
,  // measure 14
1000
0010
0100
0001
0000
1000
0000
1000
0100
0001
0010
1000
0000
0010
0000
0010
,  // measure 15
0001
1000
0010
0001
0000
0010
0000
0010
1000
0001
0100
0001
0000
1000
0000
1000
,  // measure 16
0100
0001
0010
1000
0000
2000
0000
0000
0200
0000
0000
0000
0000
3310
2000
0000
,  // measure 17
3001
0100
0010
1000
0100
0001
0010
1000
0001
0100
0000
0000
0000
1001
0000
0100
,  // measure 18
0010
1000
0001
0100
0001
0010
1000
0100
0001
1000
0010
0001
1000
0200
0000
0310
,  // measure 19
0000
0000
0000
1000
0001
0010
1000
0001
0100
0010
1000
0000
0000
2002
0000
0000
,  // measure 20
0000
3103
0010
1000
0001
0100
1000
0010
0100
1001
0000
0000
0000
1000
0100
0010
,  // measure 21
0001
0020
0000
0030
1000
0001
0100
1000
0010
0001
0000
0000
0000
1001
0000
0100
,  // measure 22
0010
1000
0001
0100
0010
1000
0100
0001
0010
1000
0001
0010
1000
0100
1001
0000
,  // measure 23
0000
1001
0000
0000
0000
0000
0000
0000
0000
1001
0000
0000
0000
0220
0000
0000
,  // measure 24
0000
0000
0000
0000
1330
0001
1000
0001
1000
0001
1000
0001
1000
0110
0000
0000
,  // measure 25
1001
0000
1010
0000
2200
0000
0000
0000
0000
0000
0000
0000
3300
0110
0000
0000
,  // measure 26
1100
0000
0110
0000
0202
0000
0000
0000
0000
0000
0000
0000
0303
0110
0000
0000
,  // measure 27
1010
0000
0110
0000
0022
0000
0000
0000
0000
0000
0000
0000
0033
0110
0000
0000
,  // measure 28
1001
0000
0101
0000
0022
0000
0000
0000
0000
0000
0000
0000
0033
1100
0000
0000
,  // measure 29
0110
0000
0011
0000
0220
0000
0000
0000
0000
0000
0000
0000
0330
1001
0000
0000
,  // measure 30
1100
0000
0011
0000
2002
0000
0000
0000
0000
0000
0000
0000
3003
0110
0000
0000
,  // measure 31
1100
0000
0110
0000
0011
1100
0000
0000
1100
0000
0110
0000
1010
0101
0000
0000
,  // measure 32
1010
0101
0000
0000
0110
0110
0100
0010
0100
0010
0100
0010
0100
0110
0000
0000
,  // measure 33
0000
1010
0101
0000
0220
0000
0000
0000
0000
0000
0000
0000
0330
0110
0000
0000
,  // measure 34
1100
0000
0101
0000
2020
0000
0000
0000
0000
0000
0000
0000
3030
0110
0000
0000
,  // measure 35
0101
0000
0110
0000
2200
0000
0000
0000
0000
0000
0000
0000
3300
0110
0000
0000
,  // measure 36
0101
0000
1010
0000
0220
0000
0000
0000
0000
0000
0000
0000
0330
0110
0000
0000
,  // measure 37
0101
0000
1001
0000
2200
0000
0000
0000
0000
0000
0000
0000
3300
0110
0000
0000
,  // measure 38
1010
0000
1001
0000
2200
0000
0000
0000
0000
0000
0000
0000
3300
0110
0000
0000
,  // measure 39
0011
0000
1010
0000
0202
0000
0000
0000
0000
0000
0000
0000
0303
0110
0000
0000
,  // measure 40
0110
0000
0011
0000
0101
0001
1000
0001
1000
0001
1000
0001
1000
1001
1001
1001
,  // measure 41
1001
1001
1001
1000
0001
1000
0001
1000
0001
1000
0001
1000
0001
1000
0001
1000
,  // measure 42
0001
1000
0001
1000
0001
1000
0001
1000
0001
1000
0001
1000
0001
1000
0001
1000
,  // measure 43
0001
1000
0001
1000
0001
0000
1000
0000
0001
0000
1000
0000
0001
0000
1000
0000
,  // measure 44
0001
0000
1000
0000
0001
1000
0001
1000
0001
1000
0001
1000
0001
0000
0001
0100
,  // measure 45
1000
0010
0100
0000
0010
0000
0010
0100
0001
1000
0010
0000
0100
0000
0100
0001
,  // measure 46
1000
0100
0001
0000
1200
0000
1300
0100
0001
0010
1000
0000
0100
0000
0100
0001
,  // measure 47
1000
0010
0100
0000
0010
0000
0010
1000
0100
0001
0010
0000
0001
0000
0001
0100
,  // measure 48
1000
0001
0100
0000
0010
0000
0010
0001
1000
0010
0001
0000
0100
0000
0100
1000
,  // measure 49
0010
0100
0001
0000
1000
0000
1000
0100
0001
1000
0010
0000
0100
0000
0100
1000
,  // measure 50
0001
0010
1000
0000
0210
0000
0310
0001
1000
0001
0010
0000
0001
0000
0001
0010
,  // measure 51
1000
0100
0001
0000
0010
0000
0010
0001
1000
0100
0001
0000
0100
0000
0100
0010
,  // measure 52
1000
0001
0010
0000
1000
0000
1000
0010
0001
0100
0010
0000
0000
0000
0000
0000
;
