#TITLE:DDR MICROMIX 1;
#SUBTITLE:(un deux trois, b4u, cutie chaser, paranoia);
#ARTIST:VARIOUS;
#TITLETRANSLIT:;
#SUBTITLETRANSLIT:;
#ARTISTTRANSLIT:;
#CREDIT:;
#BANNER:bn.png;
#BACKGROUND:;
#LYRICSPATH:;
#CDTITLE:;
#MUSIC:DDR MICROMIX 1.mp3;
#OFFSET:0.000;
#SAMPLESTART:38.450;
#SAMPLELENGTH:8.200;
#SELECTABLE:YES;
#BPMS:0.000=140.580,83.813=155.020,137.250=126.180,201.125=180.380;
#STOPS:;
#BGCHANGES:;

//---------------dance-single - ----------------
#NOTES:
     dance-single:
     :
     Challenge:
     6:
     0.458,0.499,0.276,0.476,0.008: // measure 1
0000
2002
0000
0000
0000
0000
0000
3003
,  // measure 2
0010
0100
0010
0100
,  // measure 3
1000
0000
1000
0000
1000
0000
0001
1000
,  // measure 4
0020
0000
0100
0100
0100
0100
0031
1000
,  // measure 5
0010
0000
0100
0010
0001
1000
0010
0100
,  // measure 6
0010
0001
1010
0100
,  // measure 7
0010
0000
1001
0000
0100
0100
1001
0000
,  // measure 8
0020
0000
0002
0030
0103
1000
0010
0000
,  // measure 9
0001
0010
0100
1000
0001
0010
0100
2000
,  // measure 10
0010
0000
0000
0010
0010
0000
0100
3000
,  // measure 11
0002
0000
0010
0000
0100
0000
1000
0003
,  // measure 12
2000
0000
0000
0010
0000
0100
0010
3000
,  // measure 13
0002
0000
0010
0100
1000
0010
0100
1000
,  // measure 14
0003
0010
0000
0100
0000
1001
0110
0000
,  // measure 15
0011
0000
0000
1100
1010
0000
1001
0000
,  // measure 16
0101
0000
0000
0011
0000
0101
0000
1000
,  // measure 17
0010
0110
0000
0002
0000
0010
0000
0010
,  // measure 18
0000
0010
0000
0010
0000
0010
0000
0013
,  // measure 19
0000
1000
0100
0010
0001
1000
0100
0010
,  // measure 20
0001
0001
0010
0100
1000
1000
0100
0010
,  // measure 21
0001
0010
0000
0200
0000
0310
0000
0000
,  // measure 22
2002
0000
0000
0000
0000
0000
0000
3003
,  // measure 23
2002
0000
0000
3003
,  // measure 24
0010
0100
0010
0100
,  // measure 25
0010
0100
0010
0100
0010
0100
0000
0000
,  // measure 26
0001
2001
0000
0000
0010
0010
3000
0200
,  // measure 27
0000
0010
0000
0010
0300
0001
1000
0020
,  // measure 28
0000
0000
0000
0200
0000
0030
0300
0001
,  // measure 29
0000
0001
0000
1000
1000
2000
0000
0010
,  // measure 30
0010
0000
0010
0000
0010
3000
0002
0000
,  // measure 31
0010
0000
0100
0000
1003
0010
0100
0010
,  // measure 32
0000
0100
0000
0010
0000
0000
0100
0010
,  // measure 33
0100
0000
0000
0000
0000
1001
0110
0000
,  // measure 34
1001
0110
0000
0002
0000
2000
0000
0000
,  // measure 35
3000
0003
0000
0010
0000
0100
0000
0010
,  // measure 36
0000
0001
0000
1000
0000
0000
1000
1000
,  // measure 37
0000
0000
0000
0010
0000
0100
0000
0001
,  // measure 38
1000
0010
0000
0010
0000
0200
0000
0300
,  // measure 39
0001
1000
0000
0020
0000
0130
0001
1000
,  // measure 40
0000
0010
0000
0100
0000
0010
0000
0002
,  // measure 41
0000
1000
0000
1000
0000
1000
0000
0013
,  // measure 42
0100
0010
0000
0110
0000
0002
0000
1000
,  // measure 43
0000
0010
0003
1000
0000
1000
0100
0100
,  // measure 44
0000
0020
0000
0001
0000
1000
0030
0001
,  // measure 45
0000
1000
0010
0200
0000
0010
0001
1000
,  // measure 46
0000
0010
0301
2000
0000
0000
0020
0030
,  // measure 47
0000
0010
0010
0000
0000
0020
0030
3000
,  // measure 48
0002
0003
2000
0000
3000
0002
0000
0010
,  // measure 49
0000
0100
0000
1003
0000
0000
0010
0000
,  // measure 50
0100
0000
0100
0000
0100
0000
0000
0002
,  // measure 51
0000
0000
0000
0000
0000
0003
1000
0010
,  // measure 52
0000
0100
0000
0001
0000
1000
0000
0010
,  // measure 53
0000
0100
0000
0000
0001
1000
0010
0100
,  // measure 54
0010
0001
1000
0010
0100
0000
0010
0100
,  // measure 55
0000
0010
0000
0000
1001
0000
1001
0000
,  // measure 56
0000
0020
0000
0100
0000
0100
0000
0100
,  // measure 57
0000
0100
0000
0000
0130
0000
0002
1000
,  // measure 58
0000
0010
0000
0100
0000
1000
0000
0010
,  // measure 59
0000
0100
0000
1000
0003
0000
0000
1002
,  // measure 60
0000
0000
0000
0000
0000
0000
0000
0003
,  // measure 61
0000
0110
0000
1001
0000
0010
0200
0000
,  // measure 62
0000
0000
0000
0000
,  // measure 63
0000
0300
0000
0001
0000
0000
1000
0020
,  // measure 64
0000
0000
0000
0000
0000
0000
0000
0030
,  // measure 65
0000
0220
0030
0002
0000
0300
2000
0000
,  // measure 66
0000
3000
0020
0000
0030
0200
0000
0000
,  // measure 67
0000
2303
0002
0000
0003
0010
0100
0010
,  // measure 68
0000
0100
0010
0100
0000
3002
0000
0000
,  // measure 69
0010
0000
0000
0000
0010
0100
0000
0000
,  // measure 70
0000
0000
0003
1000
,  // measure 71
0010
0100
0001
2020
,  // measure 72
0000
0000
0030
0000
0000
0000
0000
3000
,  // measure 73
2200
0000
0300
0010
0000
0000
0002
0000
,  // measure 74
0000
0023
0000
0000
0030
0200
0000
3300
,  // measure 75
0000
0000
0000
0000
0110
0000
0000
1001
0000
0000
0000
1001
0000
0000
0000
0000
;
