#TITLE:DARE;
#SUBTITLE:(From The Album Demon Days);
#ARTIST:The Gorillaz;
#TITLETRANSLIT:DARE;
#SUBTITLETRANSLIT:(Demon Days);
#ARTISTTRANSLIT:;
#CREDIT:;
#BANNER:DARE.png;
#BACKGROUND:DARE-bg.png;
#LYRICSPATH:;
#CDTITLE:;
#MUSIC:DARE.ogg;
#OFFSET:0.000;
#SAMPLESTART:22.880;
#SAMPLELENGTH:10.580;
#SELECTABLE:YES;
#DISPLAYBPM:140.000;
#BPMS:0.000=100.020,12.000=140.000;
#STOPS:;
#BGCHANGES:2.000=DARE.avi=1.000=1=1=1,
14.000=-random-=1.000=0=0=1,
165.000=DARE-bg.png=1.000=0=0=1,
99999=-nosongbg-=1.000=0=0=0 // don't automatically add -songbackground-
;

//---------------dance-single - ----------------
#NOTES:
     dance-single:
     :
     Beginner:
     3:
     0.219,0.339,0.256,0.148,0.000:
0000
0000
0000
0000
,
0000
0000
0000
0000
,
0000
0000
0000
0000
,
0000
0000
1000
0010
,
0000
0000
0001
0000
,
1000
0000
0010
0000
,
0100
0000
0001
0010
,
0100
1000
0000
0000
,
0000
2002
0000
0000
,
0000
0000
0000
0000
,
0003
3000
0010
0100
,
0001
1000
0010
0000
,
0100
0010
1001
0000
,
0000
0010
0000
0000
,
0000
0000
0000
0010
,
0000
0000
0100
0000
,
0000
0000
0100
0000
,
0000
0000
1000
0100
,
0010
0001
0010
0000
,
0100
1000
0200
0000
,
0300
0001
0000
0000
,
1001
0011
1100
0110
,
0000
0000
0001
0010
,
0100
1000
0100
0002
,
0000
2003
3000
0010
,
0100
0001
1000
0000
,
0010
0100
0001
1000
,
0010
0100
0000
0001
,
1000
0000
1001
1001
,
1001
1001
1001
0000
,
0010
0100
0010
0100
,
0000
0000
0022
0033
,
2200
3300
0000
0000
,
0010
0010
0200
0300
,
0010
0001
0010
0000
0200
0000
0300
0000
,
0000
0000
0000
0000
,
0000
0000
0000
0000
,
1001
0110
0000
0000
,
1000
0000
0000
0001
,
0000
1000
0000
0001
,
0000
0000
1000
0000
,
0110
1001
0011
0000
,
1100
0000
0000
0000
;

//---------------dance-single - ----------------
#NOTES:
     dance-single:
     :
     Easy:
     4:
     0.267,0.453,0.337,0.135,0.000: // measure 1
2002
0000
0000
0000
,  // measure 2
0000
0000
0000
0000
,  // measure 3
0000
0000
0000
0000
,  // measure 4
0000
3003
0010
0100
,  // measure 5
0001
1000
0010
0000
,  // measure 6
0100
0001
1000
0020
,  // measure 7
0000
0030
0100
1001
,  // measure 8
0000
0010
1001
0010
,  // measure 9
1001
1001
1001
1001
,  // measure 10
1001
1001
1001
1001
,  // measure 11
0000
0000
1001
1001
,  // measure 12
0000
0000
0000
1001
,  // measure 13
1001
0000
0000
1001
,  // measure 14
0110
0000
0011
1100
,  // measure 15
0000
1010
0101
0000
,  // measure 16
0000
1000
0000
0020
,  // measure 17
0030
0002
0000
0000
,  // measure 18
0000
0003
1000
0100
,  // measure 19
0010
0001
0000
1000
,  // measure 20
0100
0010
0001
1000
,  // measure 21
0100
0000
0010
0001
,  // measure 22
1000
0100
0010
0001
,  // measure 23
0000
1000
0100
0010
,  // measure 24
0001
1000
0100
0010
,  // measure 25
0000
0001
1000
0100
,  // measure 26
0010
0001
0000
1000
,  // measure 27
0100
0010
0001
1000
,  // measure 28
0100
0010
0000
0001
,  // measure 29
1000
0100
0010
0001
,  // measure 30
0000
1000
0100
0010
,  // measure 31
0001
0001
0010
0100
,  // measure 32
0000
1000
2000
0000
,  // measure 33
3200
0000
0300
0000
,  // measure 34
0001
0010
0000
1001
,  // measure 35
0001
0000
0010
0000
,  // measure 36
1001
0000
0000
0010
,  // measure 37
0000
0000
0000
0010
,  // measure 38
0010
0200
0000
0000
,  // measure 39
0300
0001
0000
1000
,  // measure 40
0000
0001
0001
1000
,  // measure 41
1000
0000
0000
0000
,  // measure 42
1001
2002
0000
0000
,  // measure 43
3003
0000
0000
0000
;

//---------------dance-single - ----------------
#NOTES:
     dance-single:
     :
     Medium:
     6:
     0.337,0.423,0.189,0.404,0.000:
0000
0000
1000
0000
0000
1000
0000
0000
,
1000
0000
0000
0000
1000
0000
0000
1000
,
0000
0000
1000
0000
0000
0000
1001
0110
,
0000
0000
0000
0000
2000
0000
0000
3000
,
0002
0000
0000
0003
1000
0000
0000
0010
,
0100
0000
0100
0000
0010
0000
0000
0001
,
0000
1000
1000
0010
0000
0000
0001
0100
,
0000
0000
0010
0001
0000
0000
0000
1000
,
0000
0100
0100
0000
0000
0000
0001
0001
,
0000
0000
1000
0000
1000
0000
0000
0010
,
0000
0010
0000
0000
0100
0100
0000
0000
,
0010
0000
0010
0000
0000
0001
0001
0001
,
0000
1000
1000
1000
0000
0000
0000
1000
,
1000
0100
0100
0010
0010
0000
0001
0001
,
0000
0002
0000
0000
2000
0000
0000
3003
,
0000
1000
1000
0000
0100
0100
0010
0010
,
0001
0002
0000
0000
0020
0000
0033
0200
,
0000
2300
0000
3000
0000
0000
0200
0000
,
0300
0000
0200
0000
0300
0000
0000
0010
,
0000
0100
0000
0001
0000
2000
0000
0000
,
0000
3000
0010
0000
0010
0010
0000
0000
,
0000
0000
0010
0000
0010
0010
0000
0000
,
0000
1000
0100
0010
0001
0000
0000
0000
,
0000
0000
0000
0000
0000
0000
0000
1001
,
1001
0000
0110
0110
0000
0000
2000
0000
,
0200
3000
0000
0320
0000
0032
0000
0023
,
0000
0200
0030
0000
2300
0000
3200
0000
,
0320
0000
0000
0032
0000
0023
0000
0230
,
0000
2300
0000
0000
3020
0000
0000
0000
,
0000
0230
0000
0000
0000
0000
0000
0300
,
0000
0000
0000
0000
,
0000
0000
0000
1001
0000
0011
0000
0000
,
1100
0000
1010
0000
1010
0000
0000
0100
,
0100
0100
0100
0000
0000
0020
0000
0030
,
0000
0100
0100
0100
0100
0000
0020
0000
,
0000
0000
0000
0000
,
0000
0000
0000
0000
0000
0030
0000
0000
,
0001
0000
0001
0000
0000
0001
0000
0001
,
0000
0001
0000
0001
0000
0001
0001
0001
,
0001
0001
0000
0001
0000
0001
0000
0001
,
0000
0001
0000
0000
0000
0000
0000
0000
,
1001
0000
0000
0110
0000
2002
0000
3003
;

//---------------dance-single - ----------------
#NOTES:
     dance-single:
     :
     Hard:
     7:
     0.462,0.563,0.673,0.202,0.027:
0000
1000
1000
0000
0000
0001
0001
0000
,
1000
1000
0000
0000
0001
0001
0000
0010
,
0100
0010
0010
0100
0010
0000
2000
0002
,
0000
3003
0000
0000
0010
0010
0100
0100
,
1000
0000
1000
0100
0100
0010
0000
0010
,
0010
0000
0001
0001
0001
0000
1000
0000
,
1000
0000
0000
0010
0000
0010
0000
0000
,
0100
0100
0100
0000
,
0000
1000
1000
0000
0000
0000
0100
0100
,
0000
0000
0000
0010
0010
0000
0000
0001
,
0000
0001
0000
0000
1000
1000
0100
0100
,
0010
0010
0000
0001
0001
0001
0000
0000
,
0000
2002
0000
0000
3020
0000
0030
0003
,
0000
0200
0000
2000
0300
0000
3010
0100
,
0000
0001
0000
0010
0000
0010
0100
0000
,
0000
0000
0000
1000
0000
1000
0100
0100
,
0010
0010
0001
0001
0001
0000
0001
0001
,
0000
0000
0000
0000
1001
0000
0110
0110
,
1001
0000
0000
0110
0110
1001
0000
0110
,
0110
0000
0000
1001
0110
0000
1001
0000
,
0110
0000
0000
1001
0000
0110
0000
0000
,
1001
0110
0000
1001
0110
0000
0000
0000
,
0000
2000
0000
0200
0000
0000
0000
0000
,
0000
0000
0000
0000
3300
0000
0000
1001
,
1001
1001
0000
0000
0000
0000
0002
0000
,
0020
0000
0000
0000
0000
0000
0003
0030
,
0000
0110
0110
0110
0000
0000
1001
1001
,
0000
1001
0000
0110
0110
0000
1001
0000
,
1010
1010
1010
1010
,
1010
0000
1010
1010
1010
1010
0000
0000
,
1010
0000
1010
1010
1010
0000
0000
0000
,
0000
0000
0000
1000
0100
0011
0010
0100
,
1000
0110
0001
0000
0010
0100
0000
1000
,
1000
0100
0000
0110
0000
0020
0000
0000
,
0030
1000
0100
0110
0220
0000
0332
0000
,
0000
0000
0000
0000
,
0000
0000
0000
0003
,
0000
0000
1000
0100
0010
0001
0010
0100
,
0000
1000
0100
0010
0001
0010
0100
1000
,
0100
0010
0001
1000
0100
0000
0010
0001
,
1000
0100
0010
0001
1000
0100
0000
0000
,
0000
1000
0000
0000
0010
0000
0000
0100
0000
0000
0001
0001
0000
0100
0000
0000
;
