#TITLE:Como Se Sente;
#SUBTITLE:;
#ARTIST:Capital Inicial;
#TITLETRANSLIT:;
#SUBTITLETRANSLIT:;
#ARTISTTRANSLIT:;
#GENRE:;
#CREDIT:;
#BANNER:Capital Inicial - Como Se Sente_2.png;
#BACKGROUND:Capital Inicial - Como Se Sente.png;
#LYRICSPATH:;
#CDTITLE:;
#MUSIC:Capital Inicial - Como Se Sente.mp3;
#OFFSET:0.000;
#SAMPLESTART:49.800;
#SAMPLELENGTH:16.315;
#SELECTABLE:YES;
#DISPLAYBPM:147.100;
#BPMS:0.000=147.100
,89.500=5.000
,89.521=147.100
;
#STOPS:;
#BGCHANGES:;
#KEYSOUNDS:;
#ATTACKS:;

//---------------dance-single - Blank----------------
#NOTES:
     dance-single:
     Blank:
     Hard:
     7:
     0.412,0.452,0.247,0.078,0.000,197.000,19.000,6.000,0.000,0.000,0.000,0.412,0.452,0.247,0.078,0.000,197.000,19.000,6.000,0.000,0.000,0.000: // measure 0
0000
0000
0000
0000
,  // measure 1
0000
0000
0000
0000
,  // measure 2
0000
0000
0000
0000
,  // measure 3
0000
0000
0000
0000
,  // measure 4
0000
0000
0000
0000
,  // measure 5
0000
0000
0000
0000
,  // measure 6
0000
0000
0000
0000
0000
1000
0001
1000
,  // measure 7
0001
0000
0100
0000
0000
0010
1000
0000
,  // measure 8
1000
0010
0000
1000
0000
0001
0010
0000
,  // measure 9
0010
0001
0000
0100
0000
0001
1000
0000
,  // measure 10
1000
0001
0000
1000
0000
0010
0100
0000
,  // measure 11
0100
0010
0000
0100
0000
0001
1000
0000
,  // measure 12
1000
0001
0000
0100
0000
0001
0010
0000
,  // measure 13
0100
0010
0000
1000
0000
0100
0001
0000
,  // measure 14
1000
0100
0000
1000
0000
0010
0100
0000
,  // measure 15
0001
0010
0000
0100
0000
1000
0000
0100
,  // measure 16
0000
0001
0000
0100
1000
0010
0000
1000
,  // measure 17
0000
0100
0000
0001
0000
0100
0000
1000
,  // measure 18
0001
0010
0000
0100
0000
1000
0000
0001
,  // measure 19
0000
1000
0000
0010
0100
0010
0000
0100
,  // measure 20
0000
0001
0000
1000
0000
0001
0000
0010
,  // measure 21
0001
1000
0000
0100
0000
2100
0000
0100
,  // measure 22
0000
0200
0000
0000
3300
0000
0001
1000
,  // measure 23
0001
0000
1010
0000
0001
1000
0001
0000
,  // measure 24
0010
0001
1000
0100
0010
0001
1000
0000
,  // measure 25
0010
0000
1010
0000
0010
1000
0001
0000
,  // measure 26
0001
0010
0100
1000
0010
0100
0001
0000
,  // measure 27
0100
0000
0101
0000
0100
1000
0010
0000
,  // measure 28
0010
1000
0100
0001
0100
1000
0010
0000
,  // measure 29
1010
1100
0011
0101
,  // measure 30
0001
0000
1000
0000
0001
1000
0001
0000
,  // measure 31
0010
0000
1001
0000
0100
0001
0010
0000
,  // measure 32
0010
0001
0100
0001
0010
0100
1000
0000
,  // measure 33
0010
0000
1010
0000
0010
1000
0001
0000
,  // measure 34
0001
1000
0010
1000
0010
0100
0001
0000
,  // measure 35
0100
0000
0101
0000
0001
0010
0001
0000
,  // measure 36
1000
0010
1000
0001
1000
1000
1000
0000
,  // measure 37
1001
0110
1001
1001
,  // measure 38
0110
0000
1001
0000
0220
0000
0000
0330
,  // measure 39
1000
0000
0001
0000
0010
1000
0100
0000
,  // measure 40
1000
0000
0010
0000
1000
0001
0010
0000
,  // measure 41
0100
0000
1000
0000
0010
0100
0001
0000
,  // measure 42
1000
0000
0001
0000
1000
0001
0100
0000
,  // measure 43
0001
0000
1000
0000
0010
0100
0001
0000
,  // measure 44
0010
0000
0001
0000
1000
0010
0100
0000
,  // measure 45
2002
0000
0000
0000
,  // measure 46
0000
0000
0000
3003
0000
0000
0000
0000
;

//---------------dance-single - Blank----------------
#NOTES:
     dance-single:
     Blank:
     Medium:
     5:
     0.351,0.392,0.351,0.039,0.000,159.000,27.000,3.000,0.000,0.000,0.000,0.351,0.392,0.351,0.039,0.000,159.000,27.000,3.000,0.000,0.000,0.000:
0000
0000
0000
0000
,
0000
0000
0000
0000
,
0000
0000
0000
0000
,
0000
0000
0000
0000
,
0000
0000
0000
0000
,
0000
0000
0000
0000
,
0000
0000
0000
0000
0000
1000
0100
1000
,
0100
1000
0000
0000
,
0000
0000
0000
0000
0010
1000
0010
0000
,
1000
0010
0000
1000
0000
0000
0000
0000
,
0000
0000
0000
0000
0000
0001
0010
0000
,
0001
0010
0000
0001
0000
0000
0000
0000
,
0000
0000
0000
0000
0000
1000
0001
0000
,
1000
0001
0000
1000
0000
0001
0000
1000
,
0000
0001
0000
0100
0000
0010
0000
0000
,
0000
0100
0001
0010
0000
0001
0100
0000
,
0000
1000
0000
0100
0000
1000
0010
0000
,
0000
0010
0000
0100
0000
0100
0001
1000
,
0000
0010
0000
1000
0000
1000
0001
0000
,
0000
0100
0000
0010
0000
0010
1000
0100
,
0000
0100
0000
0010
0000
0100
0010
0000
,
0000
0100
0000
0010
0000
1000
0001
0100
,
0000
0001
0000
1001
0100
0000
0001
0000
,
0010
1001
0010
0110
,
1000
1100
0001
0011
,
0010
0110
0010
1001
,
0001
1001
0100
1100
,
1000
1010
0010
0011
,
0001
0101
0100
1100
,
1000
0001
1000
0001
,
1001
1001
1001
1001
,
0010
1000
0100
0001
,
0010
0100
1000
0010
,
1001
1010
1100
1000
,
0011
0101
1001
1000
,
0010
1001
0100
1001
,
0010
0000
1001
0000
0001
0020
1000
0000
,
0031
0000
1000
0000
0001
0000
0100
0020
,
1000
0031
0001
0010
,
0100
0100
0100
0000
1000
0000
0001
0000
,
0010
0010
0010
0000
0001
0000
1000
0000
,
0001
0001
0001
0000
1000
0000
0001
0000
,
0010
0010
0010
0000
0100
0000
1000
0000
,
0100
0100
0100
0000
1000
0000
0010
0000
,
1000
1000
1000
0000
0010
0000
0100
0000
,
1002
0000
0000
0000
,
0000
0000
0000
0003
0000
0000
0000
0000
;

//---------------dance-single - Blank----------------
#NOTES:
     dance-single:
     Blank:
     Easy:
     4:
     0.275,0.351,0.182,0.091,0.000,127.000,14.000,7.000,0.000,0.000,0.000,0.275,0.351,0.182,0.091,0.000,127.000,14.000,7.000,0.000,0.000,0.000:
0000
0000
0000
0000
,
0000
0000
0000
0000
,
0000
0000
0000
0000
,
0000
0000
0000
0000
,
0000
0000
0000
0000
,
0000
0000
0000
0000
,
0000
0000
0000
0000
0000
1000
0000
1000
,
0000
1000
0000
0100
0000
0000
0000
0000
,
0000
0000
0000
0000
0000
0001
0000
0001
,
0000
0001
0000
0010
0000
0000
0000
0000
,
0000
0000
0000
0000
0000
0100
0000
0100
,
0000
0100
0000
0010
0000
0000
0000
0000
,
0000
0000
0000
0000
0000
0010
0000
0010
,
0000
0010
0000
0100
0000
0000
0000
0000
,
0000
1001
0000
0000
0000
0000
0000
0000
,
0000
0010
0000
0001
0000
0100
0000
0010
,
0000
1000
0000
0100
0000
1000
0000
0010
,
0000
0100
0000
0001
0000
1000
0000
0100
,
0000
0010
0000
0001
0000
0010
0000
0001
,
0000
0100
0000
0010
0000
1000
0000
0100
,
0000
1000
0000
0100
0000
0001
0000
0100
,
0000
1000
0000
0100
0000
0001
0000
0100
,
0000
1000
0000
1001
0100
0000
0100
0000
,
0010
0010
1000
1000
,
0001
0001
1000
0100
,
0110
0110
1001
0110
,
0001
0100
0010
1000
,
0001
0100
1000
0010
,
1000
0100
0001
0100
,
0020
0000
0000
0030
2000
0000
0000
3000
,
0200
0000
0000
0300
0011
0000
0001
0000
,
0100
1000
0100
0001
,
1000
0010
1000
0001
,
1000
1010
0011
1010
,
1001
1100
0101
1100
,
0010
0001
0100
0010
,
1000
0100
1000
0001
,
2000
0000
0000
3000
0002
0000
0000
0003
,
0200
0000
0000
0000
0020
0000
0000
0330
,
0010
0100
0010
0000
,
0100
0010
0100
0000
,
0001
1000
0001
0000
,
1000
0001
1000
0000
,
0001
0100
0010
1000
,
0010
1000
0001
0100
,
0001
0000
0000
0000
;

//---------------dance-single - Blank----------------
#NOTES:
     dance-single:
     Blank:
     Challenge:
     13:
     0.620,0.633,0.117,0.026,0.260,323.000,9.000,2.000,0.000,0.000,0.000,0.620,0.633,0.117,0.026,0.260,323.000,9.000,2.000,0.000,0.000,0.000:
0000
0000
0000
0000
,
0000
0000
0000
0000
,
0000
0000
0000
0000
,
0000
0000
0000
0000
,
0000
0000
0000
0000
,
0000
0000
0000
0000
,
0000
0000
0000
0000
0000
0001
0100
0010
,
1000
0000
0000
0001
0010
0000
1000
0000
1000
0000
0100
0000
1000
0000
1000
0000
,
0100
1000
0000
0001
0001
0010
0001
0001
,
0100
0001
0000
1000
0010
0010
1000
0010
,
0010
1000
0000
0010
0010
1000
0010
0010
,
1000
0010
0000
0100
0100
0010
0100
0100
,
0010
0100
0000
1000
1000
0001
1000
1000
,
0001
1000
0000
0001
0001
0100
0010
1000
,
0010
0010
0000
1000
0010
1000
0100
1000
,
0001
0000
0100
0000
0001
0000
0010
0000
0100
1000
0010
0000
0100
0001
0010
0000
,
0001
0000
0010
0000
0001
0000
1000
0000
0010
1000
0001
0000
1000
0001
0010
0000
,
0100
0000
1000
0000
1000
0000
0001
0000
1000
0100
0010
0000
0001
0010
0100
0000
,
1000
0000
0010
0000
1000
0000
0001
0000
0100
0001
0010
0000
0001
0100
0010
0000
,
1000
0000
0001
0000
1000
0000
0010
0000
1000
0100
0010
0000
0001
0100
0010
0000
,
1000
0000
0010
0000
0100
0000
0001
0000
0100
0001
1000
0000
0100
0010
0001
0000
,
1000
0000
0001
0000
0100
0000
0010
0000
1000
0000
0001
0000
1000
0010
1000
0010
,
1000
0010
1000
0010
1000
0010
1000
0000
1001
0000
0000
0000
0110
0000
0000
0000
,
1000
0000
1000
0000
0100
0000
1000
0100
1000
0000
0010
0000
0100
0000
0100
0000
,
0010
0000
0100
0010
0100
0000
0001
0000
0010
0000
0010
0000
0001
0000
0010
0000
,
0001
0000
0001
0000
0010
0000
0001
0010
0001
0000
0100
0000
0010
0000
0010
0000
,
0100
0000
0010
0100
0010
0000
1000
0000
0100
0000
0100
0000
1000
0000
0100
0000
,
1000
0000
1000
0000
0010
0000
1000
0010
1000
0000
0010
0000
1000
0000
1000
0000
,
0010
0000
1000
0010
1000
0000
0001
0000
0010
0000
0010
0000
0001
0000
0100
0000
,
0001
0110
1000
0110
0001
0110
1000
0110
,
0001
0110
1000
0000
0001
0000
0100
1000
,
0001
0000
1000
0010
1000
0000
0001
0000
1000
0000
0001
0000
0100
0000
0001
1000
,
0001
0100
0001
0010
0001
0100
0010
1000
,
0010
0000
0100
0001
0100
0000
0010
0000
0100
0000
0001
0000
1000
0000
0010
1000
,
0010
0000
1000
0000
0001
0000
1000
0000
0010
0000
0100
0000
0010
1000
0010
0000
,
0100
0001
0100
0010
1000
0001
1000
0001
,
0100
0010
1000
0001
0001
1000
0010
1000
,
0010
0100
0001
0100
0010
1000
0010
1000
,
0001
1000
0001
1000
0001
1000
0001
1000
0001
1000
0001
0000
1001
0000
0000
0000
,
0001
0000
0001
0000
0001
0000
1000
0010
0100
0000
0010
0000
0000
0000
0000
0000
,
1000
0000
1000
0000
1000
0000
0001
1000
0100
0000
0010
0000
0000
0000
0000
0000
,
0100
0000
0010
0000
0100
0000
0010
0100
0010
0000
0100
0000
0000
0000
0000
0000
,
1000
0000
0001
0000
1000
0000
0001
1000
0001
0000
1000
0000
0000
0000
0000
0000
,
0001
0000
0100
0000
0010
0000
1000
0010
0100
0000
0001
0000
0000
0000
0000
0000
,
1000
0000
0010
0000
0100
0000
0001
0100
0010
0000
1000
0000
0000
0000
0000
0000
,
2002
0000
0000
0000
,
0000
0000
0000
3003
0000
0000
0000
0000
;

//---------------dance-single - Blank----------------
#NOTES:
     dance-single:
     Blank:
     Beginner:
     2:
     0.108,0.117,0.065,0.000,0.000,53.000,5.000,0.000,0.000,0.000,0.000,0.108,0.117,0.065,0.000,0.000,53.000,5.000,0.000,0.000,0.000,0.000:
0000
0000
0000
0000
,
0000
0000
0000
0000
,
0000
0000
0000
0000
,
0000
0000
0000
0000
,
0000
0000
0000
0000
,
0000
0000
0000
0000
,
0000
0000
0000
0000
,
0000
1000
0000
0000
0000
0010
0000
0000
,
0000
0001
0000
0000
0000
0000
0000
0000
,
0000
0001
0000
0000
0000
0010
0000
0000
,
0000
1000
0000
0000
0000
0000
0000
0000
,
0000
0010
0000
0000
0000
0100
0000
0000
,
0000
0001
0000
0000
0000
0000
0000
0000
,
0000
0001
0000
0000
0000
1000
0000
0000
,
0000
0100
0000
0000
0000
0000
0000
0000
,
0000
1000
0000
0000
0000
1000
0000
0000
,
0000
1000
0000
0000
0000
0000
0000
0000
,
0000
0001
0000
0000
0000
0001
0000
0000
,
0000
0001
0000
0000
0000
0000
0000
0000
,
0000
0100
0000
0000
0000
0100
0000
0000
,
0000
0100
0000
0000
0000
0000
0000
0000
,
0000
0010
0000
0000
0000
0010
0000
0000
,
0000
0010
0000
0000
0000
0000
0000
0000
,
1000
0000
0001
0000
,
1000
0000
0000
0000
,
0010
0000
0100
0000
,
0010
0000
0000
0000
,
1000
0000
0001
0000
,
0100
0000
0000
0000
,
0010
0000
1000
0000
,
0001
0000
0000
0000
,
0110
0000
0000
0000
,
0000
0000
0000
0000
,
1100
0000
0000
0000
,
0000
0000
0000
0000
,
0101
0000
0000
0000
,
0000
0000
0000
0000
,
1001
0000
0000
0000
,
0000
0000
0000
0000
,
0100
0000
0010
0000
,
0100
0000
0010
0000
,
0001
0000
1000
0000
,
0001
0000
1000
0000
,
0001
0000
0100
0000
,
0010
0000
1000
0000
,
0110
0000
0000
0000
;
