#TITLE:Cleopatrysm;
#SUBTITLE:;
#ARTIST:ピラミッ℃;
#TITLETRANSLIT:;
#SUBTITLETRANSLIT:;
#ARTISTTRANSLIT:;
#GENRE:;
#CREDIT:;
#BANNER:Cleopatrysm.png;
#BACKGROUND:Cleopatrysm-bg.png;
#LYRICSPATH:;
#CDTITLE:./CDTitles/DanceDanceRevolution 2014.png;
#MUSIC:Cleopatrysm.ogg;
#OFFSET:0.000000;
#SAMPLESTART:77.053001;
#SAMPLELENGTH:15.000000;
#SELECTABLE:YES;
#DISPLAYBPM:190.000000;
#BPMS:0.000000=190.007996
;
#STOPS:
;
#BGCHANGES:;
#KEYSOUNDS:;
#ATTACKS:;

//---------------dance-single - ----------------
#NOTES:
     dance-single:
     :
     Hard:
     15:
     0.727219,0.756557,0.195790,0.153227,0.251122,557.000000,23.000000,18.000000,0.000000,0.000000,0.000000,0.727219,0.756557,0.195790,0.153227,0.251122,557.000000,23.000000,18.000000,0.000000,0.000000,0.000000:
0000
0000
0000
0000
,
0000
0000
0000
0000
,
0000
0000
0000
0000
,
0000
0000
0000
0000
,
0000
0000
0000
0000
,
0000
0000
0000
0000
,
1000
0001
0100
0010
0000
1000
0100
1000
,
0000
0000
0001
1000
0010
0000
0100
0000
0000
0000
0000
0000
1001
0000
0000
0000
,
0100
1000
0100
0011
0000
0001
0010
0002
,
0000
1000
1000
0103
,
1000
0000
0000
0001
0000
1000
0100
0010
,
0000
0010
0000
0010
0000
0010
0100
0001
,
0000
0001
0000
0010
0100
0010
1000
0100
,
0000
0010
0000
0001
0000
0110
0000
1000
,
0100
0000
0000
1000
0100
1000
0001
0010
,
0000
0100
0000
1000
0100
0010
0001
0010
,
0000
0010
1000
0100
0000
0100
0001
0100
,
0000
1100
0000
0110
0000
0011
0000
1000
,
1001
0000
0000
0000
0010
0100
0010
0001
,
0000
0010
0000
0100
0000
0010
0001
0010
,
0000
1000
0000
0001
0010
0100
0010
0001
,
0000
0011
0000
0110
0000
1001
0000
1000
,
0100
1000
0000
1000
0000
0010
0100
0010
,
0000
0010
0000
0010
0100
0010
0001
1000
,
0101
0000
1000
0001
0000
0100
0001
0000
,
1000
0000
0000
0000
0001
0000
0000
0000
1010
0000
0000
0000
1000
0001
0000
0000
,
1000
0001
1000
0000
0001
0000
0000
0000
2001
0000
0000
0000
3010
0000
0000
0000
,
0001
1000
0100
0010
0001
0010
0001
0100
,
0001
0000
0010
0000
0100
1000
0100
0000
0010
0000
0100
0000
0010
0001
0010
0000
,
0011
0000
0000
0000
0110
0000
0000
0000
1000
0000
0000
0000
0001
1000
0100
1000
,
0001
1000
0100
0000
2002
0000
0000
3003
,
0200
0000
0000
0301
0000
0001
0010
0100
,
0000
1000
0100
1000
0002
0000
1000
0003
,
1200
0000
0000
0000
1300
0000
0000
0000
1001
0000
0000
0000
1000
0100
1000
0100
,
1000
0001
1000
0000
0002
0000
1000
0003
,
1000
0100
0010
0001
0100
0010
0001
0100
,
0001
0000
0000
1000
0100
1000
0001
0010
0001
0010
0000
0000
,
1200
0000
0000
0000
1300
0000
0000
0000
1001
0000
0000
0000
0001
0100
0001
0100
,
0001
1000
0001
0000
0100
0010
0100
0000
,
1000
0100
0010
0001
0000
0000
0100
0010
,
0000
0000
0100
0001
0100
0001
0100
0000
0010
0000
0000
0000
0100
0000
0000
0000
,
1000
0000
0000
0000
0100
0000
0000
0000
0100
0000
0000
0000
0010
0001
0100
0001
,
0100
0001
0100
0000
1000
0000
0000
0000
,
1000
0100
0010
0100
1000
0001
1000
0100
,
0010
0000
0001
0000
0010
0000
0001
0000
0100
0000
0000
0000
0001
0100
0001
0100
,
0010
0100
0001
1000
0100
0000
0100
1000
,
0000
0000
0010
0000
0100
0000
0001
0000
0010
0001
1000
0000
0100
0000
0010
0000
,
0001
1000
0001
0000
0100
0010
1000
0000
,
0001
0000
0010
0000
0001
0000
0010
0000
0001
1000
0001
0000
0010
0000
0100
0000
,
1000
0000
0010
0100
0000
0100
0001
0000
,
0000
0001
0010
0000
0010
0100
0010
0100
,
1000
0000
0100
0010
0000
0100
1000
0000
,
0100
0000
0000
1000
0000
0000
0100
0000
0010
0000
0001
0000
,
1000
0000
0000
0100
0001
0000
0000
0100
,
0010
0001
0010
0100
0000
1000
0100
1000
,
0001
0100
0010
0000
0100
0000
0010
0000
0000
0000
0100
0000
0010
0100
0010
0000
,
0001
0000
0010
0000
0100
0000
1000
0000
0000
0000
1000
0100
0010
0000
0100
0000
,
0001
0000
1000
0000
0100
0000
2000
0000
0000
3000
0001
1000
0001
1000
0001
0000
,
0000
0000
1000
0010
1000
0000
0010
0000
0000
0000
0100
0000
0001
0000
1000
0000
,
0001
0010
0001
0010
0001
0000
0200
0000
0000
0000
0310
0000
1000
0000
0200
0000
,
0000
0010
0310
1001
,
0010
0100
0010
0002
0000
1003
0100
2000
,
0000
0000
3001
0000
0010
0000
0001
0000
0000
0000
0100
0000
0010
0000
1000
0010
,
1000
0000
0100
0000
1000
0000
0002
0000
0000
0000
1003
0000
0001
1000
0001
0000
,
1000
0000
0010
0000
0100
0000
0001
0000
0000
0000
1000
0100
1000
0100
1000
0000
,
0010
0100
0010
0002
0000
1003
0100
2000
,
0000
3001
0010
0001
0000
0100
0010
1000
,
0001
0100
0001
1000
0000
0001
0010
0200
,
0000
0000
0001
0301
,
1001
0001
0100
0001
0100
0010
0000
0100
,
0010
1000
0100
0000
1000
0000
0010
0000
0100
0000
0001
0000
0100
0001
0100
0000
,
0001
0000
0010
0000
0100
0000
0001
0000
0100
0000
0010
0000
0000
0000
0100
0001
,
0100
0000
0000
0000
1000
0100
0000
0000
1000
0001
0000
0000
0100
0001
0100
0000
,
0001
0010
0100
1000
0100
0010
0000
0100
,
0010
0001
0100
0000
0001
0000
0010
0000
0100
0000
1000
0000
0100
1000
0100
0000
,
1000
0000
0010
0000
0100
0000
0001
0000
0100
0000
0010
0000
0000
0000
1000
0100
,
1000
0000
0001
0000
0010
0000
0100
0000
1000
0000
0010
0000
0100
0010
0100
0000
,
0000
0000
0000
0000
1000
0100
0000
0100
,
0010
0001
0100
0000
0001
0000
0010
0000
0100
0000
1000
0000
0100
1000
0100
0000
,
1000
0000
0010
0000
0100
0000
1000
0000
0100
0000
0010
0000
0000
0000
0100
0001
,
1000
0000
0000
0000
0001
0100
0000
0000
0100
1000
0000
0000
0100
1000
0100
0000
,
1000
0010
0100
0001
0100
0010
0000
0100
,
0010
1000
0100
0000
1000
0000
0010
0000
0100
0000
0001
0000
0100
0001
0100
0000
,
0001
0010
0100
1000
0100
0010
0100
1000
,
0001
0100
0001
0100
0001
0000
0100
0000
0001
1000
0001
1000
0001
0000
1001
0000
,
0000
0010
0100
0001
1000
0100
1000
0001
,
0010
0100
0010
0001
0010
0100
0010
0100
,
0010
0001
0100
0010
1000
0100
1000
0100
,
0010
0100
0001
0010
0001
0100
0010
0100
;

//---------------dance-double - ----------------
#NOTES:
     dance-double:
     :
     Hard:
     15:
     0.685872,0.756557,0.102151,0.076613,0.225584,543.000000,12.000000,9.000000,0.000000,0.000000,0.000000,0.685872,0.756557,0.102151,0.076613,0.225584,543.000000,12.000000,9.000000,0.000000,0.000000,0.000000:
00000000
00000000
00000000
00000000
,
00000000
00000000
00000000
00000000
,
00000000
00000000
00000000
00000000
,
00000000
00000000
00000000
00000000
,
00000000
00000000
00000000
00000000
,
00000000
00000000
00000000
00000000
,
00000001
00000100
00001000
00010000
00000000
01000000
10000000
00010000
,
00000000
00000000
10000000
00010000
00100000
00000000
01000000
00000000
00000000
00000000
00000000
00000000
10000000
00000000
00000000
00000000
,
01000000
10000000
01000000
00010000
00000000
00011000
00000010
00000002
,
00000000
00001000
00001000
00000103
,
00001000
00000000
00000000
00010000
00000000
00100000
10000000
00100000
,
00000000
00010000
00000000
00001000
00000000
00010000
00000100
00010000
,
00000000
00001000
00000000
00000100
00000001
00000010
00000001
00000100
,
00000000
00001000
00000000
00010000
00000000
01000000
00000000
10000000
,
01000000
00000000
00000000
10000000
01000000
10000000
00010000
00100000
,
00000000
01000000
00000000
10000000
01000000
00100000
00010000
10000000
,
00000000
01000000
00010000
00001000
00000000
00000100
00000001
00000010
,
00000000
00000101
00000000
00000110
00000000
00001010
00000000
00000001
,
00000100
00000000
00000000
00000000
00001000
00010000
00100000
10000000
,
00000000
00100000
00000000
01000000
00000000
00100000
00010000
00100000
,
00000000
10000000
00000000
00010000
00100000
01000000
00100000
00010000
,
00000000
00110000
00000000
00011000
00000000
00001100
00000000
00000001
,
00000100
00000001
00000000
00001000
00000000
00000010
00000100
00000010
,
00000000
00000100
00000000
00000001
00000100
00001000
00010000
01000000
,
10000000
00000000
10000000
00010000
00000000
01000000
00010000
00000000
,
10000000
00000000
00000000
00000000
01000000
00000000
00000000
00000000
00010000
00000000
00000000
00000000
00001000
00010000
00000000
00000000
,
00001000
00010000
00001000
00000000
00010000
00000000
00000000
00000000
00001000
00000000
00000000
00000000
00000010
00000000
00000000
00000000
,
00000001
00001000
00000100
00000010
00000001
00000010
00000001
00000100
,
00000001
00000000
00000010
00000000
00000100
00001000
00000100
00000000
00000010
00000000
00000100
00000000
00000010
00000001
00000010
00000000
,
00000011
00000000
00000000
00000000
00001010
00000000
00000000
00000000
00011000
00000000
00000000
00000000
00010000
00001000
00010000
00001000
,
00010000
00001000
00010000
00000000
02000000
00000000
00000000
03000000
,
20000000
00000000
00000000
30010000
00000000
00010000
00100000
01000000
,
00000000
10000000
01000000
00010000
00002000
00000000
00003100
00000000
,
00000201
00000000
00000000
00000000
00000301
00000000
00000000
00000000
00001001
00000000
00000000
00000000
00000010
00000100
00000001
00000100
,
00000001
00001000
00000001
00000000
00000200
00000000
00001300
00000000
,
00010000
01000000
10000000
00010000
01000000
00100000
10000000
01000000
,
10000000
00000000
00000000
00010000
01000000
00010000
10000000
00100000
10000000
00100000
00000000
00000000
,
10000000
00000000
00000000
00000000
01000000
00000000
00000000
00000000
00010000
00000000
00000000
00000000
00010000
00001000
00010000
00001000
,
00010000
00001000
00010000
00000000
00001000
00000100
00000001
00000000
,
00001000
00000100
00000010
00000001
00000000
00000000
00000100
00001000
,
00000000
00000000
00010000
00001000
00010000
00001000
00010000
00000000
01000000
00000000
00000000
00000000
10000000
00000000
00000000
00000000
,
10000000
00000000
00000000
00000000
01000000
00000000
00000000
00000000
01000000
00000000
00000000
00000000
00100000
00010000
01000000
00010000
,
01000000
00010000
01000000
00000000
10000000
00000000
00000000
00000000
,
10000000
01000000
00010000
00000000
00001000
00000100
00000001
00000010
,
00000001
00000000
00001000
00000000
00000010
00000000
00000100
00000000
00000001
00000000
00000000
00000000
00000100
00000001
00000100
00000000
,
00000010
00000100
00000001
00000100
00001000
00000000
00010000
01000000
,
00000000
00000000
00100000
00000000
01000000
00000000
10000000
00000000
00010000
01000000
00010000
00000000
00100000
00000000
01000000
00000000
,
10000000
00010000
10000000
00000000
01000000
00010000
00001000
00000000
,
00001000
00000000
00010000
00000000
00000100
00000000
00000000
00000000
00000100
00001000
00000100
00000000
00000010
00000000
00000001
00000000
,
00000100
00000000
00000100
00001000
00000000
00010000
00100000
00000000
,
00000000
10000000
00010000
00000000
00100000
01000000
00100000
01000000
,
10000000
00000000
01000000
00100000
00000000
01000000
10000000
00000000
,
01000000
00000000
00000000
10000000
00000000
00000000
01000000
00000000
00010000
00000000
00001000
00000000
,
00000100
00000000
00000000
00000001
00000100
00000000
00000000
00000010
,
00001000
00000100
00000010
00000100
00000000
00001000
00010000
00100000
,
00010000
01000000
00010000
00000000
01000000
00000000
00100000
00000000
00000000
00000000
01000000
00000000
00100000
01000000
00100000
00000000
,
10000000
00000000
01000000
00000000
00010000
00000000
00001000
00000000
00000000
00000000
00001000
00010000
00001000
00000000
00010000
00000000
,
00001000
00000000
00000100
00000000
00000001
00000000
00002000
00000000
00000000
00000000
00003001
00001000
00000001
00001000
00000001
00000000
,
00000000
00000000
00001000
00000010
00001000
00000000
00000010
00000000
00000000
00000000
00000100
00000000
00000001
00000000
00001000
00000000
,
00000001
00000010
00000001
00000010
00000001
00000000
00000100
00000000
00000000
00000000
00001000
00000000
00010000
00000000
01000000
00000000
,
00000000
00000000
10000000
10000000
,
00010000
01000000
00100000
10000000
00000000
10000000
01000000
00010000
,
00000000
00000000
00001000
00000000
00000010
00000000
00000001
00000000
00000000
00000000
00000100
00000000
00000010
00000000
00001000
00000010
,
00001000
00000000
00000100
00000000
00001000
00000000
00000002
00000000
00000000
00000000
00001003
00000000
00000100
00001000
00000100
00000000
,
00010000
00000000
00001000
00000000
00010000
00000000
00001000
00000000
00000000
00000000
00100000
00001000
00100000
00001000
00100000
00000000
,
00010000
00100000
00010000
01000000
00000000
00001000
00100000
00001000
,
00000000
00010000
00001000
00010000
00000000
00001000
00010000
00000000
,
00001000
00000100
00000001
00001000
00000000
00000100
00000001
00000200
,
00000000
00000000
00001000
00001300
,
00010000
01000000
10000000
00010000
01000000
00001000
00000000
00010000
,
00100000
01000000
00100000
00000000
10000000
00000000
00100000
00000000
01000000
00000000
00010000
00000000
10000000
00100000
10000000
00000000
,
01000000
00000000
00010000
00000000
00001000
00000000
00010000
00000000
00001000
00000000
00000100
00000000
00000000
00000000
00000001
00000100
,
00000001
00000000
00000000
00000000
00000001
00000100
00000000
00000000
00000100
00001000
00000000
00000000
00001000
00010000
00001000
00000000
,
00010000
01000000
10000000
00010000
01000000
00100000
00000000
10000000
,
01000000
10000000
01000000
00000000
10000000
00000000
00100000
00000000
01000000
00000000
00001000
00000000
00010000
00001000
00010000
00000000
,
00001000
00000000
00000100
00000000
00000001
00000000
00000010
00000000
00000100
00000000
00000010
00000000
00000000
00000000
00000100
00001000
,
00000100
00000000
00000010
00000000
00000001
00000000
00000010
00000000
00000100
00000000
00001000
00000000
00000100
00001000
00000100
00000000
,
00000000
00000000
00000000
00000000
00010000
00001000
00000000
00010000
,
00100000
01000000
00100000
00000000
10000000
00000000
00100000
00000000
01000000
00000000
00010000
00000000
10000000
00100000
10000000
00000000
,
01000000
00000000
00010000
00000000
00001000
00000000
00010000
00000000
00001000
00000000
00000100
00000000
00000000
00000000
00000001
00000100
,
00000001
00000000
00000000
00000000
00000001
00000100
00000000
00000000
00000100
00001000
00000000
00000000
00001000
00010000
00001000
00000000
,
00010000
01000000
10000000
00010000
01000000
00100000
00000000
10000000
,
01000000
10000000
01000000
00000000
10000000
00000000
00100000
00000000
01000000
00000000
00000000
00000000
00010000
00000000
00000000
00000000
,
10000000
01000000
00010000
00001000
00000100
00000001
00000010
00000001
,
00001000
00000000
00000001
00000000
00000001
00000100
00001000
00010000
,
00000000
00000100
00010000
00001000
00010000
00001000
00010000
00001000
,
00010000
01000000
10000000
00100000
10000000
01000000
00010000
00001000
,
00010000
00001000
00000100
00000001
00001000
00000100
00000001
00000100
,
00000010
00000001
00000100
00001000
00010000
01000000
10000000
01000000
;

//---------------dance-single - ----------------
#NOTES:
     dance-single:
     :
     Challenge:
     16:
     0.890174,0.832213,0.229840,0.400092,0.659726,658.000000,27.000000,47.000000,0.000000,0.000000,0.000000,0.890174,0.832213,0.229840,0.400092,0.659726,658.000000,27.000000,47.000000,0.000000,0.000000,0.000000:
// measure 0
0000
0000
0000
0000
,  // measure 1
0000
0000
0000
0000
,  // measure 2
0000
0000
0000
0000
,  // measure 3
0000
0000
0000
0000
,  // measure 4
0000
0000
0000
0000
,  // measure 5
0000
0000
0000
0000
,  // measure 6
0001
0000
0100
0001
0100
0000
0010
0000
0000
0000
1000
0100
1000
0100
0010
0000
,  // measure 7
0000
0000
0001
0100
0010
0000
0100
0000
0000
0000
0010
0000
0100
0000
0001
0000
,  // measure 8
1000
0100
0010
0001
1000
0000
0200
0000
0000
0000
1300
0001
0100
0000
0020
0000
,  // measure 9
0000
1000
1000
0130
,  // measure 10
1010
0000
0010
0000
0100
1000
0100
0010
,  // measure 11
0000
0010
0000
0010
0000
0100
0001
1000
,  // measure 12
0000
1000
0000
0100
1000
0010
0100
1000
,  // measure 13
0000
0100
0000
0010
0000
0101
0000
1000
,  // measure 14
0100
0000
0000
0100
0001
0100
1000
0010
,  // measure 15
0000
0010
0000
0100
1000
0100
0010
0001
,  // measure 16
0000
0001
0010
0100
0000
0001
0010
1000
,  // measure 17
0000
0010
0000
0001
0000
0100
0000
0010
,  // measure 18
0110
0000
0001
0100
0000
1000
0100
0010
,  // measure 19
1000
0000
0100
0001
0000
0100
1000
0001
,  // measure 20
0100
0010
0100
0001
1000
0100
0010
0001
,  // measure 21
0000
0100
0000
1010
0000
1001
0000
0011
,  // measure 22
0001
0010
0001
0010
0100
1000
0100
1000
,  // measure 23
0001
0100
0010
1000
0100
0010
0001
1000
,  // measure 24
0001
0100
0001
0100
0001
1000
0001
1000
0010
1000
0010
1000
0100
0000
0000
0000
,  // measure 25
0010
0000
0000
0000
0000
0000
0000
0000
0000
0000
0000
0000
0010
0000
0000
0001
0000
0000
0000
0000
0000
0000
0000
0000
1001
0000
0000
0000
0000
0000
0000
0000
0000
0000
0000
0000
0001
0000
0000
0000
0100
0000
0000
0000
0010
0000
0000
0000
,  // measure 26
1000
0010
0100
0010
0000
0100
0001
0000
0000
0001
1000
0100
,  // measure 27
0010
0100
0010
0001
1000
0001
1000
0010
1000
0010
0100
0010
,  // measure 28
0100
0000
0000
0000
0001
0000
0000
0000
0100
0000
0000
0000
0001
0000
0000
0000
1000
0000
0000
0000
0001
0000
0000
0000
0100
0000
0000
0010
0000
0000
0100
0000
0000
0010
0000
0000
1000
0000
0000
0001
0000
0000
1000
0000
0000
0001
0000
0000
,  // measure 29
0100
0000
0000
0000
0010
0000
0000
0000
1001
0000
0000
0000
1000
0100
1000
0100
,  // measure 30
1000
0001
0010
0100
1000
0000
0000
0000
2002
0000
0000
0000
0000
0000
3003
0000
,  // measure 31
0002
0000
0000
2003
0000
3000
0200
0000
,  // measure 32
1300
0100
0010
0001
1000
0002
2000
0000
0000
3003
0000
0000
,  // measure 33
0210
0000
0000
0000
0000
0000
0000
0000
0301
0000
0000
0000
1000
0100
0010
0001
,  // measure 34
1000
0001
0100
0010
0100
0000
0000
0000
0002
0000
0000
0000
0003
0000
0000
0000
,  // measure 35
0210
0000
0310
0000
1001
0000
0001
0100
,  // measure 36
0010
0000
0000
1000
0100
1000
0001
0010
0100
0010
0000
0000
,  // measure 37
1002
0000
0000
0000
0103
0000
0000
0000
0011
0000
0000
0000
0100
1000
0001
1000
,  // measure 38
0100
1000
0010
0100
0001
0000
0000
0000
0200
0000
0000
0010
0000
0000
0301
0000
,  // measure 39
1000
0000
0001
0100
0010
0000
0200
0000
0000
0000
0000
0000
0320
0000
0000
0000
,  // measure 40
1030
0100
0010
0001
0100
0020
0200
0000
0000
0330
0000
0000
,  // measure 41
2001
0000
0000
0000
3100
0000
0000
0000
1010
0000
0000
0000
1000
0010
1000
0010
,  // measure 42
0100
0001
0010
0100
1000
0000
0000
0000
0002
0000
0000
0000
0000
0000
0003
0000
,  // measure 43
1000
0100
0010
0000
0001
0000
1000
0000
0001
0100
0010
0000
0100
0000
0010
0000
,  // measure 44
1000
0010
1000
0000
0010
0100
0010
0000
0100
0000
0001
1000
0100
0010
0001
0000
,  // measure 45
0200
0000
0310
1000
0101
1000
0200
0000
,  // measure 46
1300
0000
0001
0000
0100
0000
0010
1000
0010
0000
1000
0000
0001
0000
1000
0000
,  // measure 47
0200
0000
1300
0001
0110
1000
0200
0000
,  // measure 48
1300
0000
0001
0000
1000
0000
0010
0000
0110
0000
1000
0001
0100
0001
0100
0000
,  // measure 49
0020
0000
1030
0001
1100
0010
0002
0000
,  // measure 50
1003
0000
0010
0000
0100
0000
0010
1000
0100
0000
1000
0000
0010
0000
0100
0000
,  // measure 51
0002
0000
1003
0100
0011
1000
0020
0000
,  // measure 52
0130
0000
0001
0000
1000
0000
0100
0000
0010
0000
0001
0000
,  // measure 53
1001
0000
0000
0001
0100
0000
0000
0010
,  // measure 54
1000
0000
0001
0000
0010
0000
0200
0000
0000
0000
1300
0010
0100
0000
0010
0000
,  // measure 55
1000
0000
0100
1000
0001
0000
0200
0000
0000
0000
0310
0000
1000
0100
0010
0000
,  // measure 56
0100
0000
1000
0000
0001
0000
0200
0000
0000
0000
0310
1000
0100
0010
0001
0000
,  // measure 57
1000
0000
0010
1000
0100
0000
0020
0000
0000
0000
0130
1000
0001
0100
0002
0000
,  // measure 58
0000
0000
0103
0010
1000
0000
0200
0000
0000
0000
0310
0000
0001
0000
1000
0000
,  // measure 59
0010
1000
0010
0100
0001
0000
0020
0000
0000
0000
0130
1000
0100
0000
0020
0000
,  // measure 60
0000
0000
0031
0000
1000
0000
0000
0000
1001
0000
1000
0100
0010
0000
0001
0000
,  // measure 61
0100
0000
0010
1000
0100
0000
0020
0000
0001
0000
0130
1000
0001
0000
0200
0000
,  // measure 62
0010
0000
0301
0000
1000
0000
0200
0000
0000
0000
0310
0001
0100
0000
0010
0000
,  // measure 63
1000
0100
0010
0100
0001
0000
0200
0000
0000
0000
1300
0000
0010
0100
0001
0000
,  // measure 64
0100
0000
0001
0000
0010
0000
2000
0000
0000
0000
3010
0001
0100
0010
0100
0000
,  // measure 65
0010
0000
0100
0001
0010
0000
0200
0000
1000
0000
0310
0001
1000
0000
0020
0000
,  // measure 66
0100
0000
1030
0001
0010
0000
0200
0000
0000
0000
1300
0000
0001
0000
0100
0000
,  // measure 67
0010
0100
1000
0100
0001
0000
2100
0000
0000
0000
3010
0000
1000
0000
0102
0000
,  // measure 68
0000
1000
1000
0103
,  // measure 69
0010
0000
1000
0000
0001
0000
1000
0000
0100
1000
0100
0000
0000
0000
1000
0001
,  // measure 70
1000
0010
0100
0001
0100
0000
0000
0000
0001
0000
0010
0000
0001
1000
0100
0000
,  // measure 71
0010
0000
0001
0000
1000
0000
0001
0000
0100
0001
0100
0000
0000
0000
0010
0100
,  // measure 72
0010
1000
0000
0000
1000
0100
0000
0000
0010
0001
1000
0000
0100
1000
0001
0100
,  // measure 73
0010
0000
1000
0000
0001
0000
1000
0000
0010
0100
1000
0000
0000
0000
0100
0010
,  // measure 74
0100
0001
1000
0001
0010
0000
0010
0000
0100
0000
0010
0000
1000
0010
0100
0000
,  // measure 75
1000
0000
0001
0000
0100
0000
0010
0000
0100
0001
1000
0000
0100
0010
0100
0010
,  // measure 76
0001
1000
0000
1000
0010
0000
0100
0001
1000
0000
0100
0000
0010
0001
0100
0010
,  // measure 77
1000
0000
0000
0000
0000
0000
0000
0000
0001
0100
0010
0000
0000
0000
0010
0100
,  // measure 78
0010
1000
0001
1000
0100
0000
0000
0000
0010
0001
0010
0000
0100
0000
1000
0001
,  // measure 79
0100
0000
0010
0000
1000
0000
0001
0000
0100
0010
1000
0000
0100
0000
1000
0000
,  // measure 80
0001
0010
0000
0000
0100
1000
0000
0000
0001
0100
0010
0000
0100
0000
0010
0000
,  // measure 81
1000
0000
0100
0010
0100
0000
1000
0000
0001
0100
0010
0000
0000
0000
0100
0001
,  // measure 82
0100
0010
1000
0010
0100
0000
0000
0000
0010
0100
0010
0000
0000
0000
1000
0001
,  // measure 83
0100
0000
0010
0100
0001
0000
0010
0100
1000
0000
0010
0000
0101
0000
0010
0000
,  // measure 84
1000
0100
0010
0000
0001
0100
0010
1000
0100
0000
0010
0001
1000
0000
1002
0000
,  // measure 85
0000
0103
1000
0001
1000
0100
0010
1000
,  // measure 86
0100
0010
0001
0010
1000
0001
0100
0010
,  // measure 87
0001
1000
0010
0001
1000
0100
0001
0010
,  // measure 88
0001
1000
0001
0010
1000
0010
0100
1000
;
