#TITLE:Cappucino bossa;
#SUBTITLE:;
#ARTIST:HASHED BOX;
#TITLETRANSLIT:;
#SUBTITLETRANSLIT:;
#ARTISTTRANSLIT:;
#CREDIT:;
#BANNER:cb.png;
#BACKGROUND:cb-bg.png;
#LYRICSPATH:;
#CDTITLE:;
#MUSIC:Cappucino bossa.mp3;
#OFFSET:-11.740;
#SAMPLESTART:39.580;
#SAMPLELENGTH:16.460;
#SELECTABLE:YES;
#BPMS:0.000=174.000;
#STOPS:;
#BGCHANGES:0.000=beads3.avi=1.000=1=0=1,
16.000=bear5.avi=1.000=0=0=1,
32.000=boy10.avi=1.000=0=0=1,
48.000=bracelet1.avi=1.000=0=0=1,
64.000=cards2.avi=1.000=0=0=1,
96.000=crystal1.avi=1.000=0=0=1,
112.000=dating1.avi=1.000=0=0=1,
128.000=disco3.avi=1.000=0=0=1,
136.000=disco4.avi=1.000=0=0=1,
144.000=discoball1.avi=1.000=0=0=1,
152.000=disco1.avi=1.000=0=0=1,
160.000=fire5.avi=1.000=0=0=1,
176.000=film1.avi=1.000=0=0=1,
184.000=cb-bg.png=1.000=0=0=1,
99999=-nosongbg-=1.000=0=0=0 // don't automatically add -songbackground-
;

//---------------dance-single - ----------------
#NOTES:
     dance-single:
     :
     Medium:
     4:
     0.337,0.399,0.122,0.146,0.000:
1000
0100
0010
0001
,
1000
0100
0010
0001
,
1000
1000
0001
0001
,
1000
0100
1001
0110
,
1000
1000
0001
0001
,
1000
1000
0020
0130
,
0010
0010
0100
0100
,
0002
0000
0000
0003
,
1000
1000
0010
0010
,
0100
0100
0001
0001
,
1000
1000
0100
0100
,
0010
0010
0001
0001
,
2000
0100
0100
3100
,
0002
0010
0010
0013
,
2000
0100
0100
0100
,
3002
0010
0010
0013
,
1000
0100
1000
0100
,
1000
0100
0010
0001
,
0010
0001
0010
0001
,
0010
0001
0010
0001
,
0010
0001
0001
0001
,
0010
0001
0010
0001
,
1000
1000
0100
1000
,
0200
0000
0000
0000
,
0310
0010
0001
0010
,
1000
1000
0100
0010
,
0010
0001
0001
0010
,
0100
0100
0010
0010
,
0100
0100
1000
1000
,
0002
1000
1000
1003
,
0020
0130
0100
0100
,
0001
1000
0010
0100
,
0002
0010
0010
0103
,
0100
1000
1000
1000
,
0010
0010
0010
1000
,
1000
1000
1000
1000
,
0001
0001
0001
0010
,
0010
0010
0100
0100
,
0100
0100
0100
0100
,
2000
0000
0000
0000
,
3002
0000
0000
0000
,
0010
0100
0100
1000
,
0000
0000
0000
0000
,
0010
0100
0010
0013
,
1000
1000
0001
0001
,
1001
1001
0110
0110
,
1100
0000
0110
0000
0011
0000
0000
1001
;

//---------------dance-single - ----------------
#NOTES:
     dance-single:
     :
     Hard:
     7:
     0.414,0.399,0.183,0.049,0.000:
1000
0000
1000
0000
0001
0001
0010
0010
,
0000
0100
0000
0000
0100
0000
0100
0000
,
1000
0000
1000
0000
0001
0001
0000
0010
,
0000
0010
0000
0100
0100
0000
1000
0100
,
0010
0000
0010
0000
0010
0010
0010
0001
,
0000
0001
0000
0001
1000
0000
1000
0000
,
0100
0000
0100
0000
0010
0010
0010
2000
,
0002
0000
0000
0000
0000
3003
0000
0000
,
1000
0000
1000
0000
0001
1000
0001
1000
,
0010
0000
0010
0000
0100
0100
0100
0000
,
1000
0100
0010
0000
,
0000
1100
0000
0110
0000
0011
0000
0000
,
1000
0000
1000
0000
0100
0100
0100
0010
,
0000
0010
0000
0001
0001
0000
1000
0000
,
0010
0000
0100
0000
0100
0100
0100
0000
,
0001
1100
0000
0110
0000
0011
0000
0000
,
1000
0000
1000
0000
0100
0100
0100
0010
,
0000
0010
0000
0001
0001
0000
1000
0000
,
1010
0101
0110
1001
,
0010
0000
0010
0000
0100
0000
0100
0100
,
1000
0000
0010
0000
0100
0001
0100
1000
,
0000
0100
0010
0001
0100
1000
0100
0000
,
0010
0000
0100
0000
0100
0100
0100
0000
,
0010
0010
0010
0001
,
1000
0100
1000
0010
0000
0000
0000
0001
,
0000
1000
0000
0001
1000
0000
0010
0000
,
1000
0100
1000
0100
0000
0010
0000
0001
,
0000
0010
0000
0100
0000
1000
0000
0000
,
1000
1000
1000
1000
,
0000
0001
0000
0001
0000
0001
0000
0001
,
1000
0000
1000
0000
1000
0010
1000
0010
,
0010
0100
0100
0001
,
0010
0000
0010
0000
0100
1000
0100
1000
,
0100
0000
0010
0000
0001
0001
0001
0000
,
0010
0000
0010
0000
0100
1000
0100
1000
,
0000
0100
0000
0100
0100
0000
0020
0000
,
0001
0000
0001
0000
0031
0001
0000
1000
,
0000
1000
0000
1000
1000
0000
0100
0000
,
0010
0000
0010
0000
0100
0100
0000
0001
,
0000
1000
0000
0001
0001
0000
0020
0000
,
0130
0000
0100
0000
0110
0100
0000
1000
,
0000
1000
0000
1000
0100
0000
0010
0000
,
1000
0000
0100
0000
0010
0010
0000
0000
,
0000
1100
0000
0110
0000
0011
0000
0000
,
0100
0000
0100
0000
0010
0010
0001
0001
,
0000
1000
0000
0001
0001
0000
0001
0000
,
1000
0001
1000
0001
1000
0000
0000
1001
;

//---------------dance-single - ----------------
#NOTES:
     dance-single:
     :
     Challenge:
     10:
     0.521,0.542,0.280,0.231,0.000:
1000
0100
0010
0001
1000
0100
0010
0001
,
0010
0100
1000
0000
0001
0010
0100
1000
,
1000
0100
0010
0001
1000
0100
0010
0001
,
1000
0100
0010
0001
1000
0100
0010
0001
,
2000
0100
0100
0100
3010
0010
0010
0000
,
0001
0001
0000
1000
1000
0000
0010
0000
,
0002
1000
1000
1003
2000
0000
0001
0001
,
3000
0002
0000
0010
0000
1003
0000
0100
,
0010
0001
1000
0100
0010
0100
0000
1000
,
0100
1000
0010
0001
1000
0000
0100
0000
,
1100
1100
0110
0110
0001
0011
0010
0100
,
1000
0100
0010
0000
0001
0000
0001
0000
,
1000
1000
0100
0100
0010
0010
0001
1000
,
0100
0010
0100
1000
0100
0000
1000
0000
,
1100
0000
0100
1000
0100
0100
0000
0000
,
1001
0001
1000
0001
,
1002
1000
1000
1000
,
1000
0000
1000
0003
1000
1000
1000
0000
,
0120
0000
0100
0000
0100
0030
0120
0000
,
0100
0100
0130
0120
,
0130
0000
0010
0000
0100
0010
0100
0100
,
0000
0120
0000
0130
0100
0000
0010
0000
,
0210
0000
0010
0000
0010
0010
0301
0000
,
1000
0000
0100
0000
0010
0010
0000
0000
,
0002
1000
1000
1000
0100
0100
0100
0010
,
0010
0010
0100
0100
0100
0100
1000
0000
,
2003
0010
0100
0001
,
0010
3000
0100
0000
1100
1100
0110
0000
,
0002
1000
1000
1000
,
0100
0000
0000
0010
0100
0000
0010
0000
,
0100
0100
0010
0103
,
1000
0100
0010
0001
1000
0100
0010
0001
,
2000
0000
0100
0000
0010
0010
3000
0001
,
0000
0001
0000
1000
1000
0000
1000
0000
,
0100
0000
0100
0000
0000
0100
0000
0010
,
0000
0010
0000
0001
0001
1000
0100
0010
,
0100
0000
0100
0000
0010
0010
0110
0001
,
0000
1100
0110
0001
0000
0000
1000
0000
,
0010
0100
0100
0100
0001
0001
1001
2000
,
0000
0000
0010
0100
0000
0000
0010
3000
,
0002
0000
1000
0000
1000
1000
0013
0100
,
0000
0100
0000
0010
0010
0000
0002
0000
,
1000
0003
0010
0000
0100
0100
1000
0100
,
0000
0110
0000
0010
0002
0000
1000
0003
,
0100
0000
0010
0000
0100
0101
0100
0000
,
1000
0000
0100
0001
0200
0000
1300
0000
,
0100
0000
0010
0000
0001
1000
0000
1001
;

//---------------dance-single - ----------------
#NOTES:
     dance-single:
     :
     Easy:
     2:
     0.179,0.200,0.061,0.085,0.006: // measure 1
1000
0000
1000
0000
,  // measure 2
0001
0000
0001
0000
,  // measure 3
1000
0000
1000
0000
,  // measure 4
0010
0100
0010
0100
,  // measure 5
1000
0000
1000
0000
,  // measure 6
0001
0000
0001
0000
,  // measure 7
1000
0000
1000
0000
,  // measure 8
0002
0000
0000
0000
,  // measure 9
1003
0000
1000
0000
,  // measure 10
1001
0000
1001
0000
,  // measure 11
0001
0000
0001
0000
,  // measure 12
1000
0000
1000
0000
,  // measure 13
0001
0000
0001
0000
,  // measure 14
1000
0000
1000
0000
,  // measure 15
1100
0000
0110
0000
,  // measure 16
0011
0000
0000
0000
,  // measure 17
1000
0000
1000
0000
,  // measure 18
0001
0000
0001
0000
,  // measure 19
2000
0000
0000
0000
,  // measure 20
3002
0000
0000
0000
,  // measure 21
1003
0000
1000
0000
,  // measure 22
1000
0000
0001
0000
,  // measure 23
1000
0000
1000
0000
,  // measure 24
0001
0000
0000
0000
,  // measure 25
1000
0000
1000
0000
,  // measure 26
0001
0000
0001
0000
,  // measure 27
1000
0000
1000
0000
,  // measure 28
0010
0000
0010
0000
,  // measure 29
0100
0000
0100
0000
,  // measure 30
0010
0000
0010
0000
,  // measure 31
1000
0000
1000
0000
,  // measure 32
0002
0000
0000
0000
,  // measure 33
1003
0000
1000
0000
,  // measure 34
1000
0000
1000
0000
,  // measure 35
0200
0000
0000
0000
,  // measure 36
0300
0000
0010
0010
,  // measure 37
0002
0000
0000
0000
,  // measure 38
1003
0000
1000
1000
,  // measure 39
0002
0000
0000
0003
,  // measure 40
0010
0000
0010
0000
,  // measure 41
0010
0000
0100
0000
,  // measure 42
0010
0000
0010
0000
,  // measure 43
0100
0000
0100
0000
,  // measure 44
0010
0000
0010
0000
,  // measure 45
0100
0000
1000
0000
,  // measure 46
0100
0000
0010
0000
,  // measure 47
0001
0000
0000
0000
0000
0000
0000
0000
0000
0000
0000
0000
1000
0000
0000
0000
0000
0000
0000
0000
0000
0000
0000
0001
0000
0000
0000
0000
0000
0000
0000
0000
0000
0000
0000
0000
0010
0000
0000
0000
0000
0000
0010
0000
0000
0000
0000
0000
;

//---------------dance-single - ----------------
#NOTES:
     dance-single:
     :
     Beginner:
     1:
     0.070,0.114,0.024,0.012,0.000:
1000
0000
0000
0000
,
0000
0000
0000
0000
,
1000
0000
0000
0000
,
1000
0000
0000
0000
,
0001
0000
0000
0000
,
0000
0000
0000
0000
,
0001
0000
0000
0000
,
0001
0000
0000
0000
,
1000
0000
0000
0000
,
1000
0000
0000
0000
,
1000
0000
0000
0000
,
0100
0000
0000
0000
,
0100
0000
0000
0000
,
0010
0000
0000
0000
,
0010
0000
0000
0000
,
0002
0000
0000
0000
,
0003
1000
0000
0000
,
0000
0000
0000
0000
,
0000
1000
0000
0000
,
0000
0000
0000
0000
,
0000
0001
0000
0000
,
0000
0000
0000
0000
,
0000
0001
0000
0000
,
0000
0000
0000
0000
,
0000
0100
0000
0000
,
0000
0010
0000
0000
,
0000
0100
0000
0000
,
0000
0000
0000
0000
,
0000
0100
0000
0000
,
0000
0010
0000
0000
,
0000
0100
0000
0000
,
1001
0000
0000
0000
,
1000
0000
0000
0000
,
0000
0000
0000
0000
,
0001
0000
0000
0000
,
0000
0000
0000
0000
,
0010
0000
0000
0000
,
0000
0000
0000
0000
,
0100
0000
0000
0000
,
0000
0000
0000
0000
,
1000
0000
0000
0000
,
0100
0000
0000
0000
,
0010
0000
0000
0000
,
0001
0000
0000
0000
,
1000
0000
0000
0000
,
0100
0000
0000
0000
,
0010
0000
0000
0000
0000
0000
0000
1001
;
