#TITLE:キューティーハニー (HiNAMiX);
#SUBTITLE:From Dancemania AnimeSpeed;
#ARTIST:HINA;
#TITLETRANSLIT:Cutie Honey (HiNAMiX);
#SUBTITLETRANSLIT:;
#ARTISTTRANSLIT:;
#CREDIT:;
#BANNER:banner.png;
#BACKGROUND:bg.png;
#LYRICSPATH:Cutie Honey (HINAMIX).lrc;
#CDTITLE:;
#MUSIC:Cutie Honey.mp3;
#OFFSET:0.000;
#SAMPLESTART:31,441;
#SAMPLELENGTH:12.000;
#SELECTABLE:YES;
#DISPLAYBPM:187.000;
#BPMS:0.000=176.940,19.250=187.860;
#STOPS:;
#BGCHANGES:;

//---------------dance-single - ----------------
#NOTES:
     dance-single:
     :
     Beginner:
     3:
     0.448,0.687,0.452,0.397,0.000:
0000
0000
0000
0000
,
0000
0000
0000
0000
,
0000
0000
0000
0000
,
0000
0000
0000
0000
,
0000
0000
0000
0000
,
2000
0000
0010
3000
,
0001
0010
0100
1000
,
0001
0000
1000
0010
,
0100
0010
0002
0003
,
1000
0010
0100
0010
,
0100
0001
2000
3000
,
0010
0100
0020
0030
,
0002
2003
0000
3000
,
0010
0100
0001
2000
,
3000
0010
0100
0001
,
1000
0000
1000
0000
,
1000
0000
1000
0010
,
0200
0000
0300
0001
,
0020
0000
0030
0000
,
1000
0100
0010
0002
,
0000
0010
0100
1003
,
0010
0100
0010
0100
,
2000
3020
0230
0302
,
2003
3020
0230
0302
,
2003
3002
1003
0000
,
0010
0110
0000
0110
,
0000
0100
0010
0100
,
0010
0110
0100
0110
,
0110
0110
0010
0110
,
0000
0110
0000
0100
,
0110
0000
0010
0110
,
1000
0001
0000
0010
,
0100
2000
0000
0010
,
0100
0001
0010
0100
,
0001
0010
0100
0001
,
0010
0100
0001
0010
,
0100
0001
0010
3100
,
1000
0010
0100
0010
,
0001
1000
0010
0100
,
1001
1001
1001
1001
,
1001
1001
1001
1001
,
1010
1100
1001
1010
,
1100
1001
1010
1100
,
1001
1010
1100
0010
,
0200
0000
0000
0000
,
0010
0010
0010
0310
,
0001
1000
0010
0000
,
0001
0001
1000
1000
,
0010
0100
0001
0000
,
2000
3020
0230
0302
,
1003
0020
0230
0320
,
0130
0001
0110
0000
,
0001
0110
0110
1000
,
0110
0001
0110
1000
,
0110
1000
0110
0001
,
0110
0001
0110
1000
,
0110
1010
0010
0100
,
0010
0100
1010
1001
,
0101
0010
0100
1000
,
0110
0000
1000
0110
,
0001
0110
1000
0000
,
1000
0100
0010
0001
,
1000
0100
0010
0001
,
1000
0100
0010
0001
,
1000
0100
0010
0001
,
1000
0010
0000
0100
,
1001
1001
0020
0000
,
0100
0100
0100
0100
,
0100
0100
0100
0100
,
0100
0100
0100
0100
,
0032
1000
1000
1000
,
0023
0230
0300
0000
,
0001
0020
0000
0030
,
0100
0100
1000
0001
,
0010
0100
0010
0100
,
2002
0000
0000
0003
,
0020
0000
0000
0030
,
0200
0000
3000
0000
,
0020
0000
0300
0000
,
0002
0000
0030
0000
,
2000
0000
0003
0000
,
0020
0000
0000
3000
,
0000
0200
0000
0330
;

//---------------dance-single - ----------------
#NOTES:
     dance-single:
     :
     Easy:
     5:
     0.515,0.615,0.194,0.369,0.000:
0000
0000
0000
0000
,
0000
0000
0000
0000
,
0000
0000
0000
0000
,
0000
0000
0000
0000
,
0000
0000
0000
0000
,
1000
1000
0000
1000
0000
0000
1000
0010
,
0000
0100
0010
0001
,
0010
0200
0000
1000
0000
0301
0000
0010
,
0000
0100
0001
1000
0010
0000
0000
0001
,
1000
0010
0100
0010
0000
0100
0010
0002
,
0000
1000
1000
0000
0010
0003
0000
2000
,
0000
0020
3000
0000
0032
0000
0203
0000
,
0320
0230
0320
0130
,
0010
0000
0100
0100
0100
0000
0010
0001
,
0000
1000
0000
0010
0001
1000
0010
0200
,
0000
0000
0310
0002
0000
0003
1000
0000
,
0110
0000
0000
1001
0000
0110
0000
0110
,
0000
1001
0000
0011
0000
1100
0000
1010
,
0000
0000
1001
0001
0100
0000
0011
0000
,
0101
0000
1000
0010
0100
0000
0000
1010
,
1000
0000
0010
0000
0100
0010
0000
0010
,
0100
0000
0001
1000
0000
0010
0000
0010
,
0000
0010
0000
0010
0000
0010
0000
0100
,
0100
0000
0100
0100
0100
0100
0100
0100
,
0002
0010
0100
1003
,
0000
0010
0010
0100
0000
0010
0010
0100
,
0000
0010
0010
0100
0000
0010
0000
0000
,
0002
0000
1000
0000
0000
0003
0000
1001
,
0000
1001
0000
0000
0020
0000
0000
0100
,
0000
0100
0000
0100
0000
0100
0000
0032
,
0000
1000
0000
1000
0000
1000
0003
0020
,
0000
0100
0000
0100
0000
0100
0030
2000
,
0000
0010
0000
0010
0000
0010
0000
3000
,
0200
0000
0010
0000
0010
0000
0010
0300
,
0002
0000
0010
0010
0000
0010
0000
0000
,
0100
0100
0000
0100
0000
0000
1000
0000
,
1000
0023
0000
0000
0100
0030
0010
0000
,
0100
0000
0010
0000
0001
0000
1000
1000
,
0100
0000
0000
0001
0000
0000
0010
0010
,
0200
0000
0000
1000
0000
0001
0000
0010
,
0000
1000
0001
0010
,
1000
0001
0010
1000
,
0001
0000
0010
0000
1000
0300
0000
0000
,
1000
0000
1000
0000
,
1000
1000
1000
1000
1000
1000
0000
0000
,
0020
0000
0130
0000
0001
0000
1000
0010
,
0200
0000
2300
0000
3001
0001
0000
0000
,
0010
0000
0002
1000
0003
0000
0010
0000
,
0100
0000
0010
0002
0000
1000
0003
0000
,
0010
0000
0100
0000
2001
0000
0010
3000
,
0001
0000
0010
0000
1002
0000
0000
0003
,
0000
0000
0010
0000
0100
0000
0010
0100
,
0000
0001
0000
1000
0010
0100
0001
0000
,
0010
0100
0010
0000
,
2100
0010
0000
0001
0000
0000
0010
0000
,
0100
0000
0010
0001
0000
0000
0010
0000
,
0100
0000
0010
3000
,
0001
0010
0100
1000
,
0001
0000
0010
0000
0100
0000
1000
0001
,
0000
0010
0000
0000
0100
0000
1000
0000
,
0001
0010
0000
0100
0000
0000
0000
0000
,
1100
0000
1000
0100
0010
0000
0001
0020
,
0000
0000
0100
0100
0000
0100
0000
0030
,
0000
1000
1000
0001
0000
1000
1000
0001
,
0000
1000
1000
0001
0001
0000
0010
0000
,
0100
0010
0100
0010
,
0110
0110
0110
0000
0002
0000
0000
0000
,
1000
0010
0100
0010
,
0100
1000
0010
0100
,
0010
0100
1000
0010
,
0100
1000
0010
0100
,
0010
0100
0010
0100
,
0010
0100
0010
0100
,
1000
0010
0100
0010
,
0100
0000
0010
0000
0100
0000
1000
0003
,
0020
1000
1000
0001
,
0001
0000
1000
0000
1000
0001
0000
0000
,
0001
0000
1000
0000
1000
0000
0001
0030
,
0010
0000
0100
0010
0100
0000
0001
0000
,
1000
0001
1000
0001
1000
0000
0001
0000
,
1000
0001
1000
0001
1000
0000
0020
0000
,
0100
0000
0002
0030
2003
0000
0020
3000
,
0230
0302
0023
0130
,
0020
0000
0000
0030
0000
0000
0000
0000
;

//---------------dance-single - ----------------
#NOTES:
     dance-single:
     :
     Medium:
     10:
     0.633,0.728,0.231,0.719,0.000:
0000
0000
0000
0000
,
0000
0000
0000
0000
,
0000
0000
0000
0000
,
0000
0000
0000
0000
,
0000
0000
0000
0000
,
0010
0000
0100
0010
0000
0000
0100
0000
,
1000
0001
0010
0100
0001
1000
0010
0100
,
0001
0010
0000
0100
1001
0010
0000
0100
,
0001
0010
0000
0102
0000
0000
0000
0010
,
0003
0100
1000
0010
0100
0001
0000
0010
,
0200
0000
1300
0010
0002
0000
0003
0000
,
0020
0000
1030
0001
0000
0010
0100
0002
,
0000
0010
0000
0100
1000
0023
0000
0100
,
0030
0001
0010
2000
0000
0001
0000
3020
,
0000
0230
0000
1301
0010
0100
0000
0002
,
0000
0003
1100
0000
1010
0001
1000
0000
,
0021
0000
0000
0230
0000
0301
1000
0010
,
0100
0001
1000
0010
0100
0001
1000
0010
,
0100
0001
1000
0010
0100
0001
0020
0000
,
0130
0020
0100
0000
0100
0100
0000
0032
,
0000
0000
1000
1000
1000
0010
0003
0010
,
0010
0000
0100
0000
1000
0000
0001
0001
,
2000
3020
0230
0302
,
2003
3020
0230
0302
,
0023
0230
2300
3020
,
0030
0001
0001
0020
0000
1030
1000
2000
,
0000
3100
0010
0000
0001
0010
0100
1000
,
0010
0100
0000
0000
0000
0000
0000
0000
,
0110
1001
0011
0000
0100
1000
0010
0100
,
0010
0001
1000
0010
0100
0001
1000
0010
,
0001
1000
0100
0010
0001
1000
0100
0010
,
0001
0001
0010
0100
1000
1000
1000
0100
,
0010
0001
0100
1000
0000
0010
0100
0100
,
0010
0110
0100
0010
0100
0001
0000
2000
,
0000
0000
3010
0100
0002
0000
0010
0000
,
0103
0000
1000
0210
0000
0000
0302
0000
,
0023
0000
1030
0010
0002
0000
2003
0000
,
3020
0000
0230
0000
0302
0000
0013
2100
,
0000
3020
0032
0103
,
2100
0000
0010
0000
0002
0000
3010
0003
,
0012
0100
0010
0100
,
1000
0000
0010
0003
0101
0000
1100
1100
,
1010
0000
0001
0000
0010
0000
0100
0010
,
0100
0000
0001
0010
0000
0000
0001
0000
,
0020
0000
0100
0000
0100
0000
0000
0030
,
1000
1000
1000
1000
1000
1000
1000
0002
,
0000
0000
0010
0010
0010
0000
0003
0000
,
0100
0100
0100
0100
0100
0100
0100
0000
,
1100
0000
1010
1010
1010
0000
0000
0000
,
0002
0010
0100
1000
,
0010
0100
1000
0013
,
0000
1000
0000
0010
0100
0000
0001
1000
,
0000
0010
0000
0001
1000
0010
1000
0001
,
0020
0000
0100
0030
0002
0000
0013
0000
,
1001
1001
1001
0000
0020
0000
0000
0000
,
0100
0100
0100
0001
,
1000
0000
0001
0000
1000
0000
0001
0030
,
0001
1000
0001
0010
0000
1000
0001
0010
,
1000
0001
1000
0001
1000
0001
1000
0001
,
0000
0000
0020
0000
0100
0230
0000
0000
,
0010
0000
0010
0000
0010
0000
0010
0300
,
0001
1000
0001
1000
0001
1000
0001
1000
,
0020
0000
0100
0000
0100
0000
0100
0030
,
0000
0001
0001
0010
0000
0001
0001
0001
,
1000
0010
0010
0000
0000
0001
2000
0000
,
0020
3000
0230
0000
0302
0000
0023
0000
,
0230
0000
2000
0300
0001
0000
3020
0000
,
0000
0230
0002
0300
0100
0000
0000
0000
,
2000
0000
3020
0000
,
0000
0030
0010
0010
,
0010
0000
0100
0000
1000
2003
0000
0000
,
0010
0000
0010
0000
3200
0001
0300
0010
,
0100
0000
0001
1000
0010
1000
0002
0000
,
0010
0000
0100
1000
0000
0010
0100
0000
,
2000
0003
0020
0000
3200
0000
0030
0000
,
0302
0000
0000
0020
0000
0003
0000
2000
,
0000
0000
0030
0000
0200
0000
0000
3000
,
0020
0000
0030
0302
,
0010
0100
1000
0010
,
0100
1000
0010
0100
,
1000
0010
0100
1000
,
0010
0000
0000
0100
1000
0000
0010
0000
,
0100
1003
0010
0100
,
0000
0100
0000
0000
0000
0000
0000
0000
;

//---------------dance-single - ----------------
#NOTES:
     dance-single:
     :
     Hard:
     13:
     0.631,0.840,0.212,0.553,0.092: // measure 1
0000
0000
0000
0000
,  // measure 2
0000
0000
0000
0000
,  // measure 3
0000
0000
0000
0000
,  // measure 4
0000
0000
0000
0000
,  // measure 5
0000
0000
0000
0000
0000
0000
0000
0000
0000
0000
0000
0000
0000
0000
1000
1000
,  // measure 6
1000
1000
1000
0000
0000
0001
0001
0001
0001
0001
0000
0000
0000
1000
0001
0100
,  // measure 7
0001
0000
0000
0000
0100
0010
0100
0010
0100
0010
0000
0000
0000
0000
1000
0000
,  // measure 8
0001
0000
0010
0000
0100
0000
0000
0000
0001
0000
0010
0000
0000
0000
1000
1000
,  // measure 9
1000
1000
1000
0000
0000
0000
0000
0001
0001
0001
0001
0000
0000
0000
0020
0000
,  // measure 10
0000
0100
0000
0031
1000
0010
0100
0001
,  // measure 11
1000
0020
0100
0000
0001
1000
0000
0000
,  // measure 12
0002
0003
0000
0000
,  // measure 13
0000
0000
0200
0000
0030
0000
0000
0001
,  // measure 14
0000
0010
0000
0000
0001
0000
0310
0100
,  // measure 15
2000
0000
3010
0100
0001
1000
0020
0000
,  // measure 16
0100
0100
0130
0000
0002
0000
0000
0000
2003
0000
0000
0000
3000
0000
0000
0000
,  // measure 17
0010
1001
0020
0000
0000
0000
1030
0001
,  // measure 18
0010
0100
1000
0001
0010
0100
1000
0001
,  // measure 19
0010
0100
1000
0001
0010
0100
1000
0000
,  // measure 20
1000
1000
1000
0000
1000
0000
1000
1000
1000
0000
0020
0000
0000
0000
0100
0000
,  // measure 21
0000
0100
0000
0100
0000
0130
0001
1000
,  // measure 22
0010
0100
0001
1000
0010
0100
0001
2000
,  // measure 23
0000
3010
0100
0002
0000
0000
0003
0010
,  // measure 24
0100
1000
0010
0000
1010
1010
0000
0101
,  // measure 25
0102
0010
0100
0013
,  // measure 26
0100
0100
2000
0000
0010
0000
0010
0001
,  // measure 27
0000
0000
0010
0000
3100
0000
0000
0000
0000
0000
0010
0010
0010
0000
0000
0000
,  // measure 28
0100
0010
0000
0001
0000
0000
0100
0000
,  // measure 29
1100
1010
0001
0000
0010
0100
0010
0100
,  // measure 30
0010
0100
0010
0100
0010
0100
0010
0100
,  // measure 31
0001
1000
0001
1000
0001
1000
0001
0100
,  // measure 32
0001
0100
0001
0100
0101
0000
0001
0020
,  // measure 33
0000
0000
0200
0000
0000
0030
0300
0000
,  // measure 34
0002
0000
0000
0023
0000
0000
0230
0000
,  // measure 35
2000
0000
0300
0000
0000
0020
0000
3000
,  // measure 36
0000
0000
0000
0030
0000
0200
0000
0000
,  // measure 37
0000
0000
2000
0000
0000
0000
0300
0020
,  // measure 38
0000
0000
0000
0000
3000
0200
0000
0000
,  // measure 39
0330
0000
0000
0010
0000
0000
0100
1000
,  // measure 40
0000
0010
0000
0100
0000
0000
1000
0000
,  // measure 41
0010
0100
0010
0100
0010
0000
0000
2000
,  // measure 42
0000
0000
0001
0001
0001
3000
0002
0000
,  // measure 43
1000
1000
1000
1000
1000
0000
0003
0000
2000
0000
0001
0000
0001
0000
0001
0000
,  // measure 44
3000
0001
0010
0100
0010
0100
0010
0100
,  // measure 45
0010
0100
0010
0100
0110
0000
0000
0000
,  // measure 46
0110
0110
0110
0110
0110
0110
0110
0000
,  // measure 47
0101
0010
0000
0100
1000
0010
0000
0000
,  // measure 48
0100
0010
0100
0001
1000
0000
1100
0000
,  // measure 49
0100
0000
1100
1100
1100
0000
0000
0000
,  // measure 50
0020
0000
0100
0002
0030
0000
0010
0000
,  // measure 51
0100
0000
1000
0010
0000
0100
0000
0000
,  // measure 52
0013
0000
0100
1000
0001
0010
0100
1000
,  // measure 53
0001
0010
0100
1000
0001
0010
0100
1000
,  // measure 54
0001
0010
0100
1000
0001
0010
0100
1000
,  // measure 55
0000
0010
0000
0000
0000
0000
1000
1000
,  // measure 56
1000
0000
0001
0000
0001
0000
1000
1000
,  // measure 57
1000
0000
0020
0000
0200
0030
0302
0000
,  // measure 58
0013
0100
1000
0001
0010
0100
1000
0002
,  // measure 59
0000
0000
0100
1000
0010
0000
0100
1000
,  // measure 60
0010
0100
1000
0000
0023
0000
0130
0001
,  // measure 61
1000
0020
0000
0130
0002
0000
0003
1000
,  // measure 62
0000
0100
0000
0020
0000
0230
0000
0000
,  // measure 63
0320
0230
0310
0000
,  // measure 64
2001
0000
0000
3000
1002
0000
1000
0000
,  // measure 65
1000
0000
1000
0000
1000
0000
1000
0013
,  // measure 66
0000
0100
0010
0100
0010
0100
0010
0100
,  // measure 67
0001
1000
0001
1000
0001
1000
0001
0010
,  // measure 68
0000
2000
0000
0000
3020
0000
2030
0000
,  // measure 69
3200
0000
0310
0200
0000
0000
0320
0000
,  // measure 70
0230
0000
0000
0002
0000
0300
0020
0000
,  // measure 71
0030
0000
0200
0000
0300
2000
0000
0000
,  // measure 72
3000
0013
0000
0000
0100
0000
0100
0100
,  // measure 73
0100
0010
0100
0100
,  // measure 74
0100
0000
0100
0000
0100
0100
0100
0100
,  // measure 75
0000
0100
0000
0100
0000
0000
0100
0100
,  // measure 76
0000
0002
0010
0000
0100
0000
1000
0010
,  // measure 77
0100
1000
0010
0100
1000
0010
0000
0103
,  // measure 78
1000
0100
1000
0010
0001
1000
0010
0000
,  // measure 79
0200
0000
0310
0200
0000
0000
0010
0000
,  // measure 80
0002
0000
0003
2000
0000
0000
3000
0000
,  // measure 81
2000
0000
0000
3000
0000
0000
1000
0001
,  // measure 82
0001
0000
0000
0001
0001
0000
0000
0001
,  // measure 83
0300
0010
0100
0010
;
