#TITLE:COME AND GET IT;
#SUBTITLE:;
#ARTIST:n.a.r.d.;
#TITLETRANSLIT:;
#SUBTITLETRANSLIT:;
#ARTISTTRANSLIT:;
#CREDIT:;
#BANNER:COME AND GET IT_b.png;
#BACKGROUND:COME AND GET IT_ba.jpg;
#LYRICSPATH:;
#CDTITLE:215edit.png;
#MUSIC:COME AND GET IT.MP3;
#OFFSET:-0.580;
#SAMPLESTART:37.454;
#SAMPLELENGTH:12.000;
#SELECTABLE:YES;
#BPMS:0.000=91.500;
#STOPS:;
#BGCHANGES:0.000=COMEANDGET IT.avi=1.000=1=1=0,
99999=-nosongbg-=1.000=0=0=0 // don't automatically add -songbackground-
;

//---------------dance-single - ----------------
#NOTES:
     dance-single:
     :
     Hard:
     9:
     0.380,0.381,0.159,0.272,0.323:
0002
0000
2003
0000
,
3002
0000
0000
0000
0003
0000
0100
0001
,
0200
0000
0320
0000
,
1030
0000
0000
0001
0001
0000
0000
0100
0100
0000
0000
0010
0010
0000
0000
1000
,
1000
0000
0001
0100
0000
0010
0000
1000
0100
0000
1000
0000
0001
0000
0100
0000
,
0010
1000
0000
2000
0000
0000
0000
0000
3200
0000
0000
0000
0000
0000
0000
0000
,
0310
0000
0001
1000
0000
0001
0000
1000
0100
0000
1000
0000
0010
0000
0001
0000
,
0010
1000
0000
2000
0000
0000
0000
0000
3020
0000
0000
0000
0230
0000
0000
0000
,
0301
0000
1000
0100
0000
0010
0000
0001
0100
0000
0010
0000
1000
0000
0100
0000
,
0001
0100
0000
0200
0000
0000
0000
0000
0320
0000
0000
0000
0000
0000
0000
0000
,
0130
0000
0010
0100
0000
0010
0000
1000
0010
0000
0100
0000
0010
0000
0100
0000
,
0001
0100
0000
0200
0000
0000
0000
0000
0320
0000
0000
0000
2030
0000
0000
0000
,
3000
0000
0000
0001
0100
0000
0000
0001
0100
0000
0000
0001
0100
0000
0000
0000
,
0100
0010
0000
0020
0000
0000
0000
0000
0000
0000
0030
0000
1000
0100
0010
0100
,
0001
0100
1001
0100
0010
1000
0011
0100
,
0010
1000
0101
1000
0010
1000
0110
0001
,
0010
0100
1100
0010
0100
0010
0110
0001
,
0200
0302
2003
3020
,
0130
0001
1010
0100
0010
1000
1001
0010
,
0100
1000
0110
0001
1000
0010
0110
1000
,
0100
0010
0011
0001
1000
0100
1001
0100
,
2002
0000
3000
0000
,
0203
0000
0000
0000
,
0310
0000
0000
0001
0100
0000
0000
0010
1000
0000
0000
0100
1000
0000
0000
0000
,
1000
0000
0000
0100
0010
0000
0000
1000
0001
0000
0000
0010
0001
0000
0000
0000
,
1000
0000
0000
0001
0100
0000
0000
0010
1000
0000
0000
0100
1000
0000
0000
0000
,
0010
0000
0000
0100
0010
0000
0000
0001
0010
0000
0000
0000
0010
0100
0010
0001
,
0010
0000
0000
0001
0010
0000
0000
0100
1000
0000
0000
0010
0100
0000
0000
0000
,
0010
0000
0000
1000
0100
0000
0000
1000
0001
0000
0000
0010
0001
0000
0000
0000
,
1000
0000
0000
0010
1000
0000
0000
0001
0100
0000
0000
0010
1000
0000
0000
0000
,
0110
0000
0000
0010
0100
0000
0000
0010
0100
0000
0000
0000
0010
0001
0010
0100
,
2000
0000
0000
0000
,
3000
0000
0000
0000
;

//---------------dance-single - Copied from----------------
#NOTES:
     dance-single:
     Copied from:
     Medium:
     7:
     0.260,0.246,0.193,0.272,0.147:
0000
0000
0000
0000
,
0000
0000
0000
0000
,
0010
0010
0100
0100
,
0001
0010
0100
1000
,
0002
0000
0000
0003
2000
0000
0000
0000
3020
0000
0000
0000
0230
0000
0000
0000
,
0302
0000
0000
1003
0000
0000
0000
0000
0000
0000
0000
0000
0000
0000
0000
0000
,
0020
0230
0302
2003
,
3020
0000
0000
0130
0000
0000
0000
0000
0000
0000
0000
0000
0000
0000
0000
0000
,
2000
3002
0203
0302
,
2003
0000
0000
3010
0000
0000
0000
0000
0000
0000
0000
0000
0000
0000
0000
0000
,
2000
3020
2030
3002
,
0203
0000
0000
0310
0000
0000
0000
0000
0000
0000
0000
0000
0000
0000
0000
0000
,
0101
0010
0010
0010
,
2020
0000
0000
0000
3030
0000
1000
0001
,
1000
1100
0010
0110
,
0001
1001
0100
0110
,
0010
1010
0100
0101
,
0010
0000
1100
0000
0100
0001
0100
0001
,
0100
1010
0100
0101
,
0001
1010
0100
0011
,
1000
0110
0001
1100
,
2002
0000
0000
0000
,
0000
0000
0000
0000
,
3003
0000
0000
0001
0001
0000
0000
1000
1000
0000
0000
0100
0100
0000
0000
0000
,
0000
0000
0000
0010
0010
0000
0000
1000
1000
0000
0000
0100
0100
0000
0000
0000
,
0000
0000
0000
0010
0010
0000
0000
0001
0001
0000
0000
1000
1000
0000
0000
0000
,
0000
0000
0000
0100
0100
0000
0000
0010
0010
0000
0000
0000
0010
0000
0100
0000
,
0110
0000
0000
0001
0001
0000
0000
1000
1000
0000
0000
0001
0001
0000
0000
0000
,
0000
0000
0000
0100
0100
0000
0000
0010
0010
0000
0000
0100
0100
0000
0000
0000
,
0000
0000
0000
1000
1000
0000
0000
0100
0100
0000
0000
1000
1000
0000
0000
0000
,
0000
0000
0000
1000
1000
0000
0000
0001
0001
0000
0000
0000
0100
0000
0100
0000
,
0100
0000
0000
0000
;

//---------------dance-single - Copied from Copied f----------------
#NOTES:
     dance-single:
     Copied from Copied f:
     Easy:
     4:
     0.126,0.177,0.023,0.057,0.000:
0000
0000
0000
0000
,
0000
0000
0000
0000
,
0001
0000
0000
0000
,
1000
0000
0000
0000
,
0010
0000
0000
0000
,
1000
0000
0000
0000
,
0001
0000
0000
0000
,
0100
0000
0000
0000
,
0001
0000
0000
0000
,
1000
0000
0000
0000
,
0010
0000
0000
0000
,
0100
0000
0000
0000
,
1000
1000
1000
1000
,
2000
0000
3000
0010
,
0100
0100
0100
0100
,
0001
0001
0001
0001
,
0100
0100
0100
0100
,
0002
1000
1000
1003
,
0100
0100
0100
0100
,
0010
0010
0010
0010
,
1000
1000
0001
0001
,
2002
0000
0000
0000
,
0000
0000
0000
0000
,
3003
1000
0001
1000
,
0000
0010
0100
0010
,
0000
0001
0010
0001
,
0000
0100
1000
0100
,
1100
0010
0100
0010
,
0000
1000
0100
1000
,
0000
0001
0010
0001
,
0000
1000
0001
1000
,
0200
0300
0000
0000
;

//---------------dance-single - ----------------
#NOTES:
     dance-single:
     :
     Beginner:
     3:
     0.102,0.158,0.057,0.023,0.000: // measure 1
0010
0000
0010
0000
,  // measure 2
0010
0000
0000
0000
,  // measure 3
0100
0000
0100
0000
,  // measure 4
0100
0000
0000
0000
,  // measure 5
1000
0000
0000
0000
,  // measure 6
1001
0000
0000
0000
,  // measure 7
0010
0000
0000
0000
,  // measure 8
0110
0000
0000
0000
,  // measure 9
1000
0000
0000
0000
,  // measure 10
0011
0000
0000
0000
,  // measure 11
0100
0000
0000
0000
,  // measure 12
1100
0000
0000
0000
,  // measure 13
0001
0000
0001
0000
,  // measure 14
0001
0000
0000
0000
,  // measure 15
1000
1000
0010
0010
,  // measure 16
1000
1000
0010
0010
,  // measure 17
1000
1000
0010
0010
,  // measure 18
0200
0000
0300
0000
,  // measure 19
0001
0001
0100
0100
,  // measure 20
0001
0001
0100
0100
,  // measure 21
0001
0001
0100
0100
,  // measure 22
0020
0000
0030
0000
,  // measure 23
0000
0000
0000
0000
,  // measure 24
1000
0000
0100
0000
,  // measure 25
0010
0000
0000
0000
,  // measure 26
0001
0000
0100
0000
,  // measure 27
0010
0000
0000
0000
,  // measure 28
1000
0000
0001
0000
,  // measure 29
0100
0000
0000
0000
,  // measure 30
0010
0000
0010
0000
,  // measure 31
0010
0000
0000
0000
,  // measure 32
1001
0000
0000
0000
;
