#TITLE:Bodyache;
#SUBTITLE:;
#ARTIST:Purity Ring;
#CREDIT:YYZStepper;
#MUSIC:Bodyache.ogg;
#SELECTABLE:YES;
#BACKGROUND:Bodyache-BG;
#BANNER:Bodyache-BN;
#CDTITLE:;
#OFFSET:-0.0119955;
#SAMPLESTART:0.000;
#SAMPLELENGTH:0.000;
#BPMS:0=140;
#STOPS:;

//---------------dance-single - ----------------
#NOTES:
     dance-single:
     :
     Hard:
     7:
     0.000,0.000,0.000,0.000,0.000:
0000
0000
0000
0000
,
0000
0000
0000
0000
,
0000
0000
0000
0000
,
0000
0000
0000
0000
,
0000
0000
0000
0000
,
0000
0000
0000
0000
,
0000
0000
0000
0000
,
0000
0000
0000
0000
,
0000
0000
0000
0000
,
1001
0000
1100
0000
0001
0010
0002
0000
,
0003
0000
0101
0000
1000
0010
1000
0020
,
0000
0030
1000
0001
1000
0000
1001
0000
,
0000
0001
0001
0100
0200
0000
0301
0100
,
0000
0000
0011
0000
1000
0100
2000
0000
,
3000
0000
1010
0000
0001
0100
0001
0200
,
0002
0303
0010
0010
1000
0010
0100
0001
,
0100
0100
0000
0001
1000
0000
1001
1001
,
0000
0000
0000
1000
0000
0010
0000
1000
0000
0000
0000
0001
0000
0010
0000
0001
,
0000
0000
0000
1000
0000
0001
0000
2000
0000
0000
3000
0000
2002
0000
0000
3003
,
0000
0000
0000
0000
0000
0010
0000
0000
0000
0000
0000
0000
0000
0100
0000
0000
0000
0000
0000
0000
0000
0100
0000
0000
0000
0000
0000
0000
0000
0002
0000
0000
0000
0000
0000
0000
0003
0000
0000
0000
0000
1000
0000
0000
0000
0000
0000
0000
0000
0000
0000
0000
0000
0100
0000
0000
0000
0000
0000
0000
0000
0020
0000
0000
,
0000
0000
0000
0000
0030
0000
0000
0000
0000
0000
0000
0000
0000
0001
0000
0000
0000
0000
0000
0000
0000
0100
0000
0000
0000
0000
0000
0000
0000
0010
0000
0000
0000
0000
0000
0000
0000
0010
0000
0000
0000
0000
0000
0000
0000
0000
0000
0000
2002
0000
0000
0000
0000
0000
0000
0000
0000
0000
0000
0000
3003
0000
0000
0000
,
1001
0000
0001
0010
0001
0000
1000
0010
,
1000
0000
0000
0000
0001
0000
1000
0000
0002
0000
0000
0003
1001
0000
0000
0000
,
0000
1000
0000
0100
0000
0100
0000
0010
0000
0000
0000
0001
0000
0010
0000
0010
,
0000
0100
0000
1001
0000
2002
0000
0000
0000
0000
0000
0000
0000
0000
3003
0000
,
1001
1100
0101
1100
,
2002
3003
0100
1000
0010
0010
0100
0100
,
0000
0101
1100
0101
,
2002
3003
0010
0001
0200
0300
0001
0001
,
0000
0101
1100
0101
,
2002
3003
0010
0001
0100
0100
0010
0010
,
0000
1100
0101
1100
,
2002
3003
0100
1000
0020
0030
1000
1000
,
0000
0000
1001
0000
,
0000
0000
1001
0000
,
0000
1010
0011
1010
,
0011
1010
1001
0000
,
1001
0000
0101
0000
1000
0010
2000
0000
,
3000
0000
1100
0000
0001
0010
0001
0020
,
0000
0000
0030
0100
0000
1000
0000
1000
0000
0001
0000
0010
0000
0100
0000
1000
,
0000
1000
0000
0100
0000
0010
0000
0001
0000
0001
0000
1000
0000
0001
0000
0000
,
1001
0000
1001
0000
0100
0010
0200
0000
,
0000
0000
0300
0000
0001
0000
0000
0200
0000
0000
0000
0000
0300
0000
0101
0000
,
0000
0000
1000
0010
1000
0010
1000
0010
,
0010
1000
1000
1001
1001
0000
0000
0000
,
0000
0000
0000
0001
0000
0010
0000
0001
0000
0000
0000
1000
0000
0010
0000
1000
,
0000
0000
0000
0001
0000
1000
0000
0002
0000
0000
0003
0000
2002
0000
0000
3003
,
0000
0000
0000
0000
0000
0100
0000
0000
0000
0000
0000
0000
0000
0010
0000
0000
0000
0000
0000
0000
0000
0010
0000
0000
0000
0000
0000
0000
0000
2000
0000
0000
0000
0000
0000
3000
0000
0000
0000
0000
0000
0001
0000
0000
0000
0000
0000
0000
0000
0000
0000
0000
0000
0010
0000
0000
0000
0000
0000
0000
0000
0200
0000
0000
,
0000
0000
0000
0000
0300
0000
0000
0000
0000
0000
0000
0000
0000
1000
0000
0000
0000
0000
0000
0000
0000
0010
0000
0000
0000
0000
0000
0000
0000
0100
0000
0000
0000
0000
0000
0000
0000
0100
0000
0000
0000
0000
0000
0000
0000
0000
0000
0000
2002
0000
0000
0000
0000
0000
0000
0000
0000
0000
0000
0000
3003
0000
0000
0000
,
1001
0000
1000
0010
1000
0000
0001
0010
,
0001
0000
0000
0000
1000
0000
0001
0000
2000
0000
0000
3000
1001
0000
0000
0000
,
0000
0001
0000
0010
0000
0010
0000
0100
0000
0000
0000
1000
0000
0100
0000
0100
,
0000
0010
0000
1001
0000
2002
0000
0000
0000
0000
0000
0000
0000
0000
3003
0000
,
1001
0101
1100
0101
,
2002
3003
0010
0001
0100
0100
0010
0010
,
0000
1100
0101
1100
,
2002
3003
0100
1000
0020
0030
1000
1000
,
0000
1100
0101
1100
,
2002
3003
0100
1000
0010
0010
0100
0100
,
0000
0101
1100
0101
,
2002
3003
0010
0001
0200
0300
0001
0001
,
0000
0000
0000
0000
,
0000
0000
0000
0000
,
0000
0000
0000
0000
,
0000
0000
0000
0000
,
0000
0000
0000
0000
;
