#TITLE:Blank Space;
#SUBTITLE:;
#ARTIST:Taylor Swift;
#TITLETRANSLIT:;
#SUBTITLETRANSLIT:;
#ARTISTTRANSLIT:;
#GENRE:;
#CREDIT:;
#BANNER:;
#BACKGROUND:Blank Space-bg.png;
#LYRICSPATH:;
#CDTITLE:;
#MUSIC:Blank Space.mp3;
#OFFSET:-0.310000;
#SAMPLESTART:5.000000;
#SAMPLELENGTH:12.000000;
#SELECTABLE:YES;
#DISPLAYBPM:96.000000;
#BPMS:0.000000=96.000000
;
#STOPS:
;
#BGCHANGES:;
#KEYSOUNDS:;
#ATTACKS:;

//---------------dance-single - ----------------
#NOTES:
     dance-single:
     :
     Easy:
     2:
     0.172455,0.177595,0.104468,0.058038,0.000000,90.000000,9.000000,5.000000,0.000000,0.000000,0.000000,0.172455,0.177595,0.104468,0.058038,0.000000,90.000000,9.000000,5.000000,0.000000,0.000000,0.000000:
0000
0000
0000
0000
,
0000
0000
0000
0000
,
1000
0000
0001
0000
,
1000
0000
0000
0000
,
0100
0000
0010
0000
,
0100
0000
0000
0000
,
1000
0010
0000
0110
,
0001
0100
0000
1001
,
0100
0010
1000
0001
,
0020
0000
0030
0000
,
0001
0010
0100
1000
,
1000
0000
0000
0000
,
1000
1000
0100
0010
,
0001
0000
0000
0000
,
1000
0010
1000
0001
,
0100
0010
0100
0001
,
1000
0001
1000
0001
,
0200
0000
0000
0300
,
1001
0100
0010
0000
,
0001
0100
0010
1000
,
0000
0001
0010
0001
,
0000
1000
0010
1000
,
0100
0010
0001
0010
,
0000
1000
0100
0010
,
0000
0001
0010
0100
,
0000
1001
1001
1001
,
0110
0010
0200
0000
,
0300
1000
0001
0020
,
0030
0100
0010
0100
,
0000
0001
0100
0020
,
0030
0100
0010
1000
,
0000
1000
0100
1000
,
0000
0001
0010
0001
,
1000
0000
0000
0110
,
1001
0000
0000
0000
;

//---------------dance-single - ----------------
#NOTES:
     dance-single:
     :
     Medium:
     5:
     0.308429,0.295629,0.011608,0.116075,0.023215,175.000000,1.000000,10.000000,0.000000,0.000000,0.000000,0.308429,0.295629,0.011608,0.116075,0.023215,175.000000,1.000000,10.000000,0.000000,0.000000,0.000000:
0000
0000
0000
0000
,
0000
0000
0000
0000
,
1000
0100
0010
0001
,
2000
3001
0010
0100
,
1000
0001
0010
0001
,
2000
3010
0100
0010
,
1000
0100
1000
0000
0001
0010
0001
0000
,
1000
0010
1000
0000
0001
0100
0001
0000
,
1000
0001
1000
0000
0100
0010
0200
0000
,
2000
0000
0000
3300
0000
0000
0000
0000
,
0001
0100
1000
0100
,
0001
1000
0001
0001
,
1000
0010
0001
0010
,
1000
0001
1000
0001
,
1000
0100
0010
0000
0001
0010
0100
0000
,
1000
0100
1000
0000
0001
0010
0001
0000
,
1000
0010
1000
0000
0001
0100
0001
0000
,
2000
0100
0010
3001
,
1000
0001
1000
0001
0010
0100
0000
0000
,
0000
0010
1000
0001
0100
0010
0100
0001
,
0000
1000
0010
0100
0001
0010
0000
0000
,
0000
0001
0010
0001
0100
0010
0100
1000
,
0000
0001
0010
0100
0010
0100
1000
0100
,
0000
1000
0100
0010
0001
0010
0100
0000
,
0000
0001
0010
0100
0010
0100
0010
0100
,
1000
0001
0100
0010
1000
0001
0100
0010
,
2001
0100
0100
3010
,
0000
0001
0010
0100
0010
0001
0010
0200
,
0000
0310
0001
0100
0010
2000
0000
3000
,
0000
0001
0001
0010
0010
0100
0100
2000
,
0000
3001
0010
0001
0010
0001
0010
0100
,
0000
0100
0010
0100
1000
0100
0020
0000
,
0030
1000
0100
1000
0001
0010
0100
0010
,
1000
0000
0000
0000
0000
0000
0000
0000
0000
0000
0000
0000
0000
0000
0000
1000
0010
0000
0000
0100
0000
0000
0010
1000
;

//---------------dance-single - ----------------
#NOTES:
     dance-single:
     :
     Hard:
     8:
     0.527313,0.572251,0.824134,0.359833,0.284384,216.000000,71.000000,31.000000,10.000000,0.000000,0.000000,0.527313,0.572251,0.824134,0.359833,0.284384,216.000000,71.000000,31.000000,10.000000,0.000000,0.000000:
// measure 0
0000
0000
0000
0000
,  // measure 1
0000
0000
0000
0000
,  // measure 2
0000
0000
0000
0001
0010
0000
0100
0010
0000
0100
1000
0000
,  // measure 3
0001
0000
0000
0000
1000
0001
0000
0010
0000
0100
0000
1000
0010
0100
0001
0000
,  // measure 4
1000
0000
0000
1000
0100
0000
0100
0010
0000
0010
0001
0000
,  // measure 5
1000
0000
0000
0000
0000
0000
0010
0000
0001
0000
0000
0010
0000
0000
0000
0100
0000
0010
0000
0100
0000
0000
0000
0000
,  // measure 6
1000
0000
0100
0000
1000
0000
0000
0000
1000
0001
0010
0000
0100
0000
0000
0000
,  // measure 7
1000
0000
0010
0000
0100
0000
0000
0001
0010
0000
0100
0000
1000
0000
0000
0000
,  // measure 8
2000
0000
0000
3200
0000
0000
0320
0000
0000
0030
0000
0000
0000
0001
0010
0000
0000
2002
0000
0000
0000
3003
0000
0000
,  // measure 9
0220
0000
0000
0000
0000
0000
0000
0000
0000
0000
0000
0000
0330
0000
0000
2000
0000
0000
0000
3000
0000
0000
0000
0000
,  // measure 10
0000
0000
0000
1001
0000
0000
1000
0001
0000
0001
1000
0000
,  // measure 11
0002
0000
0003
0000
0000
0000
1000
0100
0000
0000
0000
0010
0000
0000
0100
0000
1000
0000
0001
0000
0000
0100
0000
0000
,  // measure 12
0010
0000
0000
0010
0100
0000
0100
0010
0000
0010
0100
0000
,  // measure 13
1001
0000
0000
0000
0000
0000
1000
0000
0010
0000
0000
0001
0000
0000
0010
0000
0000
0100
0000
0010
0000
0100
0000
0000
,  // measure 14
1100
0000
0110
0000
0011
0000
0000
0000
0011
0000
0110
0000
1100
0000
0000
0001
,  // measure 15
1100
0000
1010
0000
1001
0000
0000
1000
0011
0000
0101
0000
1001
0000
0000
0000
,  // measure 16
1100
0011
1100
0000
0011
1100
0011
0000
,  // measure 17
0001
0000
0010
0000
0100
0000
0010
0001
1000
0000
0010
0000
0100
0000
0001
0000
,  // measure 18
0000
0000
1000
0000
0100
0000
1000
0001
0110
0000
1001
0000
0000
0000
0000
0000
,  // measure 19
0000
0000
1000
0001
1000
0001
0100
0000
1001
0000
0110
0000
0110
0000
2002
0000
,  // measure 20
3003
0000
1000
0100
1000
0100
0010
0000
0011
0000
0202
0000
0303
0000
2200
0000
,  // measure 21
3300
0110
0011
0110
1100
0110
0011
1001
,  // measure 22
0000
1000
0010
0100
0001
0010
0100
1000
,  // measure 23
0000
0001
0100
1000
1001
0110
0202
0000
,  // measure 24
0303
1000
0010
0001
0010
1000
0001
1000
,  // measure 25
0000
M11M
1MM1
0000
M11M
0000
1MM1
M22M
,  // measure 26
0330
0000
1000
0000
0001
0000
1000
0001
1100
0000
2020
0000
0000
0000
3030
0000
,  // measure 27
0000
1100
1010
1100
0011
0110
0110
0022
,  // measure 28
0033
0000
1000
0100
1000
0000
0010
0000
0101
0000
0022
0000
0033
0000
2020
0000
,  // measure 29
3030
1100
0110
1100
0011
0101
0101
0011
,  // measure 30
0000
0000
0001
0010
0100
0000
1000
0000
0010
0000
0100
0000
0001
0000
0010
0000
,  // measure 31
0000
1001
1100
1010
0011
0110
2200
3300
,  // measure 32
0000
0000
0000
0001
0010
0000
0001
0000
0010
0000
0000
0100
0000
0000
2000
0000
,  // measure 33
0000
0000
0000
0000
0000
0000
0200
0000
0000
0000
0000
0000
0000
0000
0000
0000
0000
0000
3300
0000
0000
0000
0000
0000
0000
0000
0000
0001
0000
0000
1000
0000
0000
0000
0000
0000
0010
0000
0000
0000
0000
0000
0000
0000
0100
0000
0000
0000
,  // measure 34
0010
0000
0000
0000
;
