#TITLE:Beat It (Mutrix Remix);
#SUBTITLE:;
#ARTIST:Michael Jackson;
#TITLETRANSLIT:;
#SUBTITLETRANSLIT:;
#ARTISTTRANSLIT:;
#GENRE:;
#CREDIT:;
#BANNER:;
#BACKGROUND:Beat It-bg.png;
#LYRICSPATH:;
#CDTITLE:;
#MUSIC:Beat It.mp3;
#OFFSET:-0.032000;
#SAMPLESTART:20;
#SAMPLELENGTH:12.000000;
#SELECTABLE:YES;
#DISPLAYBPM:140;
#BPMS:0.000000=140.000000
;
#STOPS:
;
#BGCHANGES:;
#KEYSOUNDS:;
#ATTACKS:;

//---------------dance-single - ----------------
#NOTES:
     dance-single:
     :
     Easy:
     3:
     0.275023,0.259897,0.221686,0.011668,0.000000,145.000000,19.000000,1.000000,0.000000,0.000000,0.000000,0.275023,0.259897,0.221686,0.011668,0.000000,145.000000,19.000000,1.000000,0.000000,0.000000,0.000000:
0000
0000
0000
0000
,
0000
0000
0000
0000
,
0001
0000
0010
0000
,
0100
0000
1000
0000
,
0100
1000
0100
0000
,
0001
0010
0001
0000
,
1000
0010
0100
0010
,
1000
0001
0000
0000
,
0001
0100
0010
0100
,
0010
1000
0100
1000
,
0001
0000
0000
0000
,
1001
0000
0000
0000
,
1000
0000
0110
0000
,
0001
0000
0110
0000
,
1000
0000
0101
0000
,
0001
0000
1010
0000
,
0010
0100
0010
0000
,
0001
1000
0001
0000
,
1010
0000
0100
0000
,
0001
0000
0101
0000
,
1000
0100
0010
0001
,
0001
0010
0100
1000
,
1000
0100
0010
0001
,
1000
0000
0000
0000
,
1001
0100
0000
0100
,
1000
0100
0010
0100
,
0000
0001
0010
0100
,
0001
0010
1000
0100
,
0000
0010
1000
0100
,
0010
1000
0001
0100
,
1000
1000
0100
0100
,
0010
0010
0001
0000
,
1001
0100
0001
0100
,
1000
0000
0110
0000
,
1001
0010
0001
0010
,
1000
0000
0110
0000
,
0011
1000
0001
1000
,
0011
0000
0110
0000
,
0001
0010
0001
0100
,
0010
1000
0010
0001
,
0110
1000
0001
1000
,
0001
0000
0110
0000
,
1001
0010
0100
0010
,
0002
0000
0000
0003
,
0010
0100
0010
1000
,
0100
1000
0001
0010
,
0100
0010
0001
0010
,
0001
0010
0100
1000
,
0100
1000
0100
0010
,
0001
0010
1001
0000
;

//---------------dance-single - ----------------
#NOTES:
     dance-single:
     :
     Medium:
     5:
     0.365031,0.404284,0.315027,0.140012,0.087507,180.000000,27.000000,12.000000,0.000000,0.000000,0.000000,0.365031,0.404284,0.315027,0.140012,0.087507,180.000000,27.000000,12.000000,0.000000,0.000000,0.000000:
0000
0000
0000
0000
,
0000
0000
0000
0000
,
0001
1000
0100
0010
,
0001
0100
0001
1000
,
0001
0100
0010
1000
,
0001
0100
0001
0001
,
1000
0100
1000
0001
,
0010
0001
0001
0000
,
1000
0100
2000
3001
,
1000
0010
1000
0110
,
1001
0110
0000
0000
0000
0000
1001
0000
,
0110
1001
0000
0000
0000
0000
0000
0000
,
0001
0000
0000
0000
1100
0000
0000
0100
,
1000
0000
0011
0000
,
0001
0000
0000
0000
1010
0000
0000
1000
,
0001
0000
0000
0000
0101
0000
0000
1000
,
0001
0100
0010
0000
1000
0000
0001
0010
,
0001
0010
0100
0000
1000
0000
0001
0000
,
0100
0010
0000
0000
1001
0000
0100
0010
,
0001
0010
0100
0000
2000
0000
0000
0000
,
0001
0010
0001
0100
,
0010
0100
3001
0010
,
0100
0010
0100
0010
0100
0010
0001
1000
,
0001
1000
0001
1000
0000
0000
0000
0000
,
1100
0000
0011
0000
0000
1000
0100
0010
,
0000
0000
0101
1010
,
0000
0000
0011
0000
0001
0010
0001
0000
,
1100
0110
0011
0110
,
0000
0000
1100
0000
1000
0100
1000
0000
,
0000
0000
0000
0000
0002
0000
0000
0003
,
1000
1000
0010
0100
,
0001
0100
1001
0000
,
1000
0000
0110
0000
,
0000
0000
0000
0000
0000
0001
0000
0000
0000
0000
0000
0010
0000
0000
0000
0000
0000
0001
0000
0000
0000
0000
0000
0010
0000
0000
0000
0000
0000
0001
0000
0000
,
0000
0000
0110
0000
,
0000
0000
0000
0000
0000
1000
0000
0000
0000
0000
0000
0100
0000
0000
0000
0000
0000
1000
0000
0000
0000
0000
0000
0100
0000
0000
0000
0000
0000
1000
0000
0000
,
0000
0000
0110
0000
,
0000
0001
0000
0000
0000
0000
0010
0000
0000
0000
0000
0000
0100
0000
0000
0000
0000
0000
1000
0000
0000
0000
0000
0100
0000
0000
0000
0000
0000
2000
0000
0000
,
0000
0000
0000
0000
0000
0000
0000
3000
,
0002
0000
0000
0003
,
1000
0001
1000
0001
0100
0010
0100
0010
,
1000
0000
0110
0000
,
0001
0100
0001
0100
0010
1000
0010
1000
,
0002
0000
0000
0000
0013
0001
2000
3000
,
0001
1000
0001
1000
0010
0100
0010
0100
,
0001
1000
0001
0000
2000
0000
0000
3000
,
0002
0000
2000
0003
,
0020
0000
3000
0000
0200
0000
0030
0300
,
0001
1000
0100
0010
,
0001
0010
1001
0000
;

//---------------dance-single - ----------------
#NOTES:
     dance-single:
     :
     Hard:
     7:
     0.535046,0.548672,0.525045,0.291691,0.134178,251.000000,45.000000,25.000000,0.000000,0.000000,0.000000,0.535046,0.548672,0.525045,0.291691,0.134178,251.000000,45.000000,25.000000,0.000000,0.000000,0.000000:
// measure 0
0000
0000
0000
0000
,  // measure 1
0000
0000
0000
0000
,  // measure 2
1000
0100
0010
0100
,  // measure 3
0001
0100
0010
0100
,  // measure 4
0000
0100
1000
0100
0010
0001
0010
0100
,  // measure 5
0010
0100
1000
0000
0100
0000
0000
0001
,  // measure 6
0010
0100
0010
0100
1000
0001
0100
0010
,  // measure 7
0100
0010
1000
0000
0000
0000
0000
0001
,  // measure 8
0100
0010
1000
0001
0100
0000
0010
0100
,  // measure 9
0001
1000
0100
0010
0001
0000
0100
0000
,  // measure 10
0001
1000
0000
0000
0000
0000
0010
0000
,  // measure 11
1000
0001
0000
0000
0000
0000
0000
0000
,  // measure 12
1000
0000
0000
0000
0011
0000
0000
1000
,  // measure 13
0100
1000
0101
0000
,  // measure 14
0001
0000
0000
0000
1100
0000
0000
0010
,  // measure 15
0100
0000
0010
0000
0011
0000
0000
1000
,  // measure 16
0100
1000
0010
0000
0001
0000
0100
0010
,  // measure 17
0100
1000
0001
0000
0100
0000
0010
0000
,  // measure 18
1100
0011
0000
0000
0110
0000
1000
0010
,  // measure 19
0001
0010
1000
0000
0200
0000
0000
0300
,  // measure 20
2000
0000
0200
3000
0020
0300
0002
0030
,  // measure 21
0020
0003
0200
0030
2000
0300
0200
3300
,  // measure 22
1000
0010
1000
0010
0100
0001
0100
0001
,  // measure 23
1000
0001
1000
0001
1000
0001
1000
0001
1000
0000
0000
0000
0000
0000
0000
0000
,  // measure 24
0011
0000
1100
0000
0001
0010
0001
0020
,  // measure 25
0030
0200
0300
0010
0020
0030
2000
3000
,  // measure 26
0110
1001
0020
0030
1000
0010
0100
0010
,  // measure 27
0002
0003
0020
0030
0100
0010
0002
0003
,  // measure 28
1010
0101
2000
3000
0110
0000
0000
0000
,  // measure 29
1000
0000
0000
0000
0000
0001
0000
1000
0000
0001
0000
1000
0001
0000
0000
0000
2000
0000
0000
0000
0000
0000
0000
0000
3000
0000
0000
0000
0000
0000
0000
0000
,  // measure 30
0001
0010
0100
0010
0001
1000
0100
0010
,  // measure 31
0100
1000
0100
0001
1000
0011
0000
1100
,  // measure 32
0001
0000
0110
0000
,  // measure 33
1001
0000
0000
0000
0000
1100
0000
0000
0000
0000
0000
0110
0000
0000
0000
0000
0000
0011
0000
0000
0000
0000
0000
0110
0000
0000
0000
0000
0000
1100
0000
0000
,  // measure 34
0001
0000
0011
0000
,  // measure 35
1100
0000
0000
0000
0000
0011
0000
0000
0000
0000
0000
0110
0000
0000
0000
0000
0000
1100
0000
0000
0000
0110
0000
0000
0000
0000
0000
0000
0000
0011
0000
0000
,  // measure 36
1000
0000
0110
0000
,  // measure 37
1001
0000
0000
0000
0000
0011
0000
0000
0000
0000
0110
0000
0000
0000
0000
1010
0000
0000
0000
0000
0000
0110
0000
0000
0000
0000
0000
1100
0000
0000
0000
0000
,  // measure 38
0001
0010
0100
0000
0010
1000
0000
0100
,  // measure 39
0000
0010
1000
0000
0010
0000
0001
0000
,  // measure 40
0110
1001
1000
0100
1000
1000
0010
1000
,  // measure 41
0000
0010
0100
0010
0000
0010
0001
0010
,  // measure 42
0001
0001
1000
0001
0001
1000
0100
0010
,  // measure 43
0200
0000
0000
0300
1010
0001
2000
0000
,  // measure 44
3010
0100
1000
0100
0001
1000
0001
1000
,  // measure 45
1000
0010
2002
3003
0220
0330
0000
1000
,  // measure 46
0000
1000
0010
0000
1000
0001
0000
0100
,  // measure 47
0000
0001
0001
0000
0010
0000
0100
0000
,  // measure 48
0101
1010
0001
1000
0010
1000
0100
1000
,  // measure 49
0001
1000
0001
0100
1001
0000
0000
0000
;

//---------------dance-single - ----------------
#NOTES:
     dance-single:
     :
     Beginner:
     2:
     0.146679,0.231020,0.093341,0.140012,0.000000,68.000000,8.000000,12.000000,0.000000,0.000000,0.000000,0.146679,0.231020,0.093341,0.140012,0.000000,68.000000,8.000000,12.000000,0.000000,0.000000,0.000000:
0000
0000
0000
0000
,
0000
0000
0000
0000
,
0000
0000
0000
0000
,
0000
0000
0000
0000
,
1000
0000
0010
0000
,
0100
0000
0000
0000
,
0001
0000
0010
0000
,
0100
0000
0000
0000
,
1000
0000
0100
0000
,
0010
0000
0000
0000
,
0110
0000
0000
0000
,
1001
0000
0000
0000
,
1000
0000
0001
0000
,
1000
0000
0001
0000
,
0100
0000
0010
0000
,
0100
0000
0000
0000
,
1000
0000
0100
0000
,
1000
0000
0000
0000
,
0100
0000
1000
0000
,
0001
0000
0100
0000
,
0010
0000
0000
0000
,
0010
0000
0000
0000
,
0010
0000
0010
0000
,
0010
0000
0010
0000
,
1001
0000
0100
0000
,
0100
0000
0010
0000
,
1001
0000
0010
0000
,
0010
0000
0100
0000
,
1001
0000
0100
0000
,
0010
0000
0010
0000
,
1000
0000
0000
0000
,
0001
0000
0000
0000
,
2000
0000
0000
3000
,
0002
0000
0000
0003
,
0200
0000
0000
0300
,
0020
0000
0000
0030
,
2000
0000
0000
3000
,
0020
0000
0000
0030
,
2002
0000
0000
3003
,
0220
0000
0000
0330
,
0001
0000
1000
0000
,
0001
0000
0000
0000
,
1000
0000
0001
0000
,
1000
0000
0000
0000
,
0010
0000
0100
0000
,
0010
0000
0000
0000
,
0200
0000
0000
0300
,
0020
0000
0000
0030
,
1000
0000
0001
0000
,
1000
0000
0110
0000
;
