#TITLE:Bang Bang (Ruxed Remix);
#SUBTITLE:;
#ARTIST:Ariana Grande;
#TITLETRANSLIT:;
#SUBTITLETRANSLIT:;
#ARTISTTRANSLIT:;
#GENRE:;
#CREDIT:;
#BANNER:;
#BACKGROUND:Bang Bang (Ruxed Remix)-bg.png;
#LYRICSPATH:;
#CDTITLE:;
#MUSIC:Bang Bang (Ruxed Remix).mp3;
#OFFSET:-0.070000;
#SAMPLESTART:12.000000;
#SAMPLELENGTH:12.000000;
#SELECTABLE:YES;
#DISPLAYBPM:150.000000;
#BPMS:0.000000=150.000000
;
#STOPS:
;
#BGCHANGES:;
#KEYSOUNDS:;
#ATTACKS:;

//---------------dance-single - ----------------
#NOTES:
     dance-single:
     :
     Medium:
     6:
     0.378212,0.441247,0.374392,0.200567,0.000000,155.000000,28.000000,15.000000,0.000000,0.000000,0.000000,0.378212,0.441247,0.374392,0.200567,0.000000,155.000000,28.000000,15.000000,0.000000,0.000000,0.000000:
0000
0000
0000
0000
,
0000
0000
0000
0000
,
0000
0000
0000
0000
,
0000
0000
0000
0000
,
2000
0000
0000
0000
,
0020
0000
0000
3000
,
0200
0000
0000
0030
,
0002
0000
0000
0303
,
2200
0000
0000
3300
,
0022
0000
0000
0033
,
2020
0000
0000
3030
,
0202
0000
0000
0303
,
1000
0100
0010
0100
,
1000
0001
0010
0000
,
0010
0001
0100
0010
,
1000
0000
0000
0000
,
0001
0010
0100
1000
,
1000
0100
0010
0001
,
0001
1000
0001
1000
0010
0100
0010
0100
,
2002
0000
0000
3003
,
2000
0000
0000
0010
0010
0000
0100
0000
,
0000
0010
3010
0000
0000
0000
0000
0000
,
1001
0000
0110
0000
1000
0100
1000
0100
,
1000
0100
1000
0100
0000
0000
0110
0000
,
1001
0010
0001
0010
0001
0010
0001
0100
,
0010
0100
0010
0100
0000
0000
0000
0000
,
0011
0000
1100
0000
0001
0100
0001
0100
,
0001
0100
0001
0100
0000
0000
1010
0000
,
0001
1000
0001
1000
0001
1000
0001
0100
,
0010
0100
0010
0100
0000
0000
0000
0000
,
1010
0000
1001
0000
0001
0100
0001
0100
,
0001
0100
0001
0100
0001
0000
0011
0000
,
0100
0010
0100
0010
0100
0010
1000
0001
,
1000
0001
1000
0001
0000
0000
0101
0000
,
0011
0000
0000
0000
0001
0100
0001
0100
,
0001
0100
0001
0100
0000
0000
0110
0000
,
1000
0010
1000
0010
1000
0010
0100
0001
,
0100
0001
0100
0001
0000
0000
0000
0000
,
0110
0000
0000
0001
0010
0100
0000
0000
,
1100
0000
0000
0010
0100
0001
0010
0100
,
1000
0000
0011
0000
,
0110
0000
1010
0000
,
1001
0000
0101
0000
,
0011
0000
1100
0000
,
0110
0000
0000
0000
;

//---------------dance-single - ----------------
#NOTES:
     dance-single:
     :
     Easy:
     4:
     0.288434,0.323581,0.427876,0.106969,0.000000,111.000000,32.000000,8.000000,0.000000,0.000000,0.000000,0.288434,0.323581,0.427876,0.106969,0.000000,111.000000,32.000000,8.000000,0.000000,0.000000,0.000000:
0000
0000
0000
0000
,
0000
0000
0000
0000
,
0000
0000
0000
0000
,
0000
0000
0000
0000
,
2000
0000
0000
0000
,
3002
0000
0000
0000
,
0203
0000
0000
0000
,
0320
0000
0000
0000
,
2030
0000
0000
0000
,
3200
0000
0000
0000
,
0320
0000
0000
0000
,
0032
0000
0000
0000
,
1003
0000
0011
0000
,
1000
0000
0101
0000
,
1000
0000
0110
0000
,
1000
0000
0011
0000
,
0001
0001
0010
0100
,
1000
1000
0100
0010
,
0001
1000
0001
1000
,
0010
0100
0010
0000
,
0110
0000
0000
0001
0001
0000
1000
0000
,
0000
0010
0010
0000
0000
0000
0000
0000
,
0110
1001
0100
0010
,
0100
0010
0100
0110
,
1001
0010
0001
0010
,
0100
1000
0100
1010
,
0101
1000
0100
1000
,
0100
0010
0001
0110
,
0101
1000
0001
1000
,
0001
0100
0001
0000
,
1001
1100
0010
1000
,
0010
1000
0010
0110
,
1001
0100
0001
0100
,
0001
0100
0010
0000
,
0110
1100
0100
1000
,
0100
1000
0001
0100
,
0001
0100
0001
0100
,
0010
0100
0010
0000
,
1001
0000
0110
0000
,
1001
0000
0101
0000
,
1001
0000
1010
0000
,
1001
0000
1100
0000
,
1001
0000
0011
0000
,
1001
0000
0110
0000
,
1001
0000
0000
0000
;

//---------------dance-single - ----------------
#NOTES:
     dance-single:
     :
     Beginner:
     1:
     0.091688,0.088249,0.013371,0.000000,0.000000,47.000000,1.000000,0.000000,0.000000,0.000000,0.000000,0.091688,0.088249,0.013371,0.000000,0.000000,47.000000,1.000000,0.000000,0.000000,0.000000,0.000000:
0000
0000
0000
0000
,
0000
0000
0000
0000
,
0000
0000
0000
0000
,
0000
0000
0000
0000
,
1000
0000
0000
0000
,
0001
0000
0000
0000
,
1000
0000
0000
0000
,
0001
0000
0000
0000
,
0100
0000
0000
0000
,
0010
0000
0000
0000
,
0100
0000
0000
0000
,
0010
0000
0000
0000
,
1000
0000
0000
0000
,
0001
0000
0000
0000
,
0001
0000
0000
0000
,
1000
0000
0000
0000
,
1000
0000
0000
0000
,
0010
0000
0000
0000
,
0001
0000
0000
0000
,
0000
0000
0000
0000
,
1000
0000
0100
0000
,
1000
0000
0000
0000
,
0001
0000
0000
0000
,
0001
0000
0000
0000
,
1000
0000
0000
0000
,
1000
0000
0000
0000
,
0010
0000
0000
0000
,
0010
0000
0000
0000
,
0100
0000
0000
0000
,
0100
0000
0000
0000
,
1000
0000
1000
0000
,
1000
0000
0000
0000
,
0001
0000
0001
0000
,
0001
0000
0000
0000
,
0100
0000
0100
0000
,
0100
0000
0000
0000
,
0010
0000
0010
0000
,
0010
0000
0000
0000
,
1000
0000
0001
0000
,
1000
0000
0000
0000
,
0001
0000
1000
0000
,
0001
0000
0000
0000
,
0100
0000
0000
0000
,
0100
0000
0000
0000
,
1001
0000
0000
0000
;

//---------------dance-single - ----------------
#NOTES:
     dance-single:
     :
     Hard:
     8:
     0.546306,0.676579,0.708670,0.173825,0.040113,220.000000,53.000000,13.000000,0.000000,0.000000,0.000000,0.546306,0.676579,0.708670,0.173825,0.040113,220.000000,53.000000,13.000000,0.000000,0.000000,0.000000:
// measure 0
0000
0000
0000
0000
,  // measure 1
0000
0000
0000
0000
,  // measure 2
0000
0000
0000
0000
,  // measure 3
0000
0000
0000
0000
,  // measure 4
2001
0001
0010
3100
,  // measure 5
1002
1000
0100
0013
,  // measure 6
1200
0010
1000
0310
,  // measure 7
0021
0100
0001
0130
,  // measure 8
1000
0001
1000
0001
0100
0010
0001
0010
,  // measure 9
0200
0300
0010
0100
0000
0010
1000
0001
,  // measure 10
1000
1000
0001
0010
0100
0010
2002
0000
,  // measure 11
3003
0000
0100
0010
0000
0000
0000
0000
,  // measure 12
1010
0000
0011
0000
,  // measure 13
0110
0000
1100
0000
,  // measure 14
1001
0000
0101
0000
,  // measure 15
0110
0000
1010
0000
,  // measure 16
1100
0110
1100
0110
,  // measure 17
0011
0110
0011
0110
,  // measure 18
1001
0100
0010
0100
1000
0100
0010
0001
,  // measure 19
1000
0001
1000
0001
1000
0001
1000
0000
0100
0010
0100
0010
0100
0010
0100
0000
,  // measure 20
1000
0000
0000
0011
0110
0000
1010
0000
,  // measure 21
0000
0110
1001
0000
0110
0000
0000
0000
,  // measure 22
1100
0000
0011
0000
1000
0001
0100
0010
,  // measure 23
1000
0100
0010
0100
0010
0000
0011
0000
,  // measure 24
0110
0001
0010
0100
1000
0100
0010
0001
,  // measure 25
1000
0001
1000
0001
0110
0000
0000
0000
,  // measure 26
1001
0000
0110
0000
0001
0010
0100
0010
,  // measure 27
0001
1000
0100
0010
0101
0000
1001
0000
,  // measure 28
0110
1000
0100
0001
0100
1000
0010
0100
,  // measure 29
0001
1000
0001
0100
1001
0000
0000
0000
,  // measure 30
1010
0000
0101
0000
1000
0100
1000
0010
,  // measure 31
1000
0100
1000
0010
1000
0000
0110
0000
,  // measure 32
0001
1000
0001
0100
0001
0010
0001
0100
,  // measure 33
0001
1000
0001
0100
1010
0000
0011
0000
,  // measure 34
1100
0000
0101
0000
0001
0010
0100
1000
,  // measure 35
0100
0010
0001
1000
0110
0000
1001
0000
,  // measure 36
0100
0010
0100
0010
1000
0001
1000
0001
,  // measure 37
0010
0100
1000
0001
0110
0000
0000
0000
,  // measure 38
1001
0000
0000
0001
0010
0100
0000
0000
,  // measure 39
1100
0000
0000
0010
0100
0001
0010
0100
,  // measure 40
1001
0100
0010
0100
0002
0003
0010
0002
,  // measure 41
0003
0200
0300
0010
0010
1000
0002
0000
,  // measure 42
0003
0000
0020
1000
1030
0000
0002
0100
,  // measure 43
0103
0000
0010
1000
0001
0010
0100
0010
,  // measure 44
1001
0000
0000
0000
;
