#TITLE:Bailar (feat. Elvis Crespo);
#SUBTITLE:;
#ARTIST:Deorro;
#CREDIT:YYZStepper;
#MUSIC:Bailar.ogg;
#SELECTABLE:YES;
#BACKGROUND:Bailar-BG.png;
#BANNER:Bailar-BN.png;
#CDTITLE:;
#OFFSET:-0.58483;
#SAMPLESTART:0.000;
#SAMPLELENGTH:0.000;
#BPMS:0=127.999,7=128.005,8=127.999,15=128.005,16=127.999,23=128.005,24=127.999,31=128.005,32=127.999,39=128.005,40=127.999,47=128.005,48=127.999,55=128.005,56=127.999,63=128.005,64=127.999,71=128.005,72=127.999,79=128.005,80=127.999,87=128.005,88=127.999,95=128.005,96=127.999;
#STOPS:;

//---------------dance-single - ----------------
#NOTES:
     dance-single:
     :
     Hard:
     8:
     0.000,0.000,0.000,0.000,0.000:
0000
0000
0000
0000
,
0000
0000
0000
0000
,
0000
0000
0000
0000
,
0000
0000
0000
0000
,
0000
0000
0000
0000
,
0000
0000
0000
0000
,
0000
0000
0000
0000
0000
0000
0000
0000
0000
0000
0000
1000
,
0000
0000
0000
0000
0000
0000
0000
0000
0000
0000
0000
0001
0000
0000
0000
0000
0000
0000
0000
0000
0000
0000
0000
0000
0000
0000
1000
0000
0000
0000
0000
0000
0000
0000
0000
0000
0000
0000
0000
0000
0000
0000
0000
0000
0000
0000
0000
0000
,
0000
0000
0000
0000
0000
0001
0000
0000
0000
0000
0000
0000
0000
0000
0000
0000
0000
0000
0000
0000
1000
0000
0000
0000
0000
0000
0000
0000
0000
0000
0000
0000
0000
0000
0000
0001
0000
0000
0000
0000
0000
0000
0000
0000
0000
0000
0000
0000
,
0000
0000
0000
0000
0000
0000
0000
0000
0000
0000
0000
0000
0000
0000
1000
0000
0000
0000
0000
0000
0000
0000
0000
0000
0000
0000
0001
0000
0000
0000
0000
0000
0000
0000
0000
0000
0000
0000
0000
1000
0000
0000
0000
0000
0000
0000
0000
0000
,
0000
0000
0000
0000
0000
1001
1000
0002
,
2000
3003
0001
0001
0100
0100
0010
0010
,
1000
1000
0010
0010
0100
0100
0001
0001
,
0100
0001
0100
0000
0001
0010
0001
0000
1000
0010
1000
0000
0100
1000
0100
0000
,
0010
0100
0010
0000
2002
0000
0000
0000
0000
3003
0000
0000
0000
0000
0000
0000
,
0000
0000
0000
0000
1000
0010
0100
0001
0000
0000
0100
0000
0101
0000
0001
0000
,
0101
0000
1000
0000
0001
0100
0010
1000
0000
1000
0000
0000
1010
0000
1000
0000
,
1010
0000
0010
0000
1000
0100
0010
0001
0000
0000
0010
0000
0011
0000
0001
0000
,
0011
0000
1000
0000
0001
0010
0100
1000
0000
1000
0000
0000
1100
0000
1000
0000
,
1100
0000
0200
0300
0010
0001
1000
0100
0000
0000
1000
0000
1001
0000
0001
0000
,
1001
0000
1000
0000
0100
0010
0001
1000
0000
1000
0000
0000
1001
0000
0010
0100
,
0010
0100
0010
0000
0200
0000
0001
0000
0301
0000
0100
0000
0100
0000
0000
0001
,
1000
0000
0100
0010
0001
0100
0010
1000
0000
0000
2000
0000
0002
0000
0000
3003
,
0000
0000
0001
0000
0001
0000
1000
1000
,
0001
1000
0001
1000
0001
0100
0010
1000
0000
1000
0000
0000
1010
0000
0010
0000
,
1010
0000
1000
0000
1000
0010
0100
0001
0000
0001
0000
0000
0101
0000
0100
0000
,
0101
0000
0001
0000
0001
0010
0100
1000
0000
1000
0000
0000
1100
0000
0100
0000
,
1100
0000
1000
0000
1000
0100
0010
0001
0000
0000
0001
0000
1001
0000
1000
0000
,
1000
0001
1000
0001
1000
0010
0100
0001
0000
0001
0000
0000
0110
0000
0100
0000
,
0110
0000
0010
0000
0100
0001
1000
0010
0000
0010
0000
0000
1001
0000
1000
0000
,
1001
0000
0001
0000
1000
0100
0010
0001
0000
0000
0002
0000
0023
0000
0230
0000
,
2300
3000
0000
0000
0010
0010
0100
0100
,
0010
0000
0010
0000
0200
0000
0000
0310
0000
0000
2000
0000
0002
0000
3000
0000
,
2003
3001
1001
0000
0000
0002
2000
0003
,
3002
1003
1001
0000
0100
0200
0000
0310
,
0020
0000
0030
0000
0000
2000
0002
3000
,
2003
0000
3001
0000
1001
0000
1000
0000
0100
0000
0010
0000
0001
0000
0000
2000
,
0000
3002
0000
0000
0000
0000
0003
0000
0000
0000
0002
0000
2000
0000
0003
0000
,
3002
1003
1001
0000
0010
0010
0110
0100
,
0200
0000
0000
0000
0000
0300
0000
0000
0000
0000
2000
0000
0002
0000
3000
0000
,
2003
0000
0000
0000
0000
0000
3001
0000
0000
0000
0000
0000
1001
0000
0000
0000
0000
0000
0000
0002
0000
0000
0000
0000
0003
0000
0000
0020
0000
0000
0000
0000
0000
0000
0000
0000
0230
0000
0000
0300
0000
0000
0000
0200
0000
0000
0000
0000
,
0000
0300
0000
0000
2000
0000
0000
0000
0000
0000
0000
0000
0000
3000
0000
0000
0000
0000
0000
0000
0000
0000
0000
0000
0000
0000
0000
0000
0000
0000
0002
0000
0000
0000
0000
0000
2000
0000
0000
0000
0000
0000
0003
0000
0000
0000
0000
0000
,
3002
0000
0000
0000
0000
0000
1003
0000
0000
0000
0000
0000
1001
0000
0000
0000
0000
0000
0000
0000
0000
0000
0000
0000
0000
0000
0000
0000
0000
0000
0000
0000
0000
0000
0000
0000
0000
0000
0000
0000
0000
0000
0000
0100
0000
0000
0000
0000
,
0000
0010
0000
0000
0000
0000
0000
0000
0000
0000
0000
0000
0001
0000
0000
1000
0000
0000
0001
0000
0000
1000
0000
0000
0001
0000
0000
0000
0000
0000
0000
0000
0000
0000
0000
0000
2000
0000
0000
0000
0000
0000
0000
0000
0000
0000
0000
0000
,
3001
0000
0000
0000
0100
0010
0100
0010
0100
0000
0000
0000
0020
0000
0000
0000
,
0130
0000
0000
0000
1000
0001
1000
0001
1000
0000
0000
0000
0002
0000
0000
0000
,
1003
0000
0000
0000
0010
0100
0010
0100
0010
0000
0000
0000
0200
0000
0000
0000
,
0310
0000
0000
0000
0000
1000
0010
0100
0002
0000
0003
0000
0101
0000
1010
0000
,
0101
1010
0102
0000
0020
0033
0011
0000
,
0000
0000
0000
0000
0000
0001
0010
0100
2000
0000
3000
0000
1100
0000
0011
0000
,
1100
0000
0011
0000
2100
0000
0000
0100
0000
0000
0001
0000
0000
0000
0100
0000
,
0000
3100
0000
0100
0000
0100
0000
0100
,
0000
0100
0000
0100
0000
0100
0000
0100
,
1000
0100
1000
0000
0001
0010
0001
0000
1000
0010
1000
0000
0100
0001
0100
0000
,
0010
0100
0010
0000
2002
0000
0000
0000
0000
0000
0000
0000
0000
0000
0000
0000
,
3003
0000
0000
0000
1000
0010
0100
0001
0000
0000
0100
0000
0101
0000
0001
0000
,
0101
0000
1000
0000
0001
0100
0010
1000
0000
1000
0000
0000
1010
0000
1000
0000
,
1010
0000
0010
0000
1000
0100
0010
0001
0000
0000
0010
0000
0011
0000
0001
0000
,
0011
0000
1000
0000
0001
0010
0100
1000
0000
1000
0000
0000
1100
0000
1000
0000
,
1100
0000
0200
0300
0010
0001
1000
0100
0000
0000
1000
0000
1001
0000
0001
0000
,
1001
0000
1000
0000
0100
0010
0001
1000
0000
1000
0000
0000
1001
0000
0010
0100
,
0010
0100
0010
0000
0200
0000
0001
0000
0301
0000
0100
0000
0100
0000
0000
0001
,
1000
0000
0100
0010
0001
0100
0010
1000
0000
0000
2000
0000
0002
0000
0000
3003
,
0000
0000
0001
0000
0001
0000
1000
1000
,
0001
1000
0001
1000
0001
0100
0010
1000
0000
1000
0000
0000
1010
0000
0010
0000
,
1010
0000
1000
0000
1000
0010
0100
0001
0000
0001
0000
0000
0101
0000
0100
0000
,
0101
0000
0001
0000
0001
0010
0100
1000
0000
1000
0000
0000
1100
0000
0100
0000
,
1100
0000
1000
0000
1000
0100
0010
0001
0000
0000
0001
0000
1001
0000
1000
0000
,
1000
0001
1000
0001
1000
0010
0100
0001
0000
0001
0000
0000
0110
0000
0100
0000
,
0110
0000
0010
0000
0100
0001
1000
0010
0000
0010
0000
0000
1001
0000
1000
0000
,
1001
0000
0001
0000
1000
0100
0010
0001
0000
0000
0002
0000
0023
0000
0230
0000
,
2300
3000
0000
0000
0000
0000
0000
0000
,
0000
0000
0000
0000
,
0000
0000
0000
0000
;
