#TITLE:Bad Maniacs;
#SUBTITLE:;
#ARTIST:Kors K as Teranoid;
#TITLETRANSLIT:;
#SUBTITLETRANSLIT:;
#ARTISTTRANSLIT:;
#GENRE:;
#CREDIT:;
#BANNER:;
#BACKGROUND:;
#LYRICSPATH:;
#CDTITLE:;
#MUSIC:【REFLEC BEAT】Bad Maniacs kors k as teranoido.mp3;
#OFFSET:0.000000;
#SAMPLESTART:100.040001;
#SAMPLELENGTH:12.000000;
#SELECTABLE:YES;
#BPMS:0.000000=180.000000
,203.000000=70.000000
,209.000000=180.000000
,214.000000=70.000000
,215.000000=180.000000
,219.000000=70.000000
,221.000000=180.000000
,246.000000=225.000000
,250.000000=180.000000
;
#STOPS:250.000000=0.500000,
310.000000=2.000000
;
#BGCHANGES:;
#KEYSOUNDS:;
#ATTACKS:;

//---------------dance-single - ----------------
#NOTES:
     dance-single:
     :
     Beginner:
     5:
     0.350012,0.383894,0.089538,0.244194,0.000000,260.000000,11.000000,30.000000,0.000000,0.000000,0.000000,0.350012,0.383894,0.089538,0.244194,0.000000,260.000000,11.000000,30.000000,0.000000,0.000000,0.000000:
0000
0000
0000
0000
,
0000
0000
0000
0000
,
0000
1001
0010
0000
,
1000
0000
0002
0003
,
2000
3000
0010
0000
,
0001
0000
0100
0000
,
0000
1000
0000
0000
,
0002
0003
0000
2000
,
3000
0000
0100
0000
0100
0200
0000
0000
,
0300
0002
0003
2000
,
3000
0000
0100
0000
0010
0000
0001
0020
,
0000
0030
0001
0100
,
0001
1000
0100
0010
,
0001
1000
0001
0000
0100
0000
0000
0001
,
0000
0000
1000
1000
,
1000
0001
0001
0001
,
1000
0000
1000
0000
2000
3000
0100
0000
,
0100
0100
0010
0010
,
0010
0000
0002
0003
0001
0000
0001
0000
,
1000
1000
1000
0100
,
0100
0010
0010
0001
,
1000
0001
0001
1000
,
0001
0010
0100
0010
,
1000
0100
0010
0100
,
1000
0100
0001
0010
,
0100
0010
0001
0010
,
1000
1000
0001
0001
,
0100
0100
0000
2000
,
3000
0002
0003
2000
,
3000
0001
0001
2000
,
3000
0002
0003
2000
,
3000
0001
0001
2000
,
3000
0002
0003
2000
,
3000
0001
0001
2000
,
3000
0002
0003
2000
,
3000
0001
0001
0000
,
2000
0000
3200
0320
0030
0000
0001
0000
,
0010
0100
1000
0100
,
0010
0001
1001
1000
,
0100
0010
0001
1001
,
1000
0100
0010
1001
,
0100
0010
0100
0100
,
1000
0001
1000
0100
,
0010
0100
1000
0110
,
0001
0010
1000
0100
,
0110
0001
0010
1000
,
0100
0110
0000
1000
,
0001
0010
0100
0110
,
1000
0001
0010
0100
,
1001
0010
0100
0001
,
0010
1001
0000
0200
,
0000
0000
0000
0000
,
0000
0300
0000
1000
,
1000
1000
2000
3000
,
0000
0001
0001
0002
,
0000
1003
1000
1000
,
0001
0001
0001
1000
,
1000
1000
0010
0010
,
0100
0100
0001
0001
,
0100
0100
1000
0001
,
1000
0001
0010
0010
,
0010
0010
0200
0000
,
0000
0000
0310
0000
,
0000
1000
1000
0100
,
0100
0010
0010
0001
,
0001
0010
0010
0100
,
0100
1000
1000
0100
,
0100
0010
0010
0100
,
0100
1000
1000
0001
,
0010
0100
0010
0001
,
0000
1000
1000
0001
,
0001
1000
1000
0100
,
0100
0001
0001
0010
,
0010
0100
0100
0100
,
0100
1000
1000
0001
,
0001
0100
0100
0100
,
1000
0100
0010
0001
,
0010
0100
1000
1000
,
0020
0000
0000
0000
,
0000
0000
0000
0000
,
0000
0000
0000
0000
,
0000
0000
0000
0000
,
0000
0000
0000
0000
,
0000
0000
0000
0000
,
0000
0000
0030
0000
,
0000
0010
0010
0010
0010
0010
1001
0000
;

//---------------dance-single - ----------------
#NOTES:
     dance-single:
     :
     Challenge:
     18:
     1.000000,1.000000,0.545367,0.276754,1.000000,782.000000,67.000000,34.000000,0.000000,0.000000,0.000000,1.000000,1.000000,0.545367,0.276754,1.000000,782.000000,67.000000,34.000000,0.000000,0.000000,0.000000:
// measure 0
0000
0000
0000
0000
,  // measure 1
0000
0000
0000
0000
,  // measure 2
0000
0000
0000
0100
0100
0001
0001
1000
,  // measure 3
1000
0010
0010
0000
0000
0000
0000
1000
,  // measure 4
1000
1000
0000
0100
0100
0010
0010
0000
,  // measure 5
0001
0001
0010
0010
1000
1000
0100
0100
,  // measure 6
0000
0001
0001
1000
0100
0000
0000
0001
,  // measure 7
0001
0100
0100
0010
0010
1000
0200
0300
,  // measure 8
0000
0000
0000
0000
0100
0100
0100
0100
0200
0000
0000
0000
0000
0000
0000
0000
,  // measure 9
0300
0000
0001
0001
0000
1000
1000
0100
,  // measure 10
0100
0000
0000
0000
0010
0000
0010
0000
0001
0000
0010
0000
0001
0001
0002
0000
,  // measure 11
0000
0000
0000
0000
0003
0000
0000
1000
,  // measure 12
0001
1000
0001
1000
0001
1000
0001
1000
,  // measure 13
0001
0000
0000
1000
0000
0000
0001
0000
1000
0000
0001
0000
1000
0000
0001
0000
1000
0000
0001
0000
1000
0000
0001
0000
,  // measure 14
0000
0000
0110
0000
1001
0000
0110
0000
1001
0000
0000
0000
1000
0100
0001
0010
,  // measure 15
1000
0000
1000
0000
1000
0000
1000
0001
0010
1000
0100
0000
0001
0000
0001
0000
,  // measure 16
0001
0000
0001
0000
0100
0010
0001
1000
0010
0100
0000
0000
1000
0000
1000
0000
,  // measure 17
1000
0000
1000
0000
0000
0000
0010
0100
0000
0000
0001
1000
0010
0100
0000
0001
,  // measure 18
1000
0010
0001
1000
0100
0000
0001
0000
0001
0000
0001
0000
0001
0000
0000
0000
,  // measure 19
1100
0000
0011
0000
1100
0000
0011
0000
1000
0100
1000
0100
1000
0000
0011
0000
,  // measure 20
1100
0000
0011
0000
1100
0000
0001
0010
0001
0010
0001
0000
1001
0000
0110
0000
,  // measure 21
1001
0000
0110
0000
0000
1000
0010
1000
0010
1000
0010
0000
0000
0000
1100
0000
,  // measure 22
0011
0000
0101
0000
1010
0000
0110
0000
1000
0100
1000
0100
1000
0000
0000
0000
,  // measure 23
0011
0000
0110
0000
1100
0000
0110
0000
0011
0000
1000
0010
1000
0010
1000
0010
,  // measure 24
0000
1100
0011
0110
0011
1100
0110
0011
,  // measure 25
0011
1000
0100
1000
0100
1000
0100
1000
0000
0001
0000
0010
1000
0100
0001
0010
,  // measure 26
1000
0100
0100
0100
0100
0001
0010
1000
0100
0001
0010
1000
0100
0100
0100
0100
,  // measure 27
0000
1001
0110
1001
,  // measure 28
0110
0000
1001
1001
0220
0330
0000
0000
,  // measure 29
1000
0100
0001
0010
1000
0100
0001
0001
,  // measure 30
0001
1000
0100
0001
0010
1000
0100
0010
,  // measure 31
0001
0010
0001
1000
0100
0001
0010
1000
,  // measure 32
0100
0010
0010
0010
0001
0010
1000
0100
,  // measure 33
0001
0010
0100
0100
0100
1000
0100
1000
,  // measure 34
0100
0010
0001
0001
0001
1000
1000
1000
,  // measure 35
0001
0001
0001
1000
0002
0023
0230
2300
,  // measure 36
3000
0000
0000
0001
0010
0001
0010
0001
0200
0000
0000
0300
,  // measure 37
1000
0100
1000
0100
1000
0020
0000
0000
0000
0030
0001
0010
,  // measure 38
0001
0010
0001
0200
0000
0000
0000
0300
1000
0100
1000
0100
,  // measure 39
1000
0000
0020
0000
0030
0100
0001
0100
0001
0100
2000
0000
,  // measure 40
0000
0000
3000
0000
1000
0010
1000
0010
0000
1000
0200
0000
,  // measure 41
0000
0000
0000
0000
0301
0010
0001
0010
0201
0000
0000
0000
,  // measure 42
0000
1300
0010
1000
0010
1000
0200
0000
0000
0300
0001
0010
,  // measure 43
0100
1000
0100
0020
0000
0000
0030
0000
0000
1000
0100
0010
,  // measure 44
0001
0010
0100
2000
0000
0000
0000
3100
0010
0001
0010
0100
,  // measure 45
2000
0000
0000
0000
0000
3100
0010
0001
0010
0100
2000
0000
,  // measure 46
0000
0000
0000
3100
0010
0001
0010
0100
2000
0000
0000
0000
,  // measure 47
3100
0010
0001
0010
0100
2000
0000
0000
0000
0000
3100
0010
,  // measure 48
0001
0010
0100
2000
0000
0000
0000
0000
3100
0010
0001
0010
,  // measure 49
0100
2000
0000
0000
0000
0000
3100
0010
0001
0010
0100
2000
,  // measure 50
0000
0000
0000
3000
0100
0010
0001
0010
0100
2002
0000
0000
,  // measure 51
0000
0000
0000
0000
,  // measure 52
0000
0000
0000
0000
3003
0100
1000
0100
1000
0100
1000
0100
1000
0100
1000
0100
,  // measure 53
1000
0100
1000
0100
1000
0100
1000
2200
0000
0000
0000
3300
0000
0010
0001
0010
,  // measure 54
0001
0010
0001
0010
0001
0010
0001
0010
0001
0010
0001
0010
0022
0000
0000
0000
,  // measure 55
0000
0000
0000
0033
0000
0000
1000
0100
0010
0001
0010
0100
1000
0100
0010
0001
,  // measure 56
0010
0000
0000
0100
0000
0000
1000
0000
0000
0100
0000
0000
0010
0000
0000
0001
0000
0000
0010
0000
0000
0100
0000
0000
1000
0000
0000
0000
1000
0000
0000
0000
0001
0000
0000
0000
0001
0000
0000
0000
1000
0000
0000
0000
1000
0000
0000
0000
,  // measure 57
0001
0001
1000
1000
0001
0001
1000
1000
0001
0001
1000
0001
,  // measure 58
1000
0000
0000
0000
0001
0000
0000
0000
1000
0000
0000
0000
0001
0000
0000
0000
1000
0000
0000
0000
0001
0000
0000
0000
1000
0000
0000
0000
0001
0000
0000
0000
1000
0000
0000
0000
1000
0000
0000
0100
0000
0000
1000
0000
0000
0100
0000
0000
,  // measure 59
1000
0100
0010
0100
0010
0100
0010
0100
0010
0001
0010
0001
0010
0001
0000
0010
,  // measure 60
0001
1000
0010
0000
1000
0010
1000
0010
0100
0001
0100
0001
0100
0001
0010
1000
,  // measure 61
0001
0000
0000
1000
0000
0000
0001
0000
0000
1000
0000
0000
0001
0000
0000
1000
0000
0000
0001
0000
0000
1000
0000
0000
0010
0000
0000
0000
0100
0000
0000
0000
0010
0000
0000
0000
0100
0000
0000
0000
0010
0000
0000
0000
0100
0000
0000
0000
,  // measure 62
0010
0000
0100
0000
0010
0000
0100
0000
0010
0000
0100
0000
1001
0000
0000
0000
0000
0000
1100
0000
0000
0011
0000
0000
,  // measure 63
1100
0000
0000
0000
0000
0000
0011
0000
0000
0000
0000
0000
0100
0000
0000
1000
0000
0000
0100
0000
0000
1000
0000
0000
0100
0000
0000
1000
0000
0000
0011
0000
0001
0000
0000
0000
0110
0000
0000
0000
0000
0000
1100
0000
0000
0000
0000
0000
,  // measure 64
0110
0000
0000
0001
0000
0000
1000
0000
0000
0001
0000
0000
1000
0000
0000
0001
0000
0000
1000
0000
0010
0000
0000
0000
0100
0000
0000
0000
0010
0000
0000
0000
0100
0000
0000
0000
0010
0000
0000
0000
0000
0000
0001
0000
0000
1000
0000
0000
,  // measure 65
0001
0000
0000
1000
0000
0000
0001
0000
0000
0000
0000
0000
1000
0000
0000
0000
0010
0000
0000
0000
1000
0000
0000
0000
0010
0000
0000
0000
1000
0000
0100
0000
0000
0001
0000
0000
0100
0000
0000
0001
0000
0000
0100
0000
0000
0001
0000
0000
,  // measure 66
0000
0000
0000
0000
1000
0000
0000
0000
0001
0000
0000
0000
1000
0000
0000
0000
0001
0000
0000
0000
1000
0000
0000
0000
0010
0000
0000
0100
0000
0000
0010
0000
0000
0100
0000
0000
0010
0000
0000
0000
0000
0000
0000
0000
0001
0000
0000
0000
,  // measure 67
0010
0000
0000
0000
0001
0000
0000
0000
0010
0000
0000
0000
0001
0000
0000
1000
0000
0000
0100
0000
0000
1000
0000
0000
0100
0000
0000
0000
0001
0000
0000
0000
0010
0000
0000
0000
0100
0000
0000
0000
1000
0000
0000
0000
0000
0001
0000
0000
,  // measure 68
0010
0000
0000
0100
0000
0000
1000
0000
0000
0000
0000
0000
1000
0000
0000
0000
0100
0000
0000
0000
0010
0000
0000
0000
0001
0000
0000
1000
0000
0000
0100
0000
0000
0010
0000
0000
0001
0000
0000
0000
0000
0000
0000
0000
0000
1000
0000
0000
,  // measure 69
0100
1000
0100
0000
0010
0001
0010
0001
1000
0100
1000
0100
0001
0010
0001
0010
,  // measure 70
1000
0100
1000
0100
0001
0010
0001
0010
1000
0100
1000
0100
0001
0010
0001
0010
,  // measure 71
1000
0100
1000
0100
0001
0010
0001
0010
0001
0010
0100
0010
0100
0010
0100
1000
,  // measure 72
0100
1000
0100
1000
0100
0010
0100
0010
0100
0010
0001
0010
0001
0010
0001
0010
,  // measure 73
0100
0010
0100
0010
0000
0100
1000
0100
1000
0100
0010
0001
0010
0001
0010
0001
,  // measure 74
0010
0100
1000
0100
1000
0100
1000
0100
0000
0000
1100
0000
0011
0000
1100
0000
,  // measure 75
0011
0000
1000
0000
0100
0000
1000
0000
0100
0000
1000
0000
0011
0000
0000
1100
0000
0000
0011
0000
0000
1100
0000
0000
,  // measure 76
0001
0000
0010
0000
0001
0000
0010
0000
0001
0000
0000
0000
1100
0000
0000
0011
0000
0000
1100
0000
0000
0011
0000
0000
,  // measure 77
1000
0000
0100
0000
1000
0000
0100
0000
1000
0000
0000
0000
0000
0000
0000
0000
0000
0000
1000
0000
0000
1000
0000
0000
,  // measure 78
0001
0001
1000
1000
0001
0001
1000
1000
,  // measure 79
0001
0001
1000
1000
0001
0001
1000
1000
,  // measure 80
0001
0001
1000
1000
0001
0001
1000
1000
,  // measure 81
0001
0001
1000
1000
0001
0001
1000
1000
,  // measure 82
0001
0001
1000
1000
0001
1000
1000
0001
,  // measure 83
0001
1000
1000
0001
0001
0000
0000
0000
,  // measure 84
1000
0001
1000
0001
1000
0001
1000
0010
1000
0010
1000
0010
1000
0010
0100
0001
,  // measure 85
0100
0001
0100
0001
0100
0001
0100
0001
0100
1000
0010
0001
0010
0100
1000
0100
,  // measure 86
2002
3003
0000
0000
0000
0000
0000
0000
0000
0000
0000
0000
0000
0000
0000
0000
;
