#TITLE:Bad Apple!!!;
#SUBTITLE:(short version);
#ARTIST:ZUN;
#TITLETRANSLIT:;
#SUBTITLETRANSLIT:;
#ARTISTTRANSLIT:;
#CREDIT:;
#BANNER:bn.png;
#BACKGROUND:bg.png;
#LYRICSPATH:lyrics.lrc;
#CDTITLE:;
#MUSIC:BadApple Short.mp3;
#OFFSET:0.000;
#SAMPLESTART:100.050;
#SAMPLELENGTH:12.000;
#SELECTABLE:YES;
#BPMS:0.000=170.400,42.500=250.021,331.667=116.640,359.000=250.601;
#STOPS:42.500=0.480
;
#BGCHANGES:;

//---------------dance-single - ----------------
#NOTES:
     dance-single:
     :
     Beginner:
     3:
     0.324,0.448,0.352,0.168,0.000:
0000
0000
0000
0000
,
1000
0000
0000
0000
,
0001
0000
0000
1000
,
0000
0010
2002
0000
,
3003
0010
1000
0022
,
0000
0000
0000
0033
,
2200
0000
0000
3300
,
0000
0010
0010
0010
,
0010
0110
0000
0100
,
0100
0100
0001
0000
,
1000
0000
1001
0000
,
0010
0000
0000
0010
,
0000
0000
0000
0010
,
0000
1000
0100
0000
,
0000
0000
0010
0000
,
0000
0010
0000
0000
,
0000
0010
0000
1001
,
0000
0110
0000
0000
,
0000
0110
0000
0000
,
0000
0011
0000
0000
,
1100
0000
1010
0000
,
0101
0000
1010
0101
,
0000
1010
0000
0000
,
0000
0000
0000
0000
,
1010
0101
0000
0000
,
1000
0000
0100
0000
,
0010
0001
0000
0011
,
0000
1100
0000
1010
,
0000
0101
0010
0000
,
0100
0000
0010
0000
,
0100
0000
1001
0011
,
0000
1100
0000
0010
,
0000
1000
0100
0010
,
0001
0010
0100
1000
,
0100
0000
0010
0001
,
0010
0100
0000
1000
,
0000
0100
0000
0000
,
0000
0000
0110
0000
,
1001
0000
0011
0000
,
1100
0000
0010
0000
,
0100
0001
0000
1000
,
0010
0100
0000
0001
,
0000
1000
1000
1000
,
0010
0010
0010
0010
,
0100
0000
0010
0000
,
0010
0001
0000
0001
,
1000
0001
0000
1000
,
0000
0000
0002
0000
,
0003
0000
1000
0000
,
0001
0000
2000
0000
,
0000
0000
0000
0001
,
0000
0000
0001
3000
,
0001
0000
1000
0000
,
0001
0000
0010
0000
,
0100
0000
0100
0020
,
0000
0030
0000
0100
,
0000
1000
2002
0000
,
3003
0000
0010
0000
,
0001
0000
0200
0000
,
0300
0000
1000
0010
,
0000
0002
0003
0000
,
0000
1000
0100
0000
,
0010
0000
0001
0010
,
0100
0000
1000
0100
,
0010
0001
0010
0100
,
1100
0010
0000
0001
,
0010
0000
0100
0000
,
1000
0000
0100
0000
,
0100
0000
1000
0001
,
0000
1000
0000
0001
,
0000
1000
0000
0001
,
0000
1000
0000
0001
,
1000
0000
0001
0000
,
1000
0000
0001
0000
,
0010
0001
0000
0010
,
0000
0001
0000
0100
,
0000
1000
0100
0000
,
1010
0000
0101
0000
,
1010
0000
1100
0000
,
0011
1100
0000
0011
,
0000
1001
0000
0110
,
0000
0000
0000
0000
,
0000
0000
0000
0000
,
0000
0000
1000
0000
,
0000
0010
0000
0000
,
0100
0000
0000
0000
,
1001
1000
0000
0002
,
0003
1000
0200
0300
,
0010
0100
0002
0003
,
1000
0100
0010
0000
,
0000
0000
0010
0000
,
0000
0000
0000
0000
,
0000
0200
0000
0300
,
0000
0010
0000
0100
,
0002
0000
0003
0000
,
1000
0000
0100
0000
,
0020
0000
0030
0000
,
0001
0000
0100
2000
,
0000
3000
0000
0100
,
0000
0010
0001
0000
,
0010
0000
0100
0000
,
1000
0000
0100
0000
,
0010
0100
0000
0000
,
0000
1001
0000
0110
,
0000
0001
0000
1000
,
0001
0000
1000
0000
,
0001
0000
1000
0000
,
0001
0000
0000
0000
;

//---------------dance-single - ----------------
#NOTES:
     dance-single:
     :
     Easy:
     6:
     0.402,0.707,0.737,0.226,0.000:
0000
0000
0000
1000
,
0000
1000
0000
0000
,
1000
0010
0000
0000
,
0000
1000
0110
0000
,
0000
0001
0000
0110
,
1000
0110
0000
0001
,
0110
1000
0110
0001
,
0000
0110
1000
0100
,
0000
0000
0001
2002
,
0000
0000
0000
0000
,
3003
1001
0110
0000
,
0100
0000
0000
0100
,
0000
0000
0000
0100
,
0000
1000
0100
0010
,
1000
0000
0000
0100
,
0001
0000
0010
0000
,
0100
0000
0000
0000
,
1010
0001
0000
1000
,
0000
1100
0000
1010
,
0000
1010
1010
0000
,
1000
0000
0000
0000
,
1010
0000
0000
1010
,
0000
0000
0000
1010
,
0000
1010
0000
0000
,
1010
0000
0101
0000
,
1010
0000
1010
0000
,
1010
0000
1010
1010
,
0000
1010
0000
0010
,
0000
0010
0100
0000
,
1001
0000
0100
0010
,
0000
0000
0000
0000
,
1010
1001
0000
1001
,
0000
1001
1100
1100
,
1001
0000
1100
1100
,
1001
0000
1001
0000
,
0010
0010
0100
0010
,
0010
0100
0000
0010
,
0000
0100
0000
1100
,
0010
0001
0010
0100
,
1000
0000
0100
0010
,
0001
0010
0100
1000
,
0110
0001
0000
0010
,
0000
0100
1000
0100
,
0010
0001
0110
0000
,
1000
0000
0100
0000
,
0001
0010
0000
0100
,
0100
0100
0000
0110
,
0010
0100
2002
0000
,
3003
0000
0010
0000
,
0100
0000
0110
0100
,
0000
0001
0010
0100
,
1000
0100
0000
0010
,
2002
0000
3003
0000
,
2002
0000
3003
0000
,
0010
0000
0010
0200
,
0000
0300
0000
0010
,
0000
0001
2002
0000
,
3003
0000
0010
0000
,
0100
0000
0002
0003
,
0000
0000
1000
0100
,
0000
0010
0000
0001
,
0000
0010
0100
0000
,
2002
0000
3003
0000
,
0010
0000
0100
0022
,
0000
0033
0000
2200
,
0000
3300
0000
0022
,
0000
0000
0000
0000
,
0000
0000
0000
0000
,
0033
0000
1000
0000
,
0100
0020
0000
0030
,
0000
1000
0000
0100
,
0002
0000
0003
0000
,
0001
0000
1000
0000
,
0002
0000
0003
0000
,
0010
0100
0000
0020
,
0000
0030
0000
0100
,
1000
0000
0200
0000
,
0000
0300
0010
0000
,
0001
0000
0020
0000
,
0030
0010
0000
0010
,
0000
0020
0000
0030
,
0000
1100
0000
0000
,
0100
0000
0000
0000
,
0000
1100
1100
0000
,
0000
0011
0000
0000
,
1100
0011
0000
0000
,
0101
0000
0010
0100
,
0010
0100
0110
0110
,
0110
0110
0110
0110
,
0000
1001
0000
0001
,
0000
1000
0000
0001
,
1000
0000
0001
1000
,
0001
0000
0001
1000
,
0000
0001
0000
0000
,
0000
1001
0000
0000
,
0110
1001
0000
0000
,
0000
0110
1001
0000
,
0010
0000
0000
0000
,
0000
0110
1001
0110
,
1001
0110
0000
0110
,
0110
1001
0110
1001
,
0110
0110
0110
0000
,
1001
1001
0000
0000
,
0000
0110
0000
1001
,
0000
0110
0100
0000
,
0010
0100
0100
0000
;

//---------------dance-single - ----------------
#NOTES:
     dance-single:
     :
     Medium:
     7:
     0.491,0.676,0.436,0.142,0.951:
0000
0000
0000
0000
0000
0000
0000
0000
0000
0000
0000
1000
,
0000
0100
0000
0010
0000
0001
0000
0000
1010
0000
1010
0000
,
1010
0000
1010
0000
0000
0000
0100
0000
0000
0000
0010
0000
,
0000
0000
0100
0100
0000
0100
0000
0000
0000
0010
0000
0000
,
0000
0100
0000
0000
0000
0100
0100
0100
0100
0000
0000
0000
,
0010
0000
0000
0000
0010
0000
0000
0000
0100
0100
0000
0100
,
0000
0000
0000
0100
0000
0000
0000
0100
0000
0000
0010
0010
,
0010
0000
0000
0000
0000
0010
0000
0000
0000
0001
0000
0000
,
0000
1000
0000
0001
0000
1000
0000
0000
0000
0001
0000
0000
,
1000
0000
0000
0000
0001
1000
0001
1000
0000
0000
0000
0010
,
0000
0000
0000
0100
0000
0000
0000
1001
0000
0000
0000
0010
,
0000
0000
0000
0000
0000
0000
0000
0000
0000
0000
0000
0100
,
0000
0000
0000
0000
0001
0000
0000
0000
0000
0000
1000
0000
,
0000
0000
0010
0000
0000
0100
0000
0001
0000
0010
0000
0000
,
0000
0000
0100
0000
0000
0000
0000
1000
0000
0000
0000
0000
,
0100
0000
1000
0000
,
0001
0000
0000
0000
0000
1000
0000
0000
0000
0000
0010
0000
,
1000
0000
0100
0000
0000
0001
0000
0000
0010
0000
0000
0000
,
0000
0000
0100
0000
0000
0000
0000
0000
1000
0000
0001
0000
,
0000
1000
0000
0000
0000
0000
0000
1000
0000
0001
0000
0000
,
0001
0000
0000
0001
0000
0000
0001
0000
0000
0001
0000
0001
,
0000
0000
0000
0000
0000
1000
0000
0010
0000
0000
0010
0000
,
0000
0000
0000
1000
0000
0000
0100
0000
0100
0000
0000
0000
,
0000
1000
0000
0000
0000
0000
0000
0100
0000
0000
0000
0000
,
0000
1001
0000
1001
0001
1000
0000
0100
0010
0000
0000
0000
,
0001
0000
0000
0000
0000
1000
0000
0000
0000
0000
0000
0010
,
0000
0000
0000
0000
1000
0000
0100
0000
0100
0000
0000
0000
,
0000
0000
1000
0000
0000
0000
0000
0000
0001
0000
0000
0001
,
0000
0010
0000
0000
0100
0000
1000
0000
0000
0010
0000
0000
,
0010
0000
0010
0000
0000
0100
0000
0001
0000
0000
0000
0000
,
1000
0000
0010
0000
0000
0010
0000
1000
0000
0000
0100
0000
,
0100
0000
0000
0010
0000
0001
0000
0000
0001
0000
0010
0000
,
0000
0100
0000
1000
0000
0000
0001
0000
1000
0000
0000
1001
,
0000
0000
2002
0000
0000
0000
3003
0000
0000
0000
0000
0000
,
0010
0000
0000
0000
0000
1000
0000
0000
0000
0000
0000
0100
,
0000
0100
0000
0000
0000
1000
0000
0000
0000
0001
0000
0000
,
1000
0000
0000
0010
0000
0010
0000
0000
1000
0000
0000
0000
,
0000
0000
0100
0000
0000
0000
0000
1001
0000
0000
0000
0000
,
0000
0110
0000
0000
0000
0000
0011
0000
0000
0000
0000
1000
,
0100
0000
0000
0000
0000
0010
0000
0000
0010
0000
1000
0000
,
0000
0100
0000
0000
0010
0000
0000
0000
0000
0001
0000
0000
,
0010
0000
0100
0000
0000
0000
0000
0000
1000
0000
0000
0000
,
0000
0000
0100
0000
0100
0000
0000
0010
0000
0000
0000
0000
,
0001
0000
0000
0001
0000
0010
0000
0000
0100
0000
1000
0000
,
0010
0000
0000
0000
0000
0100
0000
1000
0000
0000
0010
0000
,
0000
0010
0000
0000
1000
0000
0100
0000
0000
0001
0000
0000
,
0010
0000
0010
0000
0000
0000
0000
0000
1100
0000
0000
0000
,
0100
0000
0000
0100
0000
0020
0000
0000
0000
0000
0030
0000
,
0001
0000
0000
0010
0000
0000
0100
0000
0000
0000
0000
1000
,
0000
0000
0000
0000
0000
0100
0000
0100
0000
0000
0010
0000
,
0001
0000
0000
0010
0000
0000
0100
0000
0010
0000
0010
0000
,
0000
0010
0000
0001
0000
0000
0000
0010
0000
0000
0000
0000
,
0000
1001
0000
0000
0000
0000
0011
0000
0000
0000
0000
0000
,
1100
0000
1010
0000
,
0010
0000
0010
0000
0000
0010
0000
0000
0000
0000
2000
0000
,
0000
0000
0000
0000
3000
0000
0000
0000
0001
0000
0000
0010
,
0000
0000
0000
0000
0000
0000
0000
2002
0000
0000
0000
0000
,
0003
3000
0000
0000
0000
0000
0001
0000
0000
0000
0000
0000
,
0001
0000
0000
0000
0000
0001
0000
0000
0000
0000
0000
0001
,
0000
1000
0001
0000
1000
0000
0001
0000
0000
0000
0000
0001
,
0000
0000
0000
0000
0001
0000
0000
0000
0000
0001
0000
0000
,
0001
0000
0001
0000
0000
0000
0000
0000
0001
0000
0000
0000
,
0000
0001
0000
0000
0000
0000
0000
0001
0010
0000
0000
0001
,
0000
0001
0000
0000
0000
0000
0001
0000
0000
0000
0000
0001
,
0000
0000
0000
0000
0000
0001
0010
0000
0001
0010
0001
0000
,
0000
0000
0000
0000
0001
0000
0000
0000
0000
0001
0000
0000
,
0000
0000
0001
0000
0000
0000
0000
0000
1000
0000
0000
0001
,
0000
0000
1000
0000
0001
0000
0000
1000
0000
0000
0000
0001
,
0000
1000
0000
0000
0000
0000
1001
0000
0000
0000
0000
1001
,
0000
0000
0000
0000
1001
0000
0000
0000
0000
1000
0001
0000
,
1001
0000
0000
1001
0000
0000
0000
0000
1001
0000
0000
0000
,
0000
0000
1001
0000
0000
0000
0000
1001
0000
0000
1001
0000
,
0000
1001
0000
0000
0000
0000
1001
0000
0000
0000
0000
0000
,
1001
0000
0000
0000
0000
1001
0000
1001
0000
0000
1001
0000
,
0000
0000
0000
0000
1001
0000
0000
0000
0000
1001
0000
0000
,
1001
0000
0000
1001
0000
0000
0000
0000
0010
0000
0010
0000
,
0000
0000
1001
0000
0000
0000
0000
0010
0000
0010
0000
0000
,
0000
1001
0000
0000
0000
0000
0010
0000
0000
1001
0000
0000
,
0000
0000
0010
0000
0000
1001
0000
0000
0000
0000
0010
0000
,
0000
0010
0000
0000
1001
0000
0000
0000
0000
0010
0000
0000
,
1001
0000
0010
1000
,
0000
0000
0010
0000
0000
0000
0000
0010
0000
0000
0000
0000
,
1000
0000
0000
0100
0000
0000
0000
0000
0000
0000
0000
1000
,
0000
0000
1000
0000
0020
0000
0000
0030
0000
0100
0000
0000
,
0100
0000
0002
0000
0000
0003
0000
0000
0010
0000
0010
0000
,
2002
0000
0000
3003
0000
0000
0010
0000
0100
0000
1010
0000
,
0000
0101
0000
0000
1010
0000
0010
0000
0000
0200
0000
0300
,
0000
0000
0010
0000
0001
0000
0000
0022
0000
0000
0030
0003
,
0110
0000
0000
1000
0000
2002
0000
0000
0003
3000
0010
0000
,
0000
0100
0000
0010
0000
0000
0100
0000
0000
0000
0100
0000
,
0000
0100
0000
0000
0000
0000
0000
0000
0000
0000
0100
0000
,
0000
0000
0000
0000
0000
0100
0000
0100
0000
0000
0001
0000
,
0000
0000
0100
0001
,
0000
0000
0100
0000
0000
0100
0000
0001
0000
0000
0000
0000
,
0000
0000
0000
0000
0100
0000
0000
0001
0000
0000
0000
0000
,
0000
0010
0000
0000
0100
0000
0000
0001
0000
0000
0000
0000
,
0010
0000
0000
0000
0000
0001
0000
0000
0000
0001
0000
0000
,
0000
0000
0000
0000
0001
0000
0000
0000
0000
2000
0000
0000
,
0000
0000
0000
3000
0000
0000
0000
0000
0001
0000
0010
0000
,
0000
0000
0100
0000
0000
0000
0000
0020
0000
0000
0000
0000
,
0030
0000
0000
0000
0000
0000
0001
0000
0000
1000
0000
0001
,
0000
0000
1000
0000
0000
0000
0000
0000
0000
0000
0000
0000
,
0000
0000
0000
0000
,
0000
0000
1001
0000
0000
0000
0000
0010
0100
0000
0110
0000
,
0000
0001
0000
0000
0000
0000
0000
1000
0000
0000
0000
0000
,
0000
0010
0000
0000
0000
0000
1000
0000
0000
0000
0000
0000
,
0100
0000
0000
0000
0000
1000
0000
0000
0000
0000
0000
1000
,
0100
0000
0000
0010
0000
1000
0000
0001
0000
0000
0000
0000
;

//---------------dance-single - ----------------
#NOTES:
     dance-single:
     :
     Hard:
     9:
     0.617,1.000,0.327,0.159,1.000: // measure 1
0000
0000
0000
0000
0000
0000
0000
1000
,  // measure 2
0000
0000
0000
0000
0000
0000
1000
0000
0000
0000
0000
0000
0000
0000
1000
0000
0000
0000
0000
0000
0000
0010
0000
0000
,  // measure 3
0100
0010
0100
0000
0000
0000
0001
0000
0000
0000
1000
0000
,  // measure 4
0000
0000
0000
0000
0001
0000
0000
1000
0000
0000
0000
0001
0000
0000
0000
0000
0000
0000
0000
1000
0000
0000
0000
0000
,  // measure 5
0000
0000
0001
0000
0000
0000
0000
0000
0000
0010
0000
0100
0000
0000
0010
0000
0100
0000
0000
0000
0000
0000
0000
0001
,  // measure 6
0000
0000
0000
0000
0000
0000
0000
0000
0100
0000
0000
0000
0000
0000
0000
0010
0000
0000
0000
0100
0000
0000
0000
0010
,  // measure 7
0000
0000
0000
0000
0000
0000
1000
0000
0000
0000
0000
0000
0000
0100
0000
0000
0000
0000
0000
0000
0000
0010
0000
0100
,  // measure 8
0000
0010
0000
0100
0000
0000
0001
0000
0000
0000
0000
1000
0000
0000
0000
0000
0000
0000
0000
0001
0000
0000
0000
0000
,  // measure 9
0000
0000
0100
0000
0000
0000
0010
0000
0000
0100
0000
0000
0000
0000
0000
0000
0000
0000
1000
0000
0000
0000
0000
0000
,  // measure 10
0000
0010
0000
0000
0000
0000
0000
0000
0010
0000
0100
0000
0000
0010
0000
0100
0000
0000
0000
0000
0000
0000
1000
0000
,  // measure 11
0000
0000
0000
0000
0000
0000
0001
0000
0000
0000
0000
0000
0000
1000
0000
0000
0000
0000
0000
0000
0010
0000
0000
0100
,  // measure 12
0000
0000
0000
0010
0000
0000
0000
0000
0000
0000
0010
0000
0000
0000
0000
0000
0000
0000
0100
0000
0000
0000
0000
0000
,  // measure 13
0000
0010
0000
0000
0000
0100
0000
0000
0000
0000
0000
0000
0001
0000
0000
0000
0000
0000
0000
0000
0000
0000
0000
0000
,  // measure 14
0000
0000
0000
0000
0000
1000
0000
0000
0100
0000
0000
0000
0010
0000
0000
0000
0001
0000
0000
0000
0000
0010
0000
0000
,  // measure 15
0000
0000
0100
0000
0000
1000
0000
0000
0000
0000
0000
0000
0000
0100
0000
0000
0000
0000
0000
0000
0000
0000
0000
0000
,  // measure 16
0010
0000
0000
0000
0000
0000
0000
0000
0000
0000
0000
0001
0000
0000
0000
0000
0000
0000
0000
0000
0000
0000
1000
0000
,  // measure 17
0000
0000
0000
0000
0000
0000
0000
0000
0000
0100
0000
0000
0000
0000
0000
0000
0000
0000
0000
0000
1000
0000
0000
0100
,  // measure 18
0000
0000
0000
0010
0000
0000
0000
0001
0000
0000
0000
0000
0010
0000
0000
0000
0100
0000
0000
1000
0000
0000
0000
0000
,  // measure 19
0000
0000
0000
0000
0000
0100
0000
0000
0000
0000
0000
0000
0000
0000
0000
1000
0000
0000
0000
0000
0100
0000
0000
0000
,  // measure 20
0010
0000
0000
0000
0000
0001
0000
0000
0000
0000
0010
0000
0000
0000
0000
0100
0000
0000
0000
1000
0000
0000
0000
0000
,  // measure 21
0100
0000
0000
0000
0010
0000
0000
0000
0000
0000
0001
0000
0000
0000
0000
0000
0000
0000
0000
0010
0000
0000
0000
0000
,  // measure 22
0000
0000
0000
0000
0000
0000
0000
0000
1000
0000
0000
0000
0100
0000
0000
0000
0010
0000
0000
0000
0000
0001
0000
0000
,  // measure 23
0000
0000
0000
0010
0000
0000
0000
0000
0100
0000
0000
0000
1000
0000
0000
0000
0000
0100
0000
0000
0000
0000
0000
0000
,  // measure 24
0000
0000
0000
0000
,  // measure 25
0000
0000
1001
0000
0000
0001
1000
0000
0001
0000
1000
0000
0000
0000
0000
0110
0000
0000
0000
0000
0000
0000
0000
0000
,  // measure 26
0001
0000
0000
0000
0000
1000
0000
0000
0000
0001
0000
0000
0000
0000
0000
1000
0000
0000
0000
0000
0000
0002
0000
0000
,  // measure 27
0000
0000
0000
0000
0000
0000
0000
0003
0000
0010
0000
0000
0000
0000
0010
0000
0000
0000
0000
0010
0000
0000
0000
0000
,  // measure 28
0000
0000
0000
2000
0000
0000
0000
0000
0000
0000
0000
0000
0000
0000
0000
3000
0001
0000
0000
0000
0000
0001
0000
0000
,  // measure 29
0000
0000
0000
0010
0000
0000
0000
0000
0100
0000
0000
0000
0000
1000
0000
0000
0000
0000
0010
0000
0000
0000
0000
0000
,  // measure 30
0010
0000
0000
0000
0000
1000
0000
0001
0000
1000
0000
0000
0001
0000
0000
0000
0000
0000
0000
0000
0000
0000
0000
0100
,  // measure 31
0000
0000
0000
0000
0010
0000
0000
0000
0000
0001
0000
0000
0000
0000
0000
1000
0000
0000
0000
0001
0000
0000
0000
0000
,  // measure 32
1000
0000
0000
0000
0000
0000
0000
0001
0000
0000
0000
1000
0000
0001
0000
0000
0000
1000
0000
0001
0000
0000
0000
1000
,  // measure 33
0000
0000
0000
0000
0000
0000
0010
0000
0000
0000
0010
0000
0000
0000
0000
1000
0000
0000
0000
0000
0001
0000
0000
0000
,  // measure 34
0000
0000
1000
0000
0000
0000
0000
0000
0000
0000
0000
0000
0000
0000
0001
0000
0000
1000
0000
0000
0001
0000
0000
1000
,  // measure 35
0000
0000
0001
0000
0000
0000
0000
0000
0000
0000
0000
0000
0000
1000
0000
0000
0000
0000
0000
0000
0000
0000
0001
0000
,  // measure 36
0000
1000
0000
0000
0001
0000
0000
0000
1000
0000
0001
0000
0000
0000
0000
1000
0000
0000
0001
0000
0000
1000
0000
0000
,  // measure 37
0000
0001
0000
0000
1000
0000
0000
0000
0001
0000
0000
0000
1000
0000
0000
0000
0000
0010
0000
0000
0000
0000
0000
0000
,  // measure 38
0000
0000
0000
0000
0000
0000
0000
0000
0000
0000
0000
0000
0000
0000
1000
0001
0000
0000
0000
1000
0001
0000
0000
0000
,  // measure 39
0000
0010
0100
0000
0000
0000
0010
0100
0000
0000
0000
0000
1001
0000
0000
0000
0000
1001
0000
0000
0000
0000
0000
0110
,  // measure 40
0000
0000
0110
0000
0000
0001
0000
1000
0000
0010
0000
0000
,  // measure 41
0010
0000
0000
0000
0000
0100
0000
0000
0000
0000
0100
0000
0000
0000
0000
0000
0000
0000
0000
1000
0000
0000
0000
0000
,  // measure 42
0000
0001
0000
0000
0000
0000
0001
0000
0000
0000
0000
0000
1000
0000
0000
0000
0010
0000
0000
0000
0000
0000
0010
0000
,  // measure 43
0000
0000
0000
1000
0000
0000
0000
0100
0000
0000
0000
0000
0100
0000
0000
0000
1000
0000
0000
0000
0000
0001
0000
0000
,  // measure 44
0000
1000
0000
0000
0000
0000
0001
0000
0000
0000
1000
0000
0000
0000
0000
0001
0000
1000
0000
0000
0000
0000
0000
2002
,  // measure 45
0000
0000
0000
0000
0000
0000
0000
0000
0000
0000
0000
3000
0003
0000
0000
0000
0000
0000
0000
0000
0010
0000
0000
0000
,  // measure 46
0000
0010
0000
0000
0000
0000
0010
0000
0000
0000
0000
0010
0000
0000
0000
0000
0000
0000
0001
0000
0000
0000
0000
0001
,  // measure 47
0000
0000
0000
0000
0000
0001
0000
0000
0000
0000
0000
0000
0000
0000
0000
2002
0000
0000
0000
0000
0000
0000
0000
3003
,  // measure 48
0000
0000
0000
0110
0000
0000
0000
0000
0000
0000
0000
0000
0000
0000
1001
0000
0000
0000
0000
0000
0000
0000
0000
0000
,  // measure 49
0020
0200
0000
0000
0000
0000
0000
0000
0000
0000
0000
0000
0000
0000
0000
0000
0000
0000
0000
0000
0000
0000
0000
0000
,  // measure 50
0000
0000
0000
0000
0000
0000
0000
0000
0000
0000
0000
0000
0000
0000
0000
0000
0000
0000
0000
0300
0000
0000
0000
0000
,  // measure 51
0000
0002
0000
0000
,  // measure 52
0000
0000
0000
0000
0000
0000
0000
0000
0000
0000
0000
0000
0000
0033
0000
0000
0000
0000
0000
0000
0000
0000
0000
0000
,  // measure 53
0000
1100
0000
0000
0000
0000
0000
0000
0000
0000
0000
0000
0010
0001
0000
0000
0000
0000
0000
0000
0000
0000
0000
0000
,  // measure 54
1100
0000
0000
0000
0000
0000
0000
0000
0000
0000
0220
0000
0000
0000
0000
0000
0000
0000
0000
0030
0300
0000
0001
0000
,  // measure 55
0000
0000
0000
0000
0000
0000
0000
0000
0000
0010
0000
0000
0000
0000
0000
0000
0000
0000
0000
0200
0000
0000
0000
0000
,  // measure 56
0000
0000
0000
0000
0000
0000
0000
0300
0000
0000
0000
0000
0000
0000
0000
0000
0010
0000
0000
0000
0000
0000
0000
0000
,  // measure 57
0000
0000
0100
0000
0000
0000
0000
0020
0000
0000
0000
0000
,  // measure 58
0000
0030
0000
0000
0000
0000
0000
0000
0000
0000
0000
0000
0000
0010
0000
0000
0000
0000
0000
0100
0000
0000
0000
0000
,  // measure 59
0000
0010
0000
0000
0000
0000
0000
0000
0100
0000
0000
0000
0000
0010
0000
0000
0000
0000
0000
0000
0000
0000
0100
0000
,  // measure 60
0000
0000
0000
0000
0010
0000
0000
0000
0000
0000
0100
0000
0000
0000
0000
0010
0000
0000
0000
0000
0000
0000
0000
0000
,  // measure 61
0000
0000
0010
0100
0010
0100
0010
0000
,  // measure 62
0000
0000
0000
0000
0010
0000
0000
0000
0000
0000
0010
0000
0000
0000
0000
0100
0000
0000
0000
0000
0000
0010
0000
0000
,  // measure 63
0000
0000
0000
0000
0000
1000
0000
0000
0000
0000
0000
0000
,  // measure 64
0001
0000
0000
0000
1000
0000
0000
0001
0000
0000
1000
0000
0001
0000
0000
1000
0000
0000
0001
0000
0000
0000
0000
0000
,  // measure 65
0000
0010
0000
0000
0000
0000
0000
0000
0000
0000
0100
0000
0000
0000
0000
0010
0000
0000
0000
0000
0100
0000
0000
0000
,  // measure 66
0000
0010
0000
0000
0000
0000
0100
0000
0000
0000
0000
0010
0000
0000
0000
0000
0000
0001
0000
0000
0000
0000
0010
0000
,  // measure 67
0000
0000
0000
0000
0100
0000
0000
0000
0010
0000
0000
0000
0000
0000
0001
0000
0000
0000
0000
0010
0000
0000
0000
0000
,  // measure 68
0000
0001
0000
0000
0000
0000
0010
0000
0000
0000
0000
0000
0001
0000
0000
0000
0000
0010
0000
0000
0000
0000
0001
0000
,  // measure 69
0000
0000
0000
0010
0000
0000
0000
0000
0000
0100
0000
0000
0000
1000
0000
0000
0000
0000
0100
0000
0000
0000
0000
1000
,  // measure 70
0000
0000
0000
0000
0100
0000
0000
0000
0000
0000
1000
0000
0000
0000
0000
0100
0000
0000
0000
0000
0000
1000
0000
0000
,  // measure 71
0000
0000
0100
0000
0000
0000
0000
1000
0000
0000
0000
0000
0100
0000
0000
0000
0000
1000
0000
0000
0000
0000
0000
0100
,  // measure 72
0000
0000
0000
0000
0000
1000
0000
0000
0000
0000
0100
0000
0000
0000
0000
0000
1000
0000
0000
0000
0000
0100
0000
0000
,  // measure 73
0000
0000
0000
1000
0000
0000
0000
0000
0010
0000
0000
0000
0000
0000
1000
0000
0000
0000
0000
0000
0010
0000
0000
0000
,  // measure 74
1000
0000
0000
0000
0000
0000
0000
0010
1000
0000
0000
0000
0000
0000
0000
0000
0000
0000
0000
0000
0000
1010
0000
0000
,  // measure 75
0000
0000
0000
1010
0000
0000
0000
0000
0000
0000
0000
0000
0000
0000
1010
0000
0000
0000
0000
0000
1010
0000
0000
0000
,  // measure 76
0000
0000
0000
0000
0000
0000
0000
1010
0000
0000
0000
1010
0000
0000
1010
0000
0000
0000
0000
0000
0000
0000
0000
0000
,  // measure 77
0000
0000
0000
0000
1010
0000
0000
0000
0000
0000
0000
0000
0000
0000
0000
1010
0000
0000
0000
0000
0000
0000
0000
0000
,  // measure 78
0000
1010
0000
0000
1010
0000
0000
0000
0000
0000
1010
0000
,  // measure 79
0000
1010
0000
0000
0000
0000
0000
0000
0000
0000
0000
1010
0000
0000
1010
0000
0000
0000
0000
0000
0000
0000
1010
0000
,  // measure 80
0000
0000
0000
0000
0000
0000
0000
0000
1010
0000
0000
0000
1010
0000
0000
1010
0000
0000
0000
1010
0000
0000
0000
0000
,  // measure 81
0000
0000
0000
0010
0000
0000
0000
0000
0001
0000
0000
0000
,  // measure 82
0000
0000
0000
1000
0000
0000
0100
0000
0000
0000
0010
0000
0000
0000
0001
0000
0000
0000
0000
0000
0000
0000
0000
0000
,  // measure 83
0000
0000
0000
0000
0000
0000
0000
0000
0000
0000
0000
0000
0000
0000
0000
0000
0000
0000
0000
0000
0000
0000
0000
1000
,  // measure 84
0000
0100
0000
0000
0010
0000
0001
0000
0000
0010
0000
0100
0000
1000
0000
0000
0100
0000
0010
0000
0001
0000
0000
0010
,  // measure 85
0000
0100
0000
0000
0010
0000
0001
0000
0010
0000
1000
0000
0100
0000
0100
0000
1000
0000
0000
0010
0000
0010
0000
1000
,  // measure 86
0000
0000
0001
0000
1000
0000
0010
0000
0000
0010
0000
1000
0000
0100
0000
0100
0000
0000
0010
0000
1000
0000
0001
0000
,  // measure 87
0001
0000
0000
0010
0000
1000
0000
0100
0000
0100
0000
1000
0000
0000
0001
0000
0000
0001
1000
0000
0000
1001
0000
0001
,  // measure 88
1000
0000
0010
0000
0010
0000
1000
0000
0000
0100
0000
0100
0000
1000
0000
0000
0001
0000
1000
0000
0000
0101
0000
1000
,  // measure 89
0000
0010
0000
0000
0100
0010
0000
0100
0000
0010
0100
1000
0000
0000
0001
0000
0000
1000
0000
0000
0001
0000
1000
0000
,  // measure 90
0010
0000
0100
0000
0010
0000
1100
0010
0000
0000
1000
0000
0000
0000
0100
0000
1000
0000
0100
0000
0000
0000
1000
0000
,  // measure 91
0000
0000
0000
0000
0010
0000
0000
0000
0000
0010
0000
0000
0000
1000
0000
0000
0000
0100
0000
0010
0000
0000
0000
0100
,  // measure 92
0000
0000
0010
1000
0000
0000
0000
0000
0000
0000
0001
0000
0000
0000
0000
0001
0000
0000
0000
1000
0000
0000
0000
0010
,  // measure 93
0000
0000
0100
0000
0000
0000
0010
0000
0100
0000
0000
0010
0000
1000
0000
0000
0000
0001
0000
0000
0000
0000
0001
0000
,  // measure 94
0000
0000
0000
1000
0000
0000
0010
0000
0000
0000
0001
0000
0000
0000
0010
0000
0000
0001
0000
0000
0010
1000
0000
0000
,  // measure 95
0100
0000
0000
0000
0000
0100
0000
0000
0000
1000
0000
0000
0010
0000
0000
0000
0100
0000
0000
0000
1000
0000
0000
0010
,  // measure 96
0000
0000
0000
0000
1000
0000
0000
0000
0000
0001
0000
0000
0000
0000
1000
0000
0000
0000
0000
0010
0000
0000
0000
0000
,  // measure 97
1000
0000
0000
0000
0100
0000
0000
0000
1000
0000
0000
0000
0000
0001
0000
0000
0000
0000
0001
0000
0000
1000
0000
0000
,  // measure 98
0000
0000
0010
0000
0000
0000
0010
0000
0000
0000
1000
0000
0000
0000
0000
0100
0000
0000
0000
0100
0000
0000
0000
1000
,  // measure 99
0000
0000
0000
0010
0000
0000
0000
0000
0000
0001
0000
0000
0000
1000
0000
0000
0000
0000
0010
0000
0000
0000
0000
1000
,  // measure 100
0000
0000
0000
0001
0000
0000
0000
1000
0000
0000
0000
0001
0000
0000
0000
1000
0000
0000
0000
0000
0000
0000
0000
0000
,  // measure 101
0000
0001
0000
0000
0000
1000
0000
0000
0000
0000
0000
0000
0001
0000
0000
0000
1000
0000
0000
0000
0000
0001
0000
1000
,  // measure 102
0000
0000
0000
0000
,  // measure 103
0000
0000
0000
0000
0000
2002
0000
0000
0000
0000
0000
0000
0000
0003
3000
0000
0000
0000
0000
0000
0000
0000
0000
0000
,  // measure 104
0000
0000
0000
2002
0000
0000
0000
0000
0000
0000
0000
3003
0000
0000
0000
0200
0020
0000
0000
0000
0000
0000
0000
0330
,  // measure 105
0000
0000
0000
0000
0000
0000
0000
1000
0000
0000
0000
0000
,  // measure 106
0000
0000
1000
0000
,  // measure 107
0000
0000
0000
0000
0000
0000
0000
0000
0000
0000
1001
0000
,  // measure 108
0000
0001
0000
0000
1000
0000
0000
0001
0000
1000
0000
0000
0000
0000
0000
0000
0000
0000
0000
0000
0000
0000
0000
0000
;
