#TITLE:BAD GIRLS;
#SUBTITLE:;
#ARTIST:X-EDIT;
#TITLETRANSLIT:;
#SUBTITLETRANSLIT:;
#ARTISTTRANSLIT:;
#CREDIT:;
#BANNER:BAD GIRLS.png;
#BACKGROUND:BAD GIRLS-bg.png;
#LYRICSPATH:BAD GIRLS.lrc;
#CDTITLE:215edit.png;
#MUSIC:BAD GIRLS.ogg;
#OFFSET:-0.434;
#SAMPLESTART:23.800;
#SAMPLELENGTH:17.000;
#SELECTABLE:YES;
#DISPLAYBPM:122.000;
#BPMS:0.000=122.300;
#STOPS:;
#BGCHANGES:7.500=BADGIRLS.avi=1.000=0=0=1,
159.500=BAD GIRLS-bg.png=1.000=1=0=1,
99999=-nosongbg-=1.000=0=0=0 // don't automatically add -songbackground-
;

//---------------dance-single - X-EDIT----------------
#NOTES:
     dance-single:
     X-EDIT:
     Challenge:
     16:
     0.883,0.880,1.000,0.430,0.825: // measure 1
0000
0000
0000
0000
,  // measure 2
0000
0000
0000
0000
0000
0000
0000
0110
,  // measure 3
1001
0000
0010
0100
0001
1000
0000
0200
0000
0000
0310
0000
0000
0000
0011
0000
,  // measure 4
1100
0000
1000
0100
0010
0001
0000
0000
0012
0000
0000
2003
0000
0000
3010
0000
,  // measure 5
1010
0000
0100
0001
0010
0000
1010
0000
0100
0001
0010
0000
2002
0000
0000
3003
,  // measure 6
0100
0001
1000
0010
1001
0000
1001
0000
1000
0100
0001
0100
1000
0000
0110
0000
,  // measure 7
0001
0100
1000
0100
0001
0010
1000
0010
0001
0100
1000
0100
1001
0000
1001
0000
,  // measure 8
0110
0100
0101
0000
0011
0010
1001
0000
1001
1000
0011
0000
0110
0100
1001
0000
,  // measure 9
1010
0000
0001
0100
1000
0000
1001
0000
0010
1000
0001
0000
0220
0000
0000
0330
,  // measure 10
1000
0001
1000
0001
0100
0010
0100
0010
1000
0000
0001
0100
0000
1000
0010
1000
,  // measure 11
0110
0000
1000
0100
0010
0100
1000
0001
0100
0010
0100
0001
1000
0000
1100
0000
,  // measure 12
0010
0010
0100
0100
1000
1000
0001
0001
0100
0100
0010
0010
1001
0000
0110
0000
,  // measure 13
1001
0000
0001
0010
0100
1000
0100
0010
0001
0100
1000
0100
0010
1000
0100
0010
,  // measure 14
0002
0000
1000
0000
1003
0000
0110
0000
1001
0000
0110
0000
0001
1000
0100
0000
,  // measure 15
0011
0000
0010
1000
0100
0000
0011
0000
2000
0000
0000
0000
3020
0000
0230
0000
,  // measure 16
0000
0000
2300
0000
0000
0000
0000
3000
0101
0000
0101
0000
0101
0000
0000
0000
,  // measure 17
1001
0000
0010
0000
0100
0002
0000
0000
2003
0000
0000
0000
0000
3000
0110
0000
,  // measure 18
0010
1000
0100
0012
0000
0000
0000
0003
1010
0000
1010
0000
0101
0000
0101
0000
,  // measure 19
0020
0000
0000
0030
1001
0000
0110
0000
1001
0000
0110
0000
1001
0000
2002
0000
,  // measure 20
0000
0000
0000
0000
0000
0000
0000
3003
,  // measure 21
0010
1000
0200
0000
0000
0000
0300
0000
0010
0001
0200
0000
0000
0300
1001
0000
,  // measure 22
0010
0100
0001
0100
1000
0100
0010
1000
0100
0010
0001
0010
0001
1000
0100
0010
,  // measure 23
0011
0100
2000
0000
0000
0000
0000
3000
0101
0010
2002
0000
0000
3003
1001
0000
,  // measure 24
1000
0001
0010
1000
0010
0001
0100
0010
1000
0100
1000
0100
0010
0001
0010
0100
,  // measure 25
1010
0100
0022
0000
0000
0000
0000
0033
1001
0110
2002
0000
0000
3003
1001
0000
,  // measure 26
0001
0100
1000
0100
0010
1000
0001
0010
0100
1000
0100
1000
0010
0100
0001
1000
,  // measure 27
0110
0011
1100
1001
0110
1010
0101
1010
,  // measure 28
0201
0301
2100
3100
0012
0013
1200
1300
,  // measure 29
1001
0010
0001
0010
0100
1000
0100
1000
0001
0010
0001
0010
0100
1000
0100
1000
,  // measure 30
0010
0100
0001
1000
0100
1000
0010
0100
0001
0010
0100
1000
0100
0010
0001
1000
,  // measure 31
0100
1000
0001
0100
0010
1000
0100
1000
0100
1000
0001
0100
0010
0100
0010
1000
,  // measure 32
0001
0010
0100
1000
0001
0100
1000
0100
0001
0010
1000
0010
0001
0100
0010
1000
,  // measure 33
1000
0010
1000
0010
0100
0000
1001
0000
0001
0010
0001
0010
0100
0000
1001
0000
,  // measure 34
0010
0100
0010
0100
0001
1000
0001
1000
0010
0100
0010
0100
0001
0010
0100
1000
,  // measure 35
1001
0110
2001
0000
0100
0100
3100
0011
,  // measure 36
2002
0000
0000
0000
0000
0000
3003
0000
1000
0010
1000
0001
1000
0100
0010
0001
,  // measure 37
0011
0011
1100
0010
1100
1100
0011
0100
,  // measure 38
1000
0010
0100
0001
0100
1000
0100
0001
0010
1000
0001
0100
1000
0001
0010
1000
,  // measure 39
0101
0100
2100
0000
0001
0001
3001
0110
,  // measure 40
2002
0000
0000
0000
0000
0000
3003
0000
0010
1000
0110
0000
0001
0010
1001
0000
;
