#TITLE:Animal Centuries [Mashup];
#SUBTITLE:;
#ARTIST:Maroon 5 & Fall Out Boy;
#TITLETRANSLIT:;
#SUBTITLETRANSLIT:;
#ARTISTTRANSLIT:;
#GENRE:;
#CREDIT:;
#BANNER:;
#BACKGROUND:Animal Centuries-bg.png;
#LYRICSPATH:;
#CDTITLE:;
#MUSIC:Animal Centuries.mp3;
#OFFSET:-1.010000;
#SAMPLESTART:71.000000;
#SAMPLELENGTH:12.000000;
#SELECTABLE:YES;
#DISPLAYBPM:0.000000;
#BPMS:0.000000=190.000000
;
#STOPS:
;
#BGCHANGES:;
#KEYSOUNDS:;
#ATTACKS:;

//---------------dance-single - ----------------
#NOTES:
     dance-single:
     :
     Beginner:
     1:
     0.105404,0.115486,0.021386,0.000000,0.000000,67.000000,2.000000,0.000000,0.000000,0.000000,0.000000,0.105404,0.115486,0.021386,0.000000,0.000000,67.000000,2.000000,0.000000,0.000000,0.000000,0.000000:
0000
0000
0000
0000
,
0000
0000
0000
0000
,
0000
0000
0000
0000
,
0000
0000
0000
0000
,
1000
0000
0000
0000
,
0001
0000
0000
0000
,
1000
0000
0000
0000
,
0001
0000
0000
0000
,
0100
0000
0000
0000
,
0010
0000
0000
0000
,
0100
0000
0000
0000
,
0010
0000
0000
0000
,
0001
0000
0000
0000
,
1000
0000
0000
0000
,
0001
0000
0000
0000
,
0100
0000
0000
0000
,
0001
0000
0000
0000
,
0010
0000
0000
0000
,
0001
0000
0000
0000
,
0100
0000
0000
0000
,
1001
0000
0000
0000
,
0100
0000
0000
0000
,
0001
0000
0000
0000
,
0010
0000
0000
0000
,
0100
0000
0000
0000
,
0010
0000
0000
0000
,
1000
0000
0000
0000
,
0001
0000
0000
0000
,
1000
0000
0000
0000
,
0100
0000
0000
0000
,
0001
0000
0000
0000
,
0010
0000
0000
0000
,
1000
0000
0000
0000
,
0100
0000
0000
0000
,
1000
0000
0000
0000
,
0100
0000
0000
0000
,
0001
0000
0000
0000
,
0010
0000
0000
0000
,
0100
0000
0000
0000
,
1000
0000
0000
0000
,
0100
0000
0000
0000
,
1000
0000
0000
0000
,
0001
0000
0000
0000
,
0010
0000
0000
0000
,
0001
0000
0000
0000
,
1000
0000
0000
0000
,
0100
0000
0000
0000
,
1000
0000
0000
0000
,
0010
0000
0000
0000
,
0100
0000
0000
0000
,
0001
0000
0000
0000
,
0001
0000
0000
0000
,
1000
0000
0000
0000
,
0000
0000
0000
0000
,
0001
0000
0000
0000
,
0000
0000
0000
0000
,
1001
0000
0000
0000
,
0100
0000
0000
0000
,
0001
0000
0000
0000
,
0100
0000
0000
0000
,
1000
0000
0000
0000
,
0001
0000
0000
0000
,
1000
0000
0000
0000
,
0001
0000
0000
0000
,
0100
0000
0000
0000
,
0010
0000
0000
0000
,
0001
0000
0000
0000
,
0010
0000
0000
0000
,
0001
0000
0000
0000
,
0001
0000
0000
0000
,
1000
0000
0000
0000
,
1000
0000
0000
0000
,
0001
0000
0000
0000
;

//---------------dance-single - ----------------
#NOTES:
     dance-single:
     :
     Easy:
     3:
     0.219973,0.271338,0.064159,0.085545,0.000000,130.000000,6.000000,8.000000,0.000000,0.000000,0.000000,0.219973,0.271338,0.064159,0.085545,0.000000,130.000000,6.000000,8.000000,0.000000,0.000000,0.000000:
0000
0000
0000
0000
,
0000
0000
0000
0000
,
0000
0000
0000
0000
,
0000
0000
0000
0000
,
1000
0000
0001
0000
,
0100
0000
0010
0000
,
1000
0000
0100
0000
,
1000
0000
0100
0000
,
0010
0000
0001
0000
,
0010
0000
0001
0000
,
1000
0000
0001
0000
,
1000
0000
0000
0000
,
0001
0000
0010
0000
,
0001
0000
1000
0000
,
0010
0000
0100
0000
,
0010
0000
1000
0000
,
0100
0000
1000
0000
,
0100
0000
1000
0000
,
0001
0000
1000
0000
,
0001
0000
1000
0000
,
1001
0000
0010
0000
,
0100
0000
0010
0000
,
1001
0000
0100
0000
,
0010
0000
0100
0000
,
1001
0000
0001
0000
,
0010
0000
0100
0000
,
1000
0000
0100
0000
,
0010
0000
0001
0000
,
1000
0000
0100
0000
,
0001
0000
0100
0000
,
0000
0000
0001
0000
,
0010
0000
0100
0000
,
0000
0000
0100
0000
,
0010
0000
0100
0000
,
1000
0000
0100
0000
,
0010
0000
0001
0000
,
1000
0000
0100
0000
,
1000
0000
0000
0000
,
0010
0000
0001
0000
,
0010
0000
0000
0000
,
0002
0003
0020
0030
,
0200
0300
1000
0000
,
0200
0300
2000
3000
,
0200
0300
0010
0000
,
0100
0000
0001
0000
,
0010
0000
0000
0000
,
0010
0000
0001
0000
,
0010
0000
0000
0000
,
1000
0000
0100
0000
,
0001
0000
0100
0000
,
1000
0000
0010
0000
,
0100
0000
1000
0000
,
0001
0000
1000
0000
,
1000
0000
0001
0000
,
0001
0000
1000
0000
,
0100
0000
0010
0000
,
1001
0000
0100
0000
,
0010
0000
0100
0000
,
1001
0000
0010
0000
,
0100
0000
0010
0000
,
0001
0000
0100
0000
,
0010
0000
1000
0000
,
0001
0000
0100
0000
,
0001
0000
1000
0000
,
0100
0000
0010
0000
,
0100
0000
0001
0000
,
0010
0000
0100
0000
,
1000
0000
0100
0000
,
0010
0000
0100
0000
,
1000
0000
0100
0000
,
0010
0000
0001
0000
,
0010
0000
0001
0000
,
0220
0000
0330
0000
;

//---------------dance-single - ----------------
#NOTES:
     dance-single:
     :
     Medium:
     6:
     0.371204,0.384953,0.074852,0.160397,0.000000,221.000000,7.000000,15.000000,0.000000,0.000000,0.000000,0.371204,0.384953,0.074852,0.160397,0.000000,221.000000,7.000000,15.000000,0.000000,0.000000,0.000000:
// measure 0
0000
0000
0000
0000
,  // measure 1
0000
0000
0000
0000
,  // measure 2
0000
0000
0000
0000
,  // measure 3
0000
0000
0000
0000
,  // measure 4
0001
0010
0100
2000
,  // measure 5
3000
0000
0000
1000
,  // measure 6
0001
0010
0100
2000
,  // measure 7
3000
0001
0010
0001
,  // measure 8
1000
0000
0001
2000
0000
0000
0000
0000
,  // measure 9
0000
3000
0000
0100
,  // measure 10
0010
0100
0001
0100
,  // measure 11
0010
0100
0010
0000
,  // measure 12
1000
0100
0010
0002
,  // measure 13
0000
0003
0000
1000
,  // measure 14
0001
0010
0100
1000
,  // measure 15
0000
1000
0100
1000
,  // measure 16
0001
0000
0010
0020
0000
0000
0000
0030
,  // measure 17
0001
1000
1000
0000
,  // measure 18
0100
1000
0100
1000
,  // measure 19
0001
0000
0010
0020
0000
0000
0000
0000
,  // measure 20
0030
0000
0000
1000
,  // measure 21
0100
0000
1000
0001
,  // measure 22
0000
0000
0001
0010
,  // measure 23
0100
0010
0001
0010
,  // measure 24
0000
0000
1000
0100
,  // measure 25
0010
0100
0001
0010
,  // measure 26
0100
0010
0100
0000
,  // measure 27
0100
0010
0002
0000
,  // measure 28
0003
0000
0000
0010
,  // measure 29
0100
0000
1000
0010
,  // measure 30
0000
0100
1000
0100
,  // measure 31
0001
0000
0100
0010
,  // measure 32
0000
0000
0100
0001
,  // measure 33
0010
0100
0010
0100
,  // measure 34
0001
1000
0100
1000
,  // measure 35
1000
0001
0100
0000
,  // measure 36
0010
1000
0100
0010
,  // measure 37
0002
0003
0100
0010
,  // measure 38
0100
1000
0100
0010
,  // measure 39
0002
0003
0010
0001
,  // measure 40
0010
0001
0010
0100
,  // measure 41
2000
3000
1000
0100
,  // measure 42
0010
0100
0010
0100
,  // measure 43
2000
3000
1000
0100
,  // measure 44
0001
0100
1000
0100
,  // measure 45
0002
0003
0001
0010
,  // measure 46
0001
0010
0100
0010
,  // measure 47
0002
0003
1000
0100
,  // measure 48
0010
0001
0020
0030
,  // measure 49
0010
0001
0020
0030
,  // measure 50
0001
0010
0100
0010
,  // measure 51
0110
0110
1001
0000
,  // measure 52
1000
0000
0101
0000
,  // measure 53
1000
0000
0011
0000
,  // measure 54
0001
0000
1010
0000
,  // measure 55
0001
0000
1100
0000
,  // measure 56
0001
0010
0001
0010
,  // measure 57
0100
1000
0100
1000
,  // measure 58
0010
1000
0100
1000
,  // measure 59
0010
1000
0100
0010
,  // measure 60
0001
0010
0001
0010
,  // measure 61
0100
0010
0100
0010
,  // measure 62
0001
0010
0100
1000
,  // measure 63
0010
0100
0010
1000
,  // measure 64
0001
1000
0100
1000
,  // measure 65
0001
0100
0010
0100
,  // measure 66
0001
0010
0100
0010
,  // measure 67
0001
0010
0100
1000
,  // measure 68
0100
0010
0100
1000
,  // measure 69
0001
0010
0001
1000
,  // measure 70
0010
1000
0001
0100
,  // measure 71
0001
0100
0010
0100
,  // measure 72
0001
0000
0000
0000
;

//---------------dance-single - ----------------
#NOTES:
     dance-single:
     :
     Hard:
     8:
     0.549932,0.694118,0.267328,0.748519,0.000000,265.000000,25.000000,70.000000,48.000000,0.000000,0.000000,0.549932,0.694118,0.267328,0.748519,0.000000,265.000000,25.000000,70.000000,48.000000,0.000000,0.000000:
0000
0000
0000
0000
,
0000
0000
0000
0000
,
0000
0000
0000
0000
,
0000
0000
0000
0001
,
1000
0100
1000
0020
,
0030
0000
0001
0000
0010
0000
0100
0010
,
0100
1000
0100
2000
,
3000
0100
0001
0000
0100
0000
0010
0000
,
1000
0000
0001
0002
0000
0000
0000
0000
,
1000
0000
0103
2000
0000
0000
3001
0000
,
1000
0000
0010
0020
0000
0000
1030
0000
,
0100
0000
0001
0002
0000
0000
0000
0003
,
0011
0110
1100
2000
,
0000
0000
3000
1001
,
0101
1010
0110
0002
,
0000
0010
0010
0000
0103
0000
0010
0000
,
0010
0000
0100
2000
0000
0000
0000
0000
,
3001
0000
0010
0200
0000
0300
0010
0000
,
0001
0000
0010
0200
0000
0000
1000
0300
,
0100
0000
0010
0002
0000
0000
0000
0000
,
1003
0000
0100
0000
0010
0000
0100
0010
,
0100
1000
0001
0010
,
1000
0000
0100
0000
0010
0001
0020
0000
,
0230
0000
0300
1000
0010
0100
0010
0000
,
0000
0000
0000
0000
0001
0000
0010
0100
,
0010
0000
0010
0100
0010
0100
1000
0000
,
0001
0000
0010
0002
0000
0000
1003
0000
,
0100
0000
0100
2000
0000
0000
3000
0000
,
0000
0000
0000
0000
0000
1000
0001
0010
,
0002
0000
0003
0100
0010
0100
2000
0000
,
3000
0110
1100
0011
,
2000
0000
3000
0100
1000
0100
0001
0000
,
0000
0000
0000
0000
0001
0000
0100
0010
,
0100
0000
0001
0010
0100
1000
0010
0000
,
1000
0000
0001
0020
0000
0000
1030
0000
,
0100
0000
0001
2000
0100
0010
0010
0000
,
3001
0000
0000
0000
1000
0000
0000
0000
0100
0000
0010
0000
0202
0000
0300
0003
,
2020
0000
3030
0000
0001
1000
0002
0000
,
0203
0000
0320
0000
1030
0100
2020
3030
,
0202
0303
0000
0000
1000
0100
0020
0000
,
0032
0000
0000
0010
0200
0000
0003
1000
,
0320
0000
0000
0030
0100
0001
0020
0030
,
0200
0000
0000
0010
2300
0000
3000
0001
,
2000
0000
3000
0000
1000
0100
0020
0030
,
0002
0003
1000
0000
1000
0100
0020
0030
,
0002
0003
0000
0000
0001
0010
0002
0003
,
0002
0003
0200
0300
0010
1000
0020
0000
,
2030
0000
3000
0000
0100
1000
0200
0000
,
0302
0000
0000
0010
0200
0000
0300
0013
,
2000
0000
0000
3000
0002
0000
0200
0000
,
0000
0000
0303
0000
,
1001
0110
1001
MMMM
,
M1MM
0000
MM1M
0000
MMM1
0000
1MMM
0100
,
0000
MM1M
MMM1
MM1M
,
M1MM
0000
1MMM
0000
MM1M
0000
M1MM
0001
,
0000
MM1M
MMMM
MMMM
,
0001
0000
0010
0000
0100
0000
0010
0200
,
0000
0300
1000
0000
0100
0000
0010
0000
,
0001
0000
0010
0000
0001
0000
0001
0020
,
0000
1000
0130
0000
1000
0000
1000
0000
,
0010
0000
1000
0002
0000
0000
0000
0000
,
0010
0000
0103
2000
0000
3000
0100
0000
,
0002
0000
0013
0200
0000
0300
2000
0000
,
0100
0000
3010
0002
0000
0000
0003
0000
,
1100
0000
0110
0000
0011
0000
0001
0020
,
0000
0000
0000
0030
0001
0000
1100
0000
,
0110
0000
1001
0000
0110
0000
0001
2000
,
0000
3100
0010
0100
,
0001
0000
0010
0200
0000
0000
0000
0000
,
0001
0000
0310
0020
0000
0000
1030
0000
,
0001
0000
0100
0200
0000
0000
1300
0000
,
0010
0000
0001
1002
0000
0000
2000
0000
,
0000
3003
0000
0000
0000
0000
0000
0000
;
