#VERSION:0.83;
#TITLE:ACE FOR ACES;
#SUBTITLE:;
#ARTIST:TAGĂ—U1;
#TITLETRANSLIT:;
#SUBTITLETRANSLIT:;
#ARTISTTRANSLIT:;
#GENRE:;
#ORIGIN:;
#CREDIT:;
#BANNER:ACE FOR ACES (Challenge Chart).png;
#BACKGROUND:ACE FOR ACES (Challenge Chart)-bg.png;
#PREVIEWVID:;
#JACKET:ACE FOR ACES (Challenge Chart)-jacket.png;
#CDIMAGE:;
#DISCIMAGE:;
#LYRICSPATH:;
#CDTITLE:;
#MUSIC:ACE FOR ACES (Challenge Chart).ogg;
#OFFSET:0.000000;
#SAMPLESTART:73.650002;
#SAMPLELENGTH:15.000000;
#SELECTABLE:YES;
#DISPLAYBPM:50.000000:400.000000;
#BPMS:0.000=200.000;
#STOPS:;
#DELAYS:;
#WARPS:;
#TIMESIGNATURES:0.000=4=4;
#TICKCOUNTS:0.000=4;
#COMBOS:0.000=1;
#SPEEDS:0.000=1.000=0.000=0;
#SCROLLS:0.000=1.000;
#FAKES:;
#LABELS:0.000=Song Start;
#BGCHANGES:0.000=ACE FOR ACES.avi=1.000=0=0=0=StretchNoLoop====,
99999=-nosongbg-=1.000=0=0=0 // don't automatically add -songbackground-
;
#KEYSOUNDS:;
#ATTACKS:
;

//---------------dance-single - ----------------
#NOTEDATA:;
#CHARTNAME:;
#STEPSTYPE:dance-single;
#DESCRIPTION:;
#CHARTSTYLE:;
#DIFFICULTY:Beginner;
#METER:4;
#RADARVALUES:0.135885,0.242320,0.039306,0.078611,0.000000,121.000000,116.000000,5.000000,10.000000,0.000000,0.000000,0.000000,0.000000,0.000000,0.135885,0.242320,0.039306,0.078611,0.000000,121.000000,116.000000,5.000000,10.000000,0.000000,0.000000,0.000000,0.000000,0.000000;
#CREDIT:;
#DISPLAYBPM:50.000000:400.000000;
#NOTES:
0000
0000
0000
0000
,
0000
0000
0000
0000
,
0000
0000
0000
0000
,
0000
0000
0000
0000
,
0000
0000
0000
0000
,
0000
0000
0000
0000
,
1000
0000
0000
0000
,
0001
0000
0000
0000
,
0200
0000
0000
0300
,
0000
0000
0000
0000
,
1000
0000
1000
0000
,
0000
0000
0000
0000
,
0001
0000
0001
0000
,
0000
0000
0000
0000
,
0010
0000
0010
0000
,
0000
0000
0000
0000
,
0100
0000
0100
0000
,
0000
0000
0000
0000
,
0000
0000
0000
0000
,
1000
0000
1000
0000
,
0001
0000
0000
0000
,
0001
0000
0001
0000
,
1000
0000
0000
0000
,
0100
0000
0100
0000
,
0001
0000
0000
0000
,
0100
0000
0100
0000
,
0010
0000
0000
0000
,
1000
0000
1000
0000
,
0100
0000
1000
0000
,
0001
0000
0000
0000
,
0010
0000
0010
0000
,
0001
0000
0001
0000
,
0100
0000
0001
0000
,
1000
0000
0000
0000
,
0010
0000
0000
0000
,
2002
0000
0000
0000
,
0000
0000
0000
3003
,
0000
0000
0000
0000
,
0000
0000
0000
0000
,
1000
0000
0000
0000
,
0010
0000
0000
0000
,
0100
0000
0000
0000
,
0000
0000
0000
0000
,
0001
0000
0001
0000
,
0010
0000
0000
0000
,
1000
0000
1000
0000
,
0010
0000
0000
0000
,
0001
0000
0000
0000
,
1000
0000
0000
0000
,
0001
0000
0000
0000
,
0110
0000
0000
0000
,
0000
0000
0000
0000
,
0000
0000
0000
0000
,
0010
0000
0000
0000
,
0000
0000
0000
0000
,
0010
0000
0000
0000
,
0000
0000
0000
0000
,
2002
0000
0000
0000
,
0000
0000
0000
3003
,
0000
1000
0000
0001
,
0000
1000
0000
0001
,
0000
0000
0000
0000
,
1000
1000
0000
0000
,
0001
0001
0001
0000
,
0001
0000
0010
0000
,
1000
0000
0000
0000
,
0010
0000
0000
0000
,
0001
0000
0000
0000
,
2000
0000
0000
0000
,
3100
0000
0000
0000
,
0001
0001
0000
0000
,
1000
1000
1000
0000
,
1000
0000
0010
0000
,
0001
0000
0000
0000
,
0010
0000
0000
0000
,
1000
0000
0000
0000
,
0001
0000
0010
0000
,
0001
0000
0100
0000
,
0020
0000
0000
0030
,
0000
0000
0000
0000
,
0200
0000
0000
0300
,
0000
0000
0000
0000
,
1000
0000
1000
0000
,
0100
0000
0100
0000
,
0010
0000
0000
0000
,
0001
0000
0000
0000
,
0001
0000
0001
0000
,
0100
0000
0100
0000
,
0010
0000
0000
0000
,
1000
0000
1000
0000
,
1000
0000
1000
0000
,
0100
0000
0100
0000
,
0010
0000
0000
0000
,
0001
0000
0000
0000
,
0001
0000
0001
0000
,
1000
0000
1000
0000
,
0010
0000
0010
0000
,
0100
0000
0100
0000
,
1001
0000
0000
0000
,
0000
0000
0010
0000
,
0010
0000
0000
0000
,
0000
0000
2002
0000
,
0000
0000
0000
3003
;

//---------------dance-single - ----------------
#NOTEDATA:;
#CHARTNAME:;
#STEPSTYPE:dance-single;
#DESCRIPTION:;
#CHARTSTYLE:;
#DIFFICULTY:Easy;
#METER:7;
#RADARVALUES:0.368351,0.484639,0.133639,0.165084,0.000000,328.000000,311.000000,17.000000,21.000000,0.000000,0.000000,0.000000,0.000000,0.000000,0.368351,0.484639,0.133639,0.165084,0.000000,328.000000,311.000000,17.000000,21.000000,0.000000,0.000000,0.000000,0.000000,0.000000;
#CREDIT:;
#DISPLAYBPM:100.000000:200.000000;
#NOTES:
0000
0000
0000
0000
,
0000
0000
0000
0000
,
0000
0000
0000
0000
,
0000
0000
0000
0000
,
0000
0000
0000
0000
,
0000
0000
0000
0000
,
1000
0000
0000
0000
,
0001
0000
0100
0000
,
0001
0010
0100
1000
,
0100
0000
0101
0000
,
1000
0001
0010
0001
,
1000
0100
1000
0001
,
0010
0001
1000
0100
,
1000
1001
0001
0110
,
0001
1000
0010
1000
,
0001
0100
0001
1000
,
0010
1000
0001
0100
,
0001
1001
1000
0110
,
0220
0000
0330
0000
,
0001
1000
0001
0010
,
0001
0100
1000
0100
,
0001
0010
1000
0010
,
0001
1000
0100
1000
,
1000
0001
1000
0010
,
1000
0100
0001
0100
,
1000
0010
0001
0010
,
1000
0001
0100
0010
,
1000
0100
1000
0100
,
0001
0100
0001
0100
,
1000
0001
1000
0001
,
0010
0001
0010
0010
,
0001
0100
0001
0100
,
1000
0100
1000
0100
,
0001
1000
1000
0001
,
1000
1000
0001
0100
,
1002
0000
0100
0000
,
0103
0000
0000
0000
,
0020
0000
1000
0000
,
1030
0010
0100
0001
,
1000
0000
0001
0001
,
1000
0000
1001
0000
,
0001
0010
0100
1000
,
0010
0100
0001
0000
,
2001
0000
0100
0000
,
3002
0000
0100
0003
,
0020
0000
0001
0000
,
0130
0000
1000
0100
,
0001
0000
1000
0100
,
0001
0000
1000
0100
,
1001
0000
0010
0000
,
0110
0000
1000
0001
,
0210
0000
0000
0000
,
0010
0000
0310
0000
,
1000
1000
0001
0001
,
1000
0010
0100
0000
,
0001
0001
1000
1000
,
0001
0010
0100
0000
,
1000
1000
0001
0001
,
1000
0010
0001
0010
,
1000
1000
0001
0001
,
0010
0010
0100
0100
,
0000
0000
0000
0000
,
1000
0100
0001
0100
,
1000
0001
0010
0001
,
1000
1000
0100
1000
,
0001
1000
0100
0000
,
1000
0010
0001
0010
,
2000
0000
0100
3100
,
0002
0000
1000
1003
,
0001
0010
0100
0010
,
0001
0100
1000
0100
,
0001
1000
0010
1000
,
0001
0001
0100
0001
,
1000
0001
0020
0030
,
0001
0010
1000
0010
,
0001
0100
1000
0000
,
0100
0001
0100
0010
,
2000
0000
3001
0000
,
0012
1000
0100
0003
,
2010
0001
0100
3000
,
0010
1000
0100
0100
,
0010
0001
0100
0000
,
0001
0100
0000
1000
0000
0000
0000
0000
,
0001
0100
0000
1000
0000
0000
0000
0000
,
0002
0000
0010
0000
,
2003
0000
0010
3010
,
1000
0100
0000
0001
0000
0000
0000
0000
,
1000
0100
0000
0001
0000
0000
0000
0000
,
2000
0000
3010
0000
,
0002
0000
0010
0013
,
0001
0000
0010
0001
0000
0000
0000
0000
,
0001
0000
1000
0100
0000
0000
0000
0000
,
1000
1000
0001
0001
,
1000
0100
0010
0001
,
0010
0001
0100
1000
,
0100
0001
1000
0100
,
0010
0001
0010
1000
,
0020
0000
0130
0000
,
1001
0000
0010
0000
,
0001
0000
1100
0000
,
1000
0100
1000
0100
,
1000
0010
2002
0000
,
0000
0000
0000
3003
;

//---------------dance-single - ----------------
#NOTEDATA:;
#CHARTNAME:;
#STEPSTYPE:dance-single;
#DESCRIPTION:;
#CHARTSTYLE:;
#DIFFICULTY:Medium;
#METER:13;
#RADARVALUES:0.560387,0.736687,0.251557,0.204390,0.133639,499.000000,467.000000,32.000000,26.000000,0.000000,0.000000,0.000000,0.000000,0.000000,0.560387,0.736687,0.251557,0.204390,0.133639,499.000000,467.000000,32.000000,26.000000,0.000000,0.000000,0.000000,0.000000,0.000000;
#CREDIT:;
#OFFSET:0.000000;
#BPMS:0.000000=100.000000
,20.000000=200.000000
,52.000000=800.000000
,63.875000=200.000000
,128.000000=100.000000
,160.000000=200.000000
;
#STOPS:63.875000=0.272000
,200.250000=0.300000
,347.000000=0.300000
,347.500000=0.150000
,348.000000=0.150000
,348.500000=0.150000
,349.000000=0.300000
,349.500000=0.450000
,350.000000=0.300000
,350.500000=0.150000
,351.000000=0.150000
,351.500000=0.600000
;
#DELAYS:;
#WARPS:;
#TIMESIGNATURES:0.000000=4=4
;
#TICKCOUNTS:0.000000=4
;
#COMBOS:0.000000=1
;
#SPEEDS:0.000000=1.000000=0.000000=0
;
#SCROLLS:0.000000=1.000000
;
#FAKES:;
#LABELS:0.000000=Song Start
;
#DISPLAYBPM:100.000000:200.000000;
#NOTES:
0000
0000
0000
0000
,
0000
0000
0000
0000
,
0000
0000
0000
0000
,
1000
0000
0001
1000
,
0010
0100
0001
0000
0100
0000
1001
0000
,
1000
0000
0001
0010
0001
0000
1000
0200
,
0000
0001
0000
1000
,
0000
0010
0000
1300
,
1100
0011
1010
0101
,
0001
0000
1000
0100
1000
0000
0001
0010
,
0001
0000
0100
0010
0100
0000
0001
0100
,
0001
0000
0010
0100
1000
0000
0100
0010
,
1000
0000
0010
0001
0100
0000
1000
0000
,
0200
0000
0000
0000
,
0000
0000
0000
0000
,
0000
0000
0000
0300
,
0001
1000
0000
0100
1000
0000
0001
0000
,
1000
0100
0000
1000
0001
0000
0000
0000
,
0001
0010
0100
1000
0010
0100
0001
0000
,
1000
0100
0010
0110
,
1000
0001
0000
0100
0001
0000
0000
0000
,
0001
0100
0000
0001
1000
0000
0000
0000
,
1000
0100
1000
0001
0100
0010
1000
0000
,
0001
0000
0100
0001
0010
0000
0100
0000
,
1000
0100
1000
0001
0010
0001
0100
0000
,
0000
0001
1000
0100
1000
0001
0010
0000
,
0001
0100
1000
0100
0010
0100
0001
0000
,
0000
0000
1000
0000
0001
0000
0000
0000
1000
0000
0000
0001
0000
0000
0100
0000
,
0001
0100
0001
1000
0010
1000
0100
0000
,
0000
1000
0001
0100
0001
1000
0010
0000
,
0000
0000
1000
0000
0001
0000
1000
0000
0010
0000
0000
0100
0000
0000
0001
0000
,
0000
0001
1000
0000
0001
0100
0001
1000
,
0001
0010
0001
1000
1000
0100
1000
0010
,
0100
0001
0010
0001
1000
0000
0100
0000
1100
0000
0000
0000
0000
0000
0000
0000
,
0001
0000
1000
0100
1000
0000
0110
0000
,
0001
0100
0010
0000
0100
0000
0000
0000
0001
1000
0100
1000
0001
0000
0000
0000
,
0010
0001
1000
0100
1000
0001
0100
0010
,
1000
0000
0000
0000
0000
0000
0100
0000
0000
0000
0000
0000
1000
0000
0000
0100
0000
0000
0010
0000
0000
0001
0000
0000
1000
0000
0000
0000
0001
0000
0000
0000
1000
0000
0000
0000
0001
0000
0000
0000
0000
0000
0000
0000
0000
0000
0000
0000
,
0001
0000
1000
0100
1000
0000
0100
0000
1000
0000
0010
0000
0101
0000
0000
0000
,
0001
0000
1000
0000
0100
0000
1000
0000
0000
0110
0000
0000
1001
0000
0000
0000
0000
0000
1000
0000
0000
0001
0000
0000
,
0100
0010
1000
0000
0100
0010
0001
0000
,
0100
0010
0100
0000
0001
1000
0001
0000
,
0100
0000
0000
0001
0000
0000
0100
0000
0001
0000
0000
1000
0000
0000
0100
0000
,
1000
0000
0000
0001
0000
0000
1000
0000
0001
0000
0010
0000
0100
0000
1000
0000
,
0100
0000
0000
1000
0000
0000
0100
0000
1000
0000
0000
0001
0000
0000
0100
0000
,
0001
0000
0000
1000
0000
0000
0001
0000
1000
0000
0010
0000
1000
0000
0001
0000
,
0100
0000
0000
0001
0000
0000
0100
0000
0001
0000
0000
1000
0000
0000
0100
0000
,
1000
0000
0000
0001
0000
0000
1000
0000
0001
0000
0010
0000
0100
0000
1000
0000
,
1000
0000
0000
0100
0000
0000
1000
0000
0001
0000
0000
0010
0000
0000
0001
0000
,
1000
0000
0000
0100
0000
0000
0001
0000
0100
0000
1000
0000
0010
0000
0001
0000
,
0000
0010
0001
1000
0100
1000
0010
1000
,
0001
0000
0001
0000
1100
0000
1000
0010
,
0100
0001
0020
0000
0130
0000
1000
0100
,
0000
0100
0001
0000
0100
0000
1000
0001
,
0000
0110
0000
0000
0011
0000
1000
0000
,
0000
0001
0000
0000
0000
0000
0010
0000
0000
0001
0000
0000
1000
0000
0000
0000
,
0000
0100
0000
0000
0000
0000
0000
0000
1000
0000
0100
0000
1000
0000
0001
0000
,
0100
0010
0000
0000
1000
0001
1000
0000
,
0000
0001
0100
0010
1000
0000
0001
0000
,
1100
0000
0001
0000
1000
0000
0001
0010
,
0100
1000
0200
0000
0310
0000
0001
0100
,
0000
1000
0100
0000
0001
0000
0001
1000
,
0000
0000
0110
0000
0000
0000
0000
0000
1001
0000
0000
0000
0001
0000
0000
1000
,
0000
0000
0001
0000
1000
0000
0000
0010
0000
0000
0100
0000
0001
0000
0000
0000
,
0000
0100
0000
0000
0000
0000
0000
0000
0001
0000
0000
0000
1000
0000
0000
0001
,
0000
0000
1000
0000
0001
0000
0000
0010
0000
0000
0100
0000
2000
0000
0000
0000
,
0000
0000
3001
0000
0010
0002
0000
0000
,
1000
0100
0100
0023
,
0000
0000
0000
0000
0000
0000
0000
0030
0100
0000
0010
0000
0001
0000
0100
0000
,
0001
0000
0010
0001
1000
0000
0001
0010
,
0100
0000
1000
0010
1000
0000
0001
0100
,
1000
0000
0100
0010
0001
0000
0001
0010
,
1000
0000
0100
0010
0001
0000
1000
0100
,
1000
0000
0101
0000
0001
0000
1000
0010
,
0100
0000
1000
0100
0001
0000
1000
0100
,
0001
0000
0100
0010
1000
0000
1000
0010
,
0001
0000
0100
0010
1000
0000
0001
0100
,
0001
0000
1100
0000
1000
0000
0001
0010
,
0100
0000
0001
0100
1000
0000
0001
0010
,
1000
0010
0001
0010
0001
0000
1000
0010
,
0001
0010
1000
0010
1000
0000
0001
0100
,
0010
1000
0100
1000
0010
0100
0001
0000
,
0110
0000
1100
0000
0110
0000
0001
0010
,
0001
1000
0100
0000
1100
0000
0100
0010
,
0001
1000
0000
0000
0110
0000
0001
1000
,
0001
0010
0001
0100
1000
0100
0002
0000
,
0000
0000
0000
0000
0000
0000
0000
0000
0000
0000
0000
0000
0000
0000
0000
0000
0200
0000
0000
0000
0000
0000
0000
0000
0000
0000
0000
0000
0000
0000
0000
0000
0303
0000
0000
0000
0000
0000
0000
0000
0000
0000
0000
0000
0000
0000
0000
0000
2002
3003
0000
0000
0000
0000
0000
0000
0220
0330
0000
0000
0000
0000
0000
0000
,
0002
0003
0000
0000
0000
0000
0000
0000
2000
3000
0000
0000
0000
0000
0000
0000
0020
0030
0000
0000
0000
0000
0000
0000
1001
0000
0000
0000
0000
0000
0000
0000
0202
0303
0000
0000
0000
0000
0000
0000
2020
3030
0000
0000
0000
0000
0000
0000
0202
0303
0000
0000
0000
0000
0000
0000
2020
3030
0000
0000
0000
0000
0000
0000
,
2002
0000
0000
0000
,
0000
3003
0000
0000
;

//---------------dance-single - ----------------
#NOTEDATA:;
#CHARTNAME:;
#STEPSTYPE:dance-single;
#DESCRIPTION:;
#CHARTSTYLE:;
#DIFFICULTY:Hard;
#METER:15;
#RADARVALUES:0.784991,2.048933,0.322307,0.188667,0.216181,699.000000,658.000000,41.000000,24.000000,0.000000,0.000000,0.000000,0.000000,0.000000,0.784991,2.048933,0.322307,0.188667,0.216181,699.000000,658.000000,41.000000,24.000000,0.000000,0.000000,0.000000,0.000000,0.000000;
#CREDIT:;
#OFFSET:0.000000;
#BPMS:0.000000=100.000000
,20.000000=400.000000
,84.000000=800.000000
,98.000000=400.000000
,226.000000=50.000000
,234.000000=100.000000
,250.000000=200.000000
,293.000000=400.000000
,586.000000=600.000000
,586.500000=400.000000
,595.500000=100.000000
;
#STOPS:96.000000=0.150000
,289.500000=0.300000
,581.000000=0.375000
,581.500000=0.225000
,582.000000=0.225000
,582.500000=0.225000
,586.000000=0.550000
,589.500000=0.225000
,590.000000=0.225000
,595.500000=1.350000
;
#DELAYS:;
#WARPS:;
#TIMESIGNATURES:0.000000=4=4
;
#TICKCOUNTS:0.000000=4
;
#COMBOS:0.000000=1
;
#SPEEDS:0.000000=1.000000=0.000000=0
;
#SCROLLS:0.000000=1.000000
;
#FAKES:;
#LABELS:0.000000=Song Start
;
#DISPLAYBPM:100.000000:200.000000;
#NOTES:
0000
0000
0000
0000
,
1001
0001
0010
0001
1100
0000
0000
0000
,
1000
0100
0010
0001
0010
0000
0001
0100
0010
0100
0001
0010
0001
1000
0010
0100
,
0001
0000
0000
0100
0010
0000
1000
0000
0001
0000
0000
0000
1100
0000
0010
0000
,
1000
0100
1000
0010
0100
0001
0010
0001
1000
0001
0100
0000
1000
0000
0000
0000
,
0100
0010
1000
0000
0001
0000
1000
0000
,
0001
0100
0001
1000
,
0010
1000
0001
0100
,
1000
0001
0010
1000
,
0100
0001
0100
1000
,
0001
1000
0001
0100
,
0001
0100
0000
0000
0100
1000
0000
0000
,
1000
0010
0000
0000
0010
0001
0000
0000
,
0100
0010
0001
0000
1000
0000
0001
0000
,
1000
0100
1000
0001
,
0010
0001
1000
0100
,
0001
1000
0010
0001
,
0100
1000
0100
0001
,
1000
0001
1000
0100
,
1000
0100
0000
0000
0100
0001
0000
0000
,
0001
0010
0000
0000
0010
1000
0000
0000
,
2002
0000
0000
0000
,
0000
0000
0000
0000
,
0000
0000
0000
0000
,
3003
0000
0000
0000
0010
0000
0000
0001
,
0000
1000
0001
1000
,
1000
0100
1000
0001
,
0010
0001
1000
0100
,
1000
0000
0001
1000
,
0100
1000
0010
0100
,
0001
0010
1000
0010
,
0001
1000
1100
0000
,
0011
0000
0000
0000
1000
0000
0000
0001
,
0000
0001
1000
0001
,
0001
0100
0001
1000
,
0010
1000
0001
0100
,
0001
0000
1000
0001
,
0100
0001
0010
0100
,
1000
0001
0010
1000
,
0010
0001
0101
0000
,
1010
0000
0000
0000
0001
0100
0001
0000
,
1000
0010
0000
0010
,
0100
0000
0001
0000
0001
0100
0001
0000
,
1000
0010
0000
0010
,
0100
0000
0001
0000
1000
0010
1000
0000
,
0001
0100
0000
0100
,
0010
1000
0001
0100
,
0001
0000
0000
0000
1010
0000
0000
0101
,
0000
0000
0000
0110
0000
0000
0000
0000
1000
0000
0100
0000
1000
0000
0000
0000
,
0001
0010
0000
0010
,
0100
0000
1000
0000
1000
0100
1000
0000
,
0001
0010
0000
0010
,
0100
1000
0001
0010
,
0001
0000
0000
0000
0100
0000
0000
1000
,
0000
0100
0000
0001
,
1000
0000
0010
0100
,
0000
0000
0000
0000
0000
0000
0000
0000
1000
0001
0010
0001
1000
0100
0010
0001
,
0010
0000
0000
0001
0000
0000
0100
0000
0000
0001
0000
0000
1000
0000
0100
0000
0001
0000
0100
0000
1000
0000
0100
0000
0010
0000
0000
0000
0000
0000
1001
0000
0000
0000
0000
0000
0010
0000
0000
0100
0000
0000
0010
0000
0000
0000
0000
0000
,
1000
0000
0000
0100
0000
0000
0001
0000
0000
0100
0000
0000
0010
0000
0100
0000
1000
0000
0010
0000
0001
0000
1000
0000
0100
0000
0000
0000
0000
0000
0001
0000
0000
0000
0000
0000
1000
0000
0000
0010
0000
0000
0100
0000
0000
0001
0000
0000
,
1000
0000
0100
0000
0001
0000
0100
0000
0010
0000
0100
0000
1000
0001
0100
0010
,
1000
0000
0000
0000
0100
0000
0000
0000
0001
0000
0000
0000
1000
0000
0000
0000
0000
0000
0010
0000
0000
0000
0000
0000
0001
0000
0000
0000
0000
0000
0100
0000
0000
0010
0000
0000
1000
0000
0000
0000
0000
0000
0001
0000
0000
0000
0000
0000
,
0100
0000
0000
0000
0000
0000
0000
0000
0000
1000
0000
0000
0100
0000
0000
0000
0000
0000
0000
0000
0000
0000
0000
0000
1000
0000
0000
0000
0100
0000
0000
0000
0010
0000
0000
0000
1000
0000
0000
0000
0000
0000
0110
0000
0000
0000
0000
0000
,
1000
0000
0000
0000
0000
0000
0000
0000
0000
0000
0000
0000
1000
0000
0100
0000
0010
0000
0001
0000
0000
0000
0000
0000
1002
0000
0000
0000
0000
0000
0000
0000
0000
0000
0000
0000
0000
0000
0000
1000
0000
0000
0000
0000
0000
0000
0000
0000
,
0000
0000
0000
0100
0000
0000
0000
0000
0000
1000
0000
0000
0000
0000
0000
0100
,
0000
0000
0000
1000
0000
0000
0003
0000
1000
0100
1000
0000
0001
0000
0010
0000
,
0001
0000
1000
0000
0001
0000
0100
0000
0001
0010
0001
0000
1000
0000
0001
0000
,
1000
0000
0100
0000
1000
0000
0000
0000
0001
0100
0001
0000
1000
0000
0010
0000
,
1000
0000
0001
0000
1000
0000
0100
0000
1000
0010
1000
0000
0001
0000
1000
0000
,
0001
0000
0100
0000
0001
0000
0000
0000
1000
0100
1000
0000
0001
0000
0010
0000
,
0001
0000
1000
0000
0001
0000
0100
0000
0001
0010
0001
0000
1000
0000
0001
0000
,
1000
0100
1000
0000
1000
0100
0010
0001
,
0010
0100
0010
0001
0100
0010
1000
0100
,
1000
0000
0001
0000
1000
0000
0001
0000
0000
0000
0100
0010
1000
0000
0100
0000
,
0010
0001
0100
0000
0000
0000
0001
0000
,
0001
0000
1000
0100
1000
0000
0001
0000
,
1000
0000
0100
0000
0000
1000
0000
0000
,
0001
0000
1000
0000
0001
0100
0010
0100
,
0000
0000
0001
0000
0000
0100
0000
0000
,
1000
0000
0100
0000
0000
0000
0001
0010
,
0001
0100
0010
0001
,
1000
0000
0100
1000
0000
0001
0000
1000
,
0100
1000
0100
0010
,
0001
0000
1000
0000
0000
0100
0000
0000
,
0001
0100
1000
0010
,
0100
0001
1000
0100
,
1000
0001
1000
0100
,
1000
0010
0100
0001
,
1000
0001
0010
0100
,
1000
0001
1000
0000
0100
0000
0010
0000
,
0001
1000
0000
0001
,
1000
0000
0000
0000
0001
0100
0001
0000
,
0100
0001
1000
0010
,
0100
0000
0101
0000
0100
0001
1000
0000
,
0100
1000
0001
1000
,
0010
0001
1000
0100
,
0001
0000
0011
0000
0000
0110
0000
0000
,
1001
2002
0000
3003
,
0001
0010
0001
0000
1000
0000
0100
0000
,
1000
0001
0010
1000
,
0000
0010
0001
0100
,
1000
0100
0001
0010
,
0001
1000
0001
0000
0100
0000
1000
0000
,
0100
0001
0010
1000
,
0000
0000
0010
0000
0000
0000
0001
0100
,
0001
1000
0100
1000
,
0100
1100
0000
0110
,
0000
0011
0000
1000
,
0100
1001
0000
0110
,
0000
1001
0000
0000
,
0000
0001
0010
0100
,
1000
0100
0010
0001
,
1000
0100
1000
0001
,
0010
0001
1000
0001
,
0000
1000
0100
1000
,
0001
0010
0001
0000
1000
0000
0010
0000
,
0000
0001
0010
1000
,
0100
1000
0100
0000
0010
0000
0001
0000
,
0000
0020
0000
1000
,
1000
0100
0000
0100
,
0030
0200
0000
0001
,
0001
0010
0000
0010
,
0300
0000
0001
0000
0000
0010
0001
0000
,
1001
1000
0100
0010
,
0100
0000
1000
0000
0000
0010
1000
0000
,
1001
0001
0100
0010
,
0100
0000
0010
0000
0000
0100
0001
0000
,
0101
0100
0010
1000
,
0100
0002
0000
0000
,
0000
0103
1000
0100
,
1000
0000
0010
1000
0100
0000
1000
0000
,
0001
1000
0100
1000
,
0100
0000
1000
0100
1000
0000
0001
0000
,
0010
0001
1000
0100
,
1000
0000
0001
0010
0001
0000
1000
0000
,
0100
1000
0010
0100
,
0001
0000
1000
0100
1000
0000
0010
0000
,
0100
0000
0001
0100
0001
0000
1000
0000
,
0100
0000
1000
0001
1000
0000
0100
0000
,
0010
0001
0100
0010
,
1000
0100
1000
0100
0010
0000
0100
0000
,
1000
0010
0001
0010
,
1000
0000
0001
0010
0001
0000
1000
0000
,
0010
0100
0010
0000
0001
0000
1000
0000
,
0001
1100
0000
0110
,
0000
0011
0000
1001
,
0000
0000
0000
0000
0000
0000
0000
0000
2002
3003
0000
0000
2200
3300
0000
0000
0022
0033
0000
0000
0220
0330
0000
0000
0100
0000
0000
0000
0000
0000
0000
0000
,
0001
0000
0000
0000
0000
0000
0000
0000
0000
0000
0000
0000
0000
0000
0000
0000
2200
3300
0000
0000
1000
0000
0000
0000
0000
0000
0000
0000
0001
0000
0000
0000
,
0000
0000
0000
0000
0000
0000
0000
0000
0000
0000
0000
0000
2200
3300
0000
0000
0202
0303
0000
0000
1100
0000
0000
0000
0000
0000
0000
0000
0000
0000
0000
0000
,
0000
0000
0010
0000
0000
0000
0001
0000
0000
0000
1000
0000
0000
0000
2002
3003
;

//---------------dance-double - ----------------
#NOTEDATA:;
#CHARTNAME:;
#STEPSTYPE:dance-double;
#DESCRIPTION:;
#CHARTSTYLE:;
#DIFFICULTY:Easy;
#METER:7;
#RADARVALUES:0.370597,0.484639,0.133639,0.180806,0.000000,330.000000,313.000000,17.000000,23.000000,0.000000,0.000000,0.000000,0.000000,0.000000,0.370597,0.484639,0.133639,0.180806,0.000000,330.000000,313.000000,17.000000,23.000000,0.000000,0.000000,0.000000,0.000000,0.000000;
#CREDIT:;
#DISPLAYBPM:100.000000:200.000000;
#NOTES:
00000000
00000000
00000000
00000000
,
00000000
00000000
00000000
00000000
,
00000000
00000000
00000000
00000000
,
00000000
00000000
00000000
00000000
,
00000000
00000000
00000000
00000000
,
00000000
00000000
00000000
00000000
,
10000000
00000000
00000000
00000000
,
00010000
00000000
01000000
00000000
,
00100000
00010000
00001000
00010000
,
00000100
00000000
00000110
00000000
,
00001000
00000001
00000010
00000001
,
00000100
00001000
00010000
00001000
,
00100000
00010000
00100000
00001000
,
01000000
01100000
10000000
01100000
,
00010000
10000000
00100000
10000000
,
01000000
00010000
00001000
00010000
,
00000010
00001000
00000010
00010000
,
00000100
00000110
00000001
00000110
,
00002002
00000000
00003003
00000000
,
00000001
00001000
00000001
00000010
,
00001000
00010000
00100000
01000000
,
00010000
00100000
10000000
00100000
,
00010000
10000000
01000000
00010000
,
01000000
10000000
10000000
00100000
,
00010000
00001000
00000010
00000100
,
00001000
00000010
00000001
00000010
,
00001000
00000001
00000100
00001000
,
00010000
00001000
00010000
00001000
,
00010000
01000000
00010000
01000000
,
10000000
00010000
10000000
00010000
,
00100000
00001000
00100000
00100000
,
00001000
00010000
00001000
00010000
,
00001000
00000100
00001000
00000100
,
00000001
00001000
00000001
00001000
,
00000010
00010000
00001000
00010000
,
00002000
00000000
01000000
00000000
,
01003000
00000000
00000000
00000000
,
00200000
00000000
10000000
00000000
,
10300000
01000000
00010000
00001000
,
00000100
00000000
00000001
00000001
,
00001000
00000000
00001001
00000000
,
00000001
00000010
00001000
00010000
,
00001000
01000000
00010000
00000000
,
20010000
00000000
01000000
00000000
,
30020000
00000000
01000000
00000000
,
00230000
00000000
00302000
00000000
,
00013000
00000000
00001000
00000100
,
00000001
00000010
00001000
00000010
,
00000001
00000100
00001000
00010000
,
00011000
00000000
00100000
00000000
,
01100000
00000000
10000000
00010000
,
02100000
00000000
00000000
00000000
,
00100000
00000000
03100000
00000000
,
10000000
10000000
00010000
00010000
,
10000000
00100000
00010000
00000000
,
00001000
00001000
00010000
00010000
,
00001000
00000010
00000100
00000000
,
00001000
00001000
00000001
00000001
,
00001000
00000010
00000001
00000010
,
00001000
00000100
00010000
00001000
,
00100000
00010000
01000000
10000000
,
00000000
00000000
00000000
00000000
,
10000000
01000000
00100000
00010000
,
00001000
00000100
00000010
00000001
,
00000010
00000010
00001000
00001000
,
00000010
00010000
00000100
00000000
,
00001000
00000010
00000001
00000010
,
00002000
00000000
01000000
01003000
,
20000000
00000000
00010000
30010000
,
00010000
00100000
01000000
00010000
,
00001000
00000100
00000001
00000100
,
00001000
00010000
00001000
00000000
,
00010000
00010000
00001000
00010000
,
01000000
10000000
00200000
00300000
,
10000000
00100000
00010000
00100000
,
10000000
01000000
00010000
00000000
,
00001000
00010000
00001000
00000100
,
00000002
00000000
00001003
00000000
,
00002010
00000001
00003100
00000000
,
00020000
00001000
00031000
00000000
,
00100000
00010000
01000000
01000000
,
00100000
00010000
00001000
00000000
,
00010000
01000000
00000000
10000000
00000000
00000000
00000000
00000000
,
00010000
01000000
00000000
10000000
00000000
00000000
00000000
00000000
,
00020000
00000000
02000000
00030000
,
03002000
00000000
00010000
00013000
,
00001000
00000100
00000000
00000001
00000000
00000000
00000000
00000000
,
00001000
00000100
00000000
00000001
00000000
00000000
00000000
00000000
,
00002000
00000000
00003010
00000000
,
00000002
00000000
00000010
00000013
,
00000001
00000010
00001000
00010000
,
00100000
10000000
01000000
00000000
,
10000000
10000000
00010000
00010000
,
10000000
01000000
00010000
00001000
,
00000010
00000001
00000100
00001000
,
00000100
00000001
00001000
00000100
,
00000010
00000001
00000010
00001000
,
00020000
00000000
00031000
00000000
,
00011000
00000000
00110000
00000000
,
01100000
00000000
11000000
00000000
,
10000000
01000000
00010000
00001000
,
00000010
00000001
00002002
00000000
,
00000000
00000000
00000000
00003003
;

//---------------dance-double - ----------------
#NOTEDATA:;
#CHARTNAME:;
#STEPSTYPE:dance-double;
#DESCRIPTION:;
#CHARTSTYLE:;
#DIFFICULTY:Medium;
#METER:13;
#RADARVALUES:0.494129,0.736687,0.117917,0.227973,0.110056,440.000000,425.000000,15.000000,29.000000,0.000000,0.000000,0.000000,0.000000,0.000000,0.494129,0.736687,0.117917,0.227973,0.110056,440.000000,425.000000,15.000000,29.000000,0.000000,0.000000,0.000000,0.000000,0.000000;
#CREDIT:;
#OFFSET:0.000000;
#BPMS:0.000000=100.000000
,20.000000=200.000000
,52.000000=800.000000
,63.875000=200.000000
,128.000000=100.000000
,160.000000=200.000000
;
#STOPS:63.875000=0.272000
,200.250000=0.300000
,347.000000=0.300000
,347.500000=0.150000
,348.000000=0.150000
,348.500000=0.150000
,349.000000=0.300000
,349.500000=0.450000
,350.000000=0.300000
,350.500000=0.150000
,351.000000=0.150000
,351.500000=0.600000
;
#DELAYS:;
#WARPS:;
#TIMESIGNATURES:0.000000=4=4
;
#TICKCOUNTS:0.000000=4
;
#COMBOS:0.000000=1
;
#SPEEDS:0.000000=1.000000=0.000000=0
;
#SCROLLS:0.000000=1.000000
;
#FAKES:;
#LABELS:0.000000=Song Start
;
#DISPLAYBPM:100.000000:200.000000;
#NOTES:
00000000
00000000
00000000
00000000
,
00000000
00000000
00000000
00000000
,
00000000
00000000
00000000
00000000
,
00010000
00000000
00001000
00010000
,
00000010
00000100
00000001
00000000
00000100
00000000
00001000
00000000
,
00100000
00000000
00010000
00100000
00010000
00000000
10000000
02000000
,
00000000
00010000
00000000
10000000
,
00000000
00100000
00000000
13000000
,
10000000
01000000
00010000
00001000
,
00000010
00000000
00001000
00010000
00001000
00000000
00000100
00000010
,
00000100
00000000
00000001
00000010
00000001
00000000
00001000
00000100
,
00010000
00000000
00001000
00010000
00100000
00000000
01000000
00100000
,
10000000
00100000
01000000
00010000
,
02000000
00000000
00000000
00000000
,
00000000
00000000
00000000
00000000
,
00000000
00000000
00000000
03000000
,
00100000
00010000
00000000
00001000
00000010
00000000
00000001
00000000
,
00000001
00000100
00000000
00001000
00010000
00000000
00001000
00000000
,
00010000
00100000
00100000
00010000
,
00001000
00000000
00010000
01000000
10000000
00000000
01000000
00000000
,
00010000
00001000
00000000
00010000
00100000
00000000
10000000
00000000
,
10000000
01000000
00000000
00010000
00001000
00000000
00010000
00000000
,
00001000
00000010
00000010
00001000
,
00010000
00000000
00100000
00010000
00001000
00000000
00010000
00000000
,
00001000
00000010
00000001
00000000
00000100
00000000
00001000
00000000
,
00000000
00010000
00100000
10000000
00100000
00010000
00001000
00000000
,
00010000
01000000
10000000
00000000
01000000
00000000
00010000
00000000
,
00001000
00000000
00010000
00000000
00001000
00000000
00010000
00000000
00000100
00000000
00000000
00010000
00000000
00000000
00001000
00000000
,
00010000
00100000
10000000
00000000
01000000
00000000
00010000
00000000
,
00000000
00001000
00000010
00000001
00000010
00001000
00010000
00000000
,
00000000
00000000
00100000
00000000
00010000
00000000
00001000
00000000
00010000
00000000
00000000
00000100
00000000
00000000
00010000
00000000
,
00000000
00001000
00100000
00000000
00001000
00100000
00000000
00000000
,
00010000
00000100
00000001
00000000
00001000
01000000
10000000
00000000
,
00010000
00000010
00000001
00000000
00000001
00000000
00000000
00000000
,
00000010
00000000
00001000
00010000
00001000
00000000
01100000
00000000
,
00001000
00010000
00001000
00000000
00000010
00000000
00000000
00000000
00000001
00000000
00000100
00000000
00000010
00000000
00000000
00000000
,
00001000
01000000
10000000
00000000
00010000
00000100
00000001
00000000
,
00001000
00000000
00000000
00100000
00000000
00000000
10000000
00000000
00000000
00000000
00000000
00000000
10000000
00000000
00100000
00000000
00010000
00000000
00001000
00000000
00000000
00000000
00000000
00000000
,
00010000
00000000
00001000
00000100
00000010
00000000
00000100
00000000
00001000
00000000
00000100
00000000
00000101
00000000
00000000
00000000
,
00000001
00000000
00000100
00000000
00001000
00000000
00010000
00000000
00000000
01100000
00000000
00000000
10010000
00000000
00000000
00000000
00000000
00000000
10000000
00000000
00000000
00010000
00000000
00000000
,
01000000
00100000
10000000
00000000
01000000
00000000
00010000
00000000
,
00001000
00010000
00000010
00000000
00001000
00000000
00000010
00000000
,
00000100
00000000
00000000
00000001
00000000
00000000
00000100
00000000
00001000
00000000
00000000
00010000
00000000
00000000
00001000
00000000
,
00100000
00000000
00000000
00010000
00000000
00000000
10000000
00000000
00010000
00000000
00100000
00000000
01000000
00000000
00000000
00000000
,
00000000
00000000
00000000
10000000
00000000
00000000
01000000
00000000
00010000
00000000
00000000
00001000
00000000
00000000
00010000
00000000
,
00000010
00000000
00000000
00001000
00000000
00000000
00000001
00000000
00001000
00000000
00000010
00000000
00000100
00000000
00000000
00000000
,
00000000
00000000
00000000
00000001
00000000
00000000
00000010
00000000
00001000
00000000
00000000
00010000
00000000
00000000
00001000
00000000
,
01000000
00000000
00000000
00010000
00000000
00000000
10000000
00000000
00010000
00000000
00100000
00000000
01000000
00000000
00000000
00000000
,
10000000
00000000
00000000
01000000
00000000
00000000
00010000
00000000
00001000
00000000
00000000
00010000
00000000
00000000
00001000
00000000
,
00000100
00000000
00000000
00000001
00000000
00000000
00000100
00000000
00000001
00000000
00000100
00000000
00001000
00000000
00010000
00000000
,
00000000
00010000
00001000
00010000
01000000
10000000
00100000
10000000
,
00010000
00000000
00010000
00000000
11000000
00000000
10000000
01000000
,
00010000
00001000
00020000
00000000
00031000
00000000
00001000
00000100
,
00000000
00000100
00000001
00000000
00000010
00000000
00000001
00000100
,
00000000
00000110
00000000
00000000
00001000
00000000
00020000
00000000
,
00030000
00002000
00000000
00000000
00000000
00000000
00103000
00000000
00000000
00010000
00000000
00000000
20000000
00000000
00000000
00000000
,
30000000
02000000
00000000
00000000
00000000
00000000
00000000
00000000
13000000
00000000
00000000
00000000
02000000
00000000
00000000
00000000
,
00000000
03010000
00000000
00000000
00001000
00010000
00000000
00000000
,
00000000
00010000
00001000
00000010
00000001
00000000
00000010
00000001
,
00001000
00000000
00001000
00000000
00000101
00000000
00000001
00000100
,
00001000
00010000
00002000
00000000
00013000
00000000
00010000
01000000
,
00000000
10000000
01000000
00000000
00000000
00000000
00010000
00001000
,
00000000
00000000
00010000
00000000
00002000
00000000
00000000
00000000
00013000
00000000
00000000
00000000
00010000
00000000
00000000
00001000
,
00000000
00000000
00000010
00000000
00000001
00000000
00000000
00000100
00000000
00000000
00001000
00000000
00000100
00000000
00000000
00000000
,
00000000
00001000
00000000
00000000
00000000
00000000
00000000
00000000
00010000
00000000
00000000
00000000
00001000
00000000
00000000
00010000
,
00000000
00000000
00100000
00000000
10000000
00000000
00000000
01000000
00000000
00000000
00100000
00000000
01000000
00000000
00000000
00000000
,
10000000
01010000
00000000
00020000
,
01000000
00000000
00000000
00000000
10000000
00000000
00000000
00000000
00100000
00030000
00000000
00000000
00002000
00000000
00000000
00000000
,
00000100
00000000
00000001
00000000
00003010
00000000
00000001
00000100
,
00000001
00000000
00000010
00000001
00000100
00000000
00001000
00010000
,
00001000
00000000
00100000
00001000
00010000
00000000
00010000
01000000
,
10000000
00000000
00100000
00000000
01000000
00000000
00010000
01000000
,
00001000
00010000
01000000
00100000
,
00001000
00010000
00001000
00000000
00000100
00000000
00000001
00000000
,
00000010
00000000
00000100
00000000
00010000
00000000
00001000
00000100
,
00000001
00000000
00000010
00000000
00000100
00000000
00001000
00000100
,
00010000
00001000
00000100
00000010
,
00010000
00001000
00010000
00000000
01000000
00000000
10000000
00000000
,
00100000
00000000
01000000
00010000
00100000
00000000
00001000
00010000
,
00001000
00000100
00000010
00000000
00000001
00000010
00000100
00000010
,
00000001
00000010
00000100
00000000
00001000
00000000
00001000
00010000
,
00100000
10000000
00000000
00000000
00100000
00000000
00010000
00000000
,
01100000
00000000
11000000
00000000
01100000
00000000
10000000
00100000
,
00010000
00001000
00000100
00001000
00010000
00000000
00000100
00000000
,
00000000
00000001
00000000
00000000
00000100
00000000
00010000
00001000
,
00010000
00100000
01000000
00100000
10000000
00100000
20000000
00000000
,
00000000
00000000
00000000
00000000
00000000
00000000
00000000
00000000
02000000
00000000
00000000
00000000
00000000
00000000
00000000
00000000
33000000
00000000
00000000
00000000
00000000
00000000
00000000
00000000
20000000
30000000
00000000
00000000
00200000
00300000
00000000
00000000
,
00020000
00030000
00000000
00000000
00002000
00003000
00000000
00000000
00000200
00000300
00000000
00000000
00000202
00000303
00000000
00000000
00002200
00003300
00000000
00000000
00020000
00030000
00000000
00000000
02200000
03300000
00000000
00000000
00020000
00030000
00000000
00000000
,
00022000
00000000
00000000
00000000
,
00000000
00033000
00000000
00000000
;

//---------------dance-double - ----------------
#NOTEDATA:;
#CHARTNAME:;
#STEPSTYPE:dance-double;
#DESCRIPTION:;
#CHARTSTYLE:;
#DIFFICULTY:Hard;
#METER:15;
#RADARVALUES:0.745685,2.048933,0.196529,0.267279,0.212251,664.000000,639.000000,25.000000,34.000000,0.000000,0.000000,0.000000,0.000000,0.000000,0.745685,2.048933,0.196529,0.267279,0.212251,664.000000,639.000000,25.000000,34.000000,0.000000,0.000000,0.000000,0.000000,0.000000;
#CREDIT:;
#OFFSET:0.000000;
#BPMS:0.000000=100.000000
,20.000000=400.000000
,84.000000=800.000000
,98.000000=400.000000
,226.000000=50.000000
,234.000000=100.000000
,250.000000=200.000000
,293.000000=400.000000
,586.000000=600.000000
,586.500000=400.000000
,595.500000=100.000000
;
#STOPS:96.000000=0.150000
,289.500000=0.300000
,581.000000=0.375000
,581.500000=0.225000
,582.000000=0.225000
,582.500000=0.225000
,586.000000=0.550000
,589.500000=0.225000
,590.000000=0.225000
,595.500000=1.350000
;
#DELAYS:;
#WARPS:;
#TIMESIGNATURES:0.000000=4=4
;
#TICKCOUNTS:0.000000=4
;
#COMBOS:0.000000=1
;
#SPEEDS:0.000000=1.000000=0.000000=0
;
#SCROLLS:0.000000=1.000000
;
#FAKES:;
#LABELS:0.000000=Song Start
;
#DISPLAYBPM:100.000000:200.000000;
#NOTES:
00000000
00000000
00000000
00000000
,
00011000
00010000
00100000
00010000
00010100
00000000
00000000
00000000
,
00001000
00000100
00000010
00000001
00000010
00000000
00000001
00000100
00000010
00000100
00000001
00000010
00000001
00001000
00000010
00000100
,
00001000
00000000
00000000
00010000
00100000
00000000
10000000
00000000
00010000
00000000
00000000
00000000
11000000
00000000
00100000
00000000
,
00001000
00010000
00001000
00000010
00000100
00000001
00000100
00000001
00001000
00000001
00000100
00000000
00001000
00000000
00000000
00000000
,
00010000
00001000
00010000
00000000
00100000
00000000
01000000
00000000
,
00010000
10000000
01000000
10000000
,
01000000
00010000
00001000
00010000
,
00001000
00000010
00000100
00001000
,
00000100
00000010
00000100
00001000
,
00000001
00000100
00001000
00010000
,
00001000
00010000
00000000
00000000
00010000
00100000
00000000
00000000
,
00100000
01000000
00000000
00000000
01010000
00000000
00000000
00000000
,
00001000
00010000
00001000
00000000
00000010
00000000
00000100
00000000
,
00001000
00000001
00000100
00000001
,
00000100
00001000
00010000
00001000
,
00010000
00100000
01000000
00010000
,
01000000
00100000
01000000
00010000
,
10000000
01000000
00010000
00001000
,
00010000
00001000
00000000
00000000
00001000
00000010
00000000
00000000
,
00000010
00000100
00000000
00000000
00001100
00000000
00000000
00000000
,
00020200
00000000
00000000
00000000
,
00000000
00000000
00000000
00000000
,
00000000
00000000
00000000
00000000
,
00030300
00000000
00000000
00000000
00100000
00000000
00000000
00001000
,
00000000
00010000
00100000
10000000
,
10000000
01000000
10000000
00010000
,
00100000
00010000
10000000
01000000
,
00010000
00000000
00000010
00001000
,
00000100
00001000
00000010
00000100
,
00000001
00000010
00001000
00100000
,
00010000
01000000
11000000
00000000
,
00110000
00000000
00000000
00000000
00000010
00000000
00000000
00010000
,
00000000
00001000
00000010
00000001
,
00000001
00000100
00000001
00001000
,
00000010
00001000
00000001
00000100
,
00001000
00000000
00100000
00010000
,
01000000
00010000
00100000
01000000
,
10000000
00100000
00010000
00000010
,
00001000
00000100
00000001
00000100
,
00001100
00000000
00000000
00000000
00000100
00001000
00000100
00010000
,
00000000
00001000
00000000
00010000
,
00001000
00000000
00010000
00000000
00100000
01000000
00010000
00000000
,
10000000
01000000
00000000
00100000
,
01000000
00000000
00010000
00000000
00001000
00010000
00001000
00000000
,
00000010
00000001
00000000
00000100
,
00000010
00001000
00000001
00000100
,
00001000
00000000
00000000
00000000
00010100
00000000
00000000
00011000
,
00000000
00000000
00000000
00101000
00000000
00000000
00000000
00000000
01000000
00000000
00010000
00000000
01000000
00000000
00001000
00000000
,
00000000
00010000
00000000
00001000
,
00010000
00000000
00001000
00000000
00000010
00000100
00001000
00000000
,
00000001
00000100
00000000
00000001
,
00000100
00001000
00010000
00100000
,
00010000
00000000
00000000
00000000
00001000
00000000
00000000
00010000
,
00000000
00100000
00000000
10000000
,
00010000
00000000
10000000
00010000
,
00000000
00000000
00000000
00000000
00000000
00000000
00000000
00000000
10000000
00010000
00000100
00000001
00000100
00001000
00100000
00010000
,
00100000
00000000
00000000
00010000
00000000
00000000
01000000
00000000
00000000
00010000
00000000
00000000
10000000
00000000
01000000
00000000
00010000
00000000
00001000
00000000
00000010
00000000
00000001
00000000
00000010
00000000
00000000
00000001
00000000
00000000
00000010
00000000
00000000
00001000
00000000
00000000
00010000
00000000
00000000
00100000
00000000
00000000
01000000
00000000
00000000
00000000
00000000
00000000
,
10000000
00000000
00000000
01000000
00000000
00000000
00100000
00000000
00000000
00010000
00000000
00000000
00001000
00000000
00000100
00000000
00001000
00000000
00010000
00000000
00001000
00000000
00000000
00000000
00010000
00000000
00000000
00000000
00000000
00000000
00000100
00000000
00000000
00000000
00000000
00000000
00000001
00000000
00000000
00000100
00000000
00000000
00001000
00000000
00000000
00000100
00000000
00000000
,
00001000
00000000
01000000
00000000
10000000
00000000
00000000
00000000
00010000
00000000
00000100
00000000
00000001
00000100
00001000
00000100
,
00000001
00000000
00000000
00000000
00000010
00000000
00000000
00000000
00001000
00000000
00000000
00000000
00010000
00000000
00000000
00000000
00000000
00000000
00000000
00000000
00000000
00000000
00000000
00000000
00001000
00000000
00000000
00000000
00000000
00000000
00010000
00000000
00000000
00001000
00000000
00000000
00100000
00000000
00000000
00000000
00000000
00000000
00010000
00000000
00000000
00000000
00000000
00000000
,
01000000
00000000
00000000
00000000
00000000
00000000
10000000
00000000
00000000
00000000
00000000
00000000
10000000
00000000
01000000
00000000
00100000
00000000
00010000
00000000
00000000
00001000
00000000
00000000
,
00010000
00000000
00000000
00000000
00000000
00000000
00000000
00000000
00000000
00000000
00000000
00000000
00000100
00000000
00010000
00000000
00000100
00000000
00000000
00000000
00000000
00000000
00000000
00000000
00002000
00000000
00000000
00000000
00000000
00000000
00000000
00000000
00000000
00000000
00000000
00000000
00000000
00000000
00000000
00000100
00000000
00000000
00000000
00000000
00000000
00000000
00000000
00000000
,
00000000
00000000
00000000
00000001
00000000
00000000
00000000
00000000
00000000
00000010
00000000
00000000
00000000
00000000
00000000
00023000
,
00000000
00000000
00000000
00000000
00000000
00000000
00030000
00000000
10000000
01000000
10000000
00000000
00010000
00000000
00100000
00000000
,
00001000
00000000
00010000
00000000
00001000
00000000
00000010
00000000
00000001
00000010
00000001
00000000
00001000
00000000
00000001
00000000
,
00000100
00000000
00000000
00000000
00000000
00000000
00000000
00000000
00001000
00010000
00001000
00000000
00010000
00000000
00100000
00000000
,
00010000
00000000
00001000
00000000
00010000
00000000
01000000
00000000
10000000
00100000
10000000
00000000
00010000
00000000
10000000
00000000
,
00010000
00000000
00000000
00000000
00000000
00000000
00000000
00000000
10000000
00100000
10000000
00000000
00010000
00000000
01000000
00000000
,
00001000
00000000
00010000
00000000
00001000
00000000
00000100
00000000
00000001
00000100
00000001
00000000
00001000
00000000
00000001
00000000
,
00000010
00000000
00001000
00000000
00010000
01000000
00100000
10000000
,
00100000
01000000
00010000
00001000
00010000
00001000
00000100
00000001
,
00000010
00000000
00000001
00000000
00000010
00000000
00000001
00000000
00000000
00000000
00000100
00000010
00001000
00000000
00000100
00000000
,
00000010
00000001
00000100
00000000
00001000
00000000
00010000
00000000
,
00100000
00000000
10000000
01000000
10000000
00000000
00010000
00000000
,
10000000
00000000
01000000
00000000
00000000
00010000
00000000
00000000
,
00001000
00000000
00010000
00000000
00000000
00001000
00100000
00001000
,
00000000
00000000
00010000
00000000
00000000
00000100
00000000
00000000
,
00000001
00000100
00000000
00001000
,
00000001
00000100
00001000
00010000
,
00100000
00000000
01000000
00100000
00000000
10000000
00000000
00010000
,
01000000
10000000
01000000
00100000
,
01000000
00000000
00010000
00000000
00000000
00100000
00000000
00000000
,
00001000
00010000
00001000
00000010
,
00000100
00000001
00000100
00001000
,
00000000
00000100
00010000
00001000
,
01000000
00100000
01000000
00010000
,
10000000
00010000
00100000
01000000
,
10000000
00010000
10000000
00000000
01000000
00000000
00010000
00000000
,
00001000
00010000
00000000
00001000
,
00000010
00000000
00000001
00000100
00000001
00000000
00001000
00000000
,
00000001
00000000
00000100
00000000
00000000
00001000
00000000
00000000
,
00010000
00000000
00001000
00000000
00000000
00010000
00000010
00010000
,
00000000
00000000
00001000
00000000
00000000
01000000
00000000
00000000
,
00100000
00010000
00001000
00010000
,
00000000
00000000
00011000
00000000
00000000
00010000
00000000
00000000
,
00001000
00000220
00000000
00000330
,
00000000
00000001
00000010
00000001
,
00000010
00000000
00000100
00000000
00010000
00001000
00010000
00000000
,
00001000
00100000
00001000
00010000
,
00001000
01000000
00010000
10000000
,
00000000
00010000
01000000
10000000
,
01000000
00000000
00010000
00000000
00100000
00010000
00100000
00000000
,
00001000
00000000
00010000
00000000
00000000
00000000
00001000
00010000
,
00001000
00000010
00000100
00000001
,
00001000
00002100
00000000
00000001
,
00000000
00000010
00000000
00023000
,
01000000
10000000
00000000
00100000
,
00000000
00032000
00000000
00003200
,
00000000
00000310
00000001
00000100
,
00001000
00010000
00001000
00100000
,
00000000
00001000
00010000
00100000
,
10000000
00010000
10000000
01000000
,
00000000
00100000
00010000
00100000
,
00020000
00032000
00000000
00003100
,
00000000
00000010
00001000
00000010
,
00002000
00023000
00000000
00130000
,
00000000
10000000
01000000
10000000
,
01000000
00010000
00001000
00010000
,
00001000
00000100
00000000
00001000
,
00000000
00010000
00000000
00001000
,
00010000
00000000
00000010
00000000
00000000
00001000
00000010
00000000
,
00002000
00023000
00000000
01030000
,
00000000
00000000
00100000
00000000
00000000
00010000
00100000
00000000
,
00020000
00032000
00000000
00003010
,
00000000
00000000
00000001
00000000
00000000
00000100
00000001
00000000
,
00000100
00001000
00010000
00001000
,
00010000
00100000
01000000
00010000
,
10000000
00100000
10000000
00010000
,
01000000
00000000
00100000
10000000
01000000
00000000
10000000
00000000
,
01000000
00010000
00001000
00010000
,
00001000
00000000
00000010
00000100
00000010
00000000
00000001
00000000
,
00000100
00000001
00000100
00001000
,
00010000
00000000
00001000
00100000
00010000
00000000
10000000
00000000
,
01000000
10000000
01000000
00010000
,
00001000
00000010
00000001
00000010
,
00000100
00000000
00001000
00000100
00001000
00000000
00000001
00000000
,
00000100
00000000
00000001
00000010
00000001
00000000
00000100
00000000
,
00001000
00010000
00001000
00100000
,
00001000
00010000
00000010
00010000
,
00001000
00100000
00010000
00100000
,
10000000
00000000
00100000
00001000
00010000
00000000
00001000
00000000
,
00010000
00001000
00010000
00000000
00000100
00000000
00000010
00000001
,
00000010
00000100
00000000
00001100
,
00000000
00011000
00000000
00110000
,
00000000
00000000
00000000
00000000
00000000
00000000
00000000
00000000
20200000
00300000
30000000
00000000
02020000
03030000
00000000
00000000
00022000
00033000
00000000
00000000
00002000
00003000
00000000
00000000
00000010
00000000
00000000
00000000
00000000
00000000
00000000
00000000
,
00000001
00000000
00000000
00000000
00000000
00000000
00000000
00000000
00000000
00000000
00000000
00000000
00000000
00000000
00000000
00000000
00000202
00000303
00000000
00000000
00001000
00000000
00000000
00000000
00000000
00000000
00000000
00000000
00010000
00000000
00000000
00000000
,
00000000
00000000
00000000
00000000
00000000
00000000
00000000
00000000
00000000
00000000
00000000
00000000
02200000
03300000
00000000
00000000
22000000
33000000
00000000
00000000
00200000
00000000
00000000
00000000
00000000
00000000
00000000
00000000
00000000
00000000
00000000
00000000
,
00000000
00000000
00310000
00000000
00000000
00000000
00001000
00000000
00000000
00000000
00000010
00000000
00000000
00000000
00000202
00000303
,
00000000
00000000
00000000
00000000
;

//---------------dance-single - ----------------
#NOTEDATA:;
#CHARTNAME:;
#STEPSTYPE:dance-single;
#DESCRIPTION:;
#CHARTSTYLE:;
#DIFFICULTY:Challenge;
#METER:18;
#RADARVALUES:0.977027,3.405643,0.660336,0.235834,0.400918,870.000000,786.000000,84.000000,30.000000,0.000000,0.000000,0.000000,0.000000,0.000000,0.977027,3.405643,0.660336,0.235834,0.400918,870.000000,786.000000,84.000000,30.000000,0.000000,0.000000,0.000000,0.000000,0.000000;
#CREDIT:;
#OFFSET:0.000000;
#BPMS:0.000000=50.000000
,2.000000=100.000000
,3.000000=400.000000
,67.000000=800.000000
,71.000000=400.000000
,73.000000=200.000000
,106.000000=400.000000
,170.000000=50.000000
,178.000000=100.000000
,178.500000=200.000000
,179.000000=400.000000
,181.000000=200.000000
,181.500000=100.000000
,182.500000=200.000000
,183.000000=400.000000
,185.000000=200.000000
,185.500000=100.000000
,186.500000=200.000000
,187.000000=400.000000
,189.000000=200.000000
,189.500000=100.000000
,190.500000=200.000000
,191.000000=400.000000
,193.000000=200.000000
,193.500000=100.000000
,194.500000=200.000000
,195.000000=400.000000
,197.000000=200.000000
,197.500000=100.000000
,198.500000=200.000000
,199.000000=400.000000
,201.000000=200.000000
,201.500000=100.000000
,202.500000=200.000000
,203.000000=400.000000
,205.000000=200.000000
,205.500000=100.000000
,206.500000=200.000000
,207.000000=400.000000
,209.000000=200.000000
,209.500000=100.000000
,210.000000=800.000000
,228.000000=400.000000
,229.000000=200.000000
,230.000000=100.000000
,231.000000=200.000000
,264.000000=400.000000
,424.000000=200.000000
,454.000000=100.000000
,455.000000=400.000000
,526.000000=800.000000
,530.000000=400.000000
,539.000000=800.000000
;
#STOPS:2.000000=9.000000
,73.750000=0.290000
,263.000000=0.900000
,519.000000=0.300000
,520.000000=0.150000
,521.000000=0.150000
,522.000000=0.150000
,530.000000=0.150000
,532.000000=0.150000
,533.000000=0.150000
,534.000000=0.150000
,535.000000=0.150000
;
#DELAYS:;
#WARPS:;
#TIMESIGNATURES:0.000000=4=4
;
#TICKCOUNTS:0.000000=4
;
#COMBOS:0.000000=1
;
#SPEEDS:0.000000=1.000000=0.000000=0
;
#SCROLLS:0.000000=1.000000
;
#FAKES:;
#LABELS:0.000000=Song Start
;
#DISPLAYBPM:50.000000:400.000000;
#NOTES:
// measure 0
0000
0000
0000
0010
,  // measure 1
1000
0001
0010
0100
,  // measure 2
1000
0001
0100
1000
,  // measure 3
0100
0001
1000
0100
,  // measure 4
0010
0000
0001
0000
1000
0000
0001
1000
,  // measure 5
0010
0000
0100
0000
0010
0000
1000
0001
,  // measure 6
0010
0000
0100
0000
0010
0000
0001
1000
,  // measure 7
0100
0000
0010
0000
0100
0000
1000
0001
,  // measure 8
0100
0000
0010
0000
0100
0000
0010
1000
,  // measure 9
0010
0000
0100
0001
0100
0000
0001
0010
,  // measure 10
0001
0000
1000
0100
1000
0000
0001
0010
,  // measure 11
0100
0000
1000
0010
0100
0000
0001
1000
,  // measure 12
0010
0000
0000
0000
0000
0000
1000
0000
0000
0001
0000
0000
0010
0000
0000
0000
0000
0000
0001
0000
0000
0000
0100
0000
,  // measure 13
0000
0010
0000
1000
0000
0010
0000
0100
0000
0001
0000
0010
,  // measure 14
0000
0000
0100
0000
0000
0000
1000
0000
0000
0000
0100
0000
0000
0000
0010
0000
0000
0000
0001
0000
0000
1000
0000
0000
,  // measure 15
0010
0100
0001
1000
0010
0100
0001
1000
,  // measure 16
0100
0010
0001
1000
0100
0010
0002
0000
,  // measure 17
0000
0000
0000
0000
,  // measure 18
0000
0000
0000
0000
0000
0000
0000
0000
0013
0000
0000
0001
0000
0000
0100
0000
,  // measure 19
0010
0000
1000
0000
1010
0000
0000
0000
0001
0000
0000
1001
0000
0000
0010
0000
,  // measure 20
0100
0010
0100
0010
0100
0000
0000
0000
1000
0100
1000
0000
0100
0000
0010
0000
,  // measure 21
0001
0100
0001
0000
0100
0000
0010
0000
1000
0100
1000
0000
0100
0000
0010
0000
,  // measure 22
0001
1000
0100
1000
0001
0000
0000
0000
0010
0000
0000
1000
0000
0000
0100
0000
,  // measure 23
0010
0000
0001
0000
0011
0000
0000
0000
1000
0000
0000
1001
0000
0000
0010
0000
,  // measure 24
0100
0010
0100
0010
0100
0000
0000
0000
0001
0100
0001
0000
0100
0000
0010
0000
,  // measure 25
1000
0100
1000
0000
0100
0000
0010
0000
0001
0100
0001
0000
0100
0000
0010
0000
,  // measure 26
1000
0001
0100
0001
1000
0000
0000
0000
0001
0000
0010
0000
0100
0000
0010
0000
,  // measure 27
0001
0000
1000
0001
0000
0100
0001
0000
,  // measure 28
0010
0000
0011
0000
1000
0010
0100
0010
,  // measure 29
1000
0000
0001
1000
0000
0100
1000
0000
,  // measure 30
0010
0000
1010
0000
0001
0100
0010
0100
,  // measure 31
0001
0000
1000
0100
0000
0010
0001
0000
,  // measure 32
1000
1001
0010
0100
,  // measure 33
0220
0000
0330
0000
1010
0000
0000
1001
,  // measure 34
0000
0000
0101
0000
1000
0100
0001
0100
,  // measure 35
1000
0000
0001
0010
0000
0010
0100
0000
,  // measure 36
1000
0000
1100
0000
0001
0100
1000
0100
,  // measure 37
0001
0000
1000
0010
0000
0010
0100
0000
,  // measure 38
0001
0101
1000
0010
,  // measure 39
0100
0000
0100
0000
1010
0000
0000
0110
,  // measure 40
0000
0000
0101
0000
1000
0100
1000
0100
,  // measure 41
0010
0001
0000
0000
0001
0100
0010
1000
,  // measure 42
0000
0000
0000
0000
0000
0000
0000
0000
0000
0000
0000
0000
0000
0000
0000
0000
0110
0000
0001
0000
0100
0000
0010
1000
0100
0000
0010
0001
1000
0001
0100
0000
,  // measure 43
0001
0000
0000
0000
0000
0000
0010
0000
0000
0000
0000
0000
1000
0000
0000
0000
0000
0000
0010
0000
0000
0000
0000
0000
0001
0000
0000
0000
0000
0000
1000
0000
0000
0000
0000
0000
0100
0000
0000
0000
0000
0000
0001
0000
0000
0000
0000
0000
0100
0000
0000
0000
1000
0000
0000
0000
0100
0000
0000
0000
0010
0000
0000
0000
0001
0000
0000
0000
0010
0000
0000
0000
0001
0000
0000
0000
0100
0000
0000
0000
0001
0000
0000
0000
1000
0000
0000
0000
0010
0000
0000
0000
1000
0000
0000
0000
0001
0000
0000
0000
0000
0000
0000
0000
0000
0000
0000
0000
0100
0000
0000
0000
0000
0000
0010
0000
0000
0000
0000
0000
1000
0000
0000
0000
0000
0000
0001
0000
0000
0000
0000
0000
0010
0000
0000
0000
0000
0000
0100
0000
0000
0000
0000
0000
1000
0000
0000
0000
0000
0000
0000
0000
0000
0000
0000
0000
0010
0000
0000
0000
0000
0000
0000
0000
0000
0000
0000
0000
1000
0000
0000
0000
0000
0000
0000
0000
0000
0000
0000
0000
0100
0000
0000
0000
0000
0000
0000
0000
0000
0000
0000
0000
,  // measure 44
1000
0000
0000
0000
0000
0000
0010
0000
0000
0000
0000
0000
0001
0000
0000
0000
0000
0000
0010
0000
0000
0000
0000
0000
1000
0000
0000
0000
0000
0000
0001
0000
0000
0000
0000
0000
0100
0000
0000
0000
0000
0000
1000
0000
0000
0000
0000
0000
0100
0000
0000
0000
0000
0000
0010
0000
0000
0000
0000
0000
0001
0000
0000
0000
0000
0000
0010
0000
0000
0000
0000
0000
1000
0000
0000
0000
0100
0000
0000
0000
0010
0000
0000
0000
0001
0000
0000
0000
0010
0000
0000
0000
0100
0000
0000
0000
1000
0000
0000
0000
0000
0000
0000
0000
0000
0000
0000
0000
0000
0000
0000
0000
0000
0000
0000
0000
0000
0000
0000
0000
0100
0000
0000
0000
0000
0000
0000
0000
0000
0000
0000
0000
0000
0000
0000
0000
0000
0000
0000
0000
0000
0000
0000
0000
0010
0000
0000
0000
0000
0000
0000
0000
0000
0000
0000
0000
0000
0000
0000
0000
0000
0000
0000
0000
0000
0000
0000
0000
0000
0000
0000
0000
0000
0000
0000
0000
0000
0000
0000
0000
0000
0000
0000
0000
0000
0000
0000
0000
0000
0000
0000
0000
,  // measure 45
0011
0000
0000
0000
0000
0000
0001
1000
0010
0000
1000
0000
0100
0000
0000
0000
,  // measure 46
0011
0000
0000
0000
0000
0000
0001
1000
0010
0000
0100
0000
0001
0000
0000
0000
,  // measure 47
0101
0000
0000
0000
0000
0000
1000
0001
0010
0000
0100
0000
1000
0000
0000
0000
,  // measure 48
1100
0000
0000
0000
0000
0000
0001
1000
0010
0000
0100
0000
0010
0000
0000
0000
,  // measure 49
1001
0000
0000
0000
0000
0000
0010
0001
1000
0000
0001
0000
0100
0000
0000
0000
,  // measure 50
0110
0000
0000
0000
0000
0000
1000
0010
0100
0000
0001
0000
1000
0000
0000
0000
,  // measure 51
1010
0000
0000
0000
0000
0000
0100
0001
0010
0000
0000
0000
0100
0000
0000
0000
,  // measure 52
0010
0000
0000
0000
0001
0000
0000
0100
0000
0010
1000
0100
0020
0000
0000
0000
0000
0000
0000
0000
0000
0000
0000
0000
,  // measure 53
0000
0000
0000
0000
,  // measure 54
0000
0000
0000
0000
,  // measure 55
0000
0000
0000
0000
,  // measure 56
0000
0000
0000
0000
,  // measure 57
0000
0000
0000
0000
0000
0000
0000
0000
0000
0000
0000
0000
0031
1000
0001
0000
,  // measure 58
0010
0000
0100
0000
1000
0001
1000
0000
0010
0000
0100
0000
0001
1000
0001
0000
,  // measure 59
0010
0000
0100
0000
1000
0000
0100
0000
0010
0000
0001
0000
1000
0001
0100
0000
,  // measure 60
0010
0000
0100
0000
0001
1000
0100
0000
0010
0000
0100
0000
1000
0001
0100
0000
,  // measure 61
0010
0000
0100
0000
0001
0000
0100
0000
0010
0000
1000
0000
0100
0000
0000
0011
,  // measure 62
0000
0000
1010
0000
0100
0000
0000
1010
0000
0000
0011
0000
0100
0000
0000
0011
,  // measure 63
0000
0000
1010
0000
0001
0000
0100
0000
0010
0000
1000
0000
0010
0000
0100
0010
,  // measure 64
0000
0100
0010
0100
0001
0000
1000
0001
0000
1000
0001
1000
0100
0000
1000
0100
,  // measure 65
0000
1000
0100
1000
0001
0000
0010
0001
0000
0010
0001
0010
0000
0000
0000
0000
,  // measure 66
0010
0000
0001
0101
,  // measure 67
0000
1000
0100
1000
0001
0100
0010
1000
,  // measure 68
0001
0000
0000
0010
0000
0000
1100
0000
,  // measure 69
0001
0100
0001
0100
0001
0000
0000
0000
,  // measure 70
1010
0000
0000
0110
0000
0000
0101
0000
,  // measure 71
1000
0100
0010
0001
1000
0000
0000
0000
,  // measure 72
0010
0000
0000
1001
0000
0000
2200
0000
,  // measure 73
0000
0000
3300
0000
0001
1000
0010
1000
,  // measure 74
0001
0000
0100
0010
,  // measure 75
1000
0010
0100
0010
1000
0000
0001
0000
,  // measure 76
0010
0000
0100
0010
,  // measure 77
0001
0100
0010
1000
0001
0000
1000
0000
,  // measure 78
0001
0000
0010
0110
,  // measure 79
0000
0100
1001
1010
,  // measure 80
0000
0000
0100
0000
0010
0000
0100
0010
,  // measure 81
1000
0001
1000
0001
,  // measure 82
0010
0000
1000
1100
,  // measure 83
0000
0001
0100
0001
1000
0100
0010
0001
,  // measure 84
1000
0000
0000
0010
0000
0000
0101
0000
,  // measure 85
1000
0100
1000
0100
1000
0000
0000
0000
,  // measure 86
0011
0000
0000
0110
0000
0000
1100
0000
,  // measure 87
0001
0100
0010
1000
0001
0000
0000
0000
,  // measure 88
0110
0000
0000
1001
0000
0000
0202
0000
,  // measure 89
0000
0000
0303
0000
1000
0100
0010
0001
,  // measure 90
1000
0000
0000
1001
0000
0000
1001
0000
,  // measure 91
0010
0000
0000
1000
0000
0000
0001
0000
,  // measure 92
0010
0001
1000
0000
0100
1000
0001
0000
,  // measure 93
0100
0001
1000
0000
0010
1000
0001
0000
,  // measure 94
1000
0000
0000
1001
0000
0000
1001
0000
,  // measure 95
0010
0000
0000
0100
0000
0000
0001
0000
,  // measure 96
1000
0100
0010
0000
0001
0100
0010
0000
,  // measure 97
1000
0100
0010
0000
0001
0100
0010
0000
,  // measure 98
1000
0001
1000
0001
0100
0000
0010
0000
,  // measure 99
1000
0001
1000
0001
0010
0000
0100
0000
,  // measure 100
1000
0100
1000
0100
0010
0000
0001
0000
,  // measure 101
0100
0001
0100
0001
1000
0000
0010
0000
,  // measure 102
1000
0100
1000
0000
0001
0100
0001
0000
,  // measure 103
1000
0100
1000
0000
0001
0100
0001
0000
,  // measure 104
1000
0001
1000
0000
0010
0100
0010
0000
,  // measure 105
1000
0100
0010
0001
0100
0010
1000
0000
,  // measure 106
1001
0100
0010
0011
0001
0100
0010
0100
,  // measure 107
1001
0100
0010
1010
1000
0100
0010
0100
,  // measure 108
1001
0100
0010
0011
0001
0100
0010
0100
,  // measure 109
1100
1000
1001
1000
1010
1000
0110
0000
,  // measure 110
1001
0010
0100
0101
0001
0010
0100
0010
,  // measure 111
1001
0010
0100
1100
1000
0010
0100
0010
,  // measure 112
1001
0010
0100
0101
0001
0010
0100
0010
,  // measure 113
0011
0000
1100
0000
2002
3003
0010
1000
,  // measure 114
0010
1000
0001
0000
0010
0001
0010
0001
,  // measure 115
1000
0000
0100
0010
0100
0000
0010
0001
,  // measure 116
0010
0001
1000
0000
0010
1000
0010
1000
,  // measure 117
0001
0000
0100
0010
0100
0000
0001
1000
,  // measure 118
0001
1000
0100
0000
1000
0001
1000
0001
,  // measure 119
0100
0000
0010
0100
0010
0000
1000
0100
,  // measure 120
1000
0000
0001
0100
0001
0000
1000
0010
,  // measure 121
1000
0000
0001
0010
0001
0000
1000
0100
,  // measure 122
0010
0001
1000
0001
0100
0010
1000
0001
,  // measure 123
0010
0100
1000
0000
0001
0000
0100
0010
,  // measure 124
1000
0001
0010
0100
1000
0100
0010
0001
,  // measure 125
1000
0010
0100
0000
0010
0000
1000
0001
,  // measure 126
0100
0010
1000
0010
0100
0010
1000
0100
,  // measure 127
0010
0001
1000
0001
0010
0100
1000
0010
,  // measure 128
0100
0001
0010
0100
1000
0010
0100
0001
,  // measure 129
0010
0000
0100
0000
1000
0000
0000
0000
0000
0000
0000
0000
0022
0033
0000
0000
,  // measure 130
2200
3300
0000
0000
0202
0303
0000
0000
2020
3030
0000
0000
1001
0000
0000
0000
,  // measure 131
0110
0000
2002
0000
,  // measure 132
0000
0000
3003
1010
,  // measure 133
2020
3030
0000
0000
0202
0303
0000
0000
2020
3030
0000
0000
0022
0033
0000
0000
,  // measure 134
0100
1000
0010
0220
,  // measure 135
0000
0000
0000
0000
,  // measure 136
0000
0000
0000
0000
,  // measure 137
0000
0000
0000
0000
,  // measure 138
0000
0000
0000
0000
,  // measure 139
0000
0000
0000
0330
;
