#TITLE:A Year Without Rain;
#SUBTITLE:;
#ARTIST:Selena Gomez & The Scene;
#TITLETRANSLIT:;
#SUBTITLETRANSLIT:;
#ARTISTTRANSLIT:;
#GENRE:;
#CREDIT:;
#BANNER:A Year Without Rain (Full Song).png;
#BACKGROUND:A Year Without Rain (Full Song)-bg.png;
#LYRICSPATH:;
#CDTITLE:./CDTITLES/DanceDanceRevolution II.png;
#MUSIC:A Year Without Rain (Full Song).ogg;
#OFFSET:0.000;
#SAMPLESTART:41.940;
#SAMPLELENGTH:15.000;
#SELECTABLE:YES;
#DISPLAYBPM:120.000;
#BPMS:0.000=120.000;
#STOPS:;
#BGCHANGES:;
#KEYSOUNDS:;

//---------------dance-single - ----------------
#NOTES:
     dance-single:
     :
     Beginner:
     1:
     0.099,0.121,0.000,0.049,0.000:
0000
0000
0000
0000
,
0000
0000
0000
0000
,
0000
0000
0000
0000
,
0000
0000
0000
0000
,
0000
0000
0000
0000
,
0001
0000
0000
0000
,
0001
0000
0000
0000
,
0001
0000
0000
0000
,
0010
0000
0000
0000
,
1000
0000
0000
0000
,
1000
0000
0000
0000
,
1000
0000
0000
0000
,
0010
0000
0000
0000
,
0001
0000
0001
0000
,
1000
0000
0000
0000
,
0010
0000
0010
0000
,
1000
0000
0000
0000
,
1000
0000
1000
0000
,
0001
0000
0000
0000
,
0010
0000
0010
0000
,
0001
0000
0000
0000
,
1000
0000
1000
0000
,
1000
0000
1000
0000
,
0010
0000
0010
0000
,
0010
0000
0010
0000
,
0001
0000
0001
0000
,
0001
0000
0001
0000
,
0010
0000
0010
0000
,
0010
0000
0010
0000
,
0020
0000
0000
0000
,
0000
0030
0000
0000
,
0001
0000
0100
0000
,
1000
0000
0100
0000
,
0020
0000
0000
0000
,
0000
0030
0000
0000
,
0001
0000
0100
0000
,
0000
0000
0000
0000
,
1000
0000
0000
0000
,
1000
0000
0000
0000
,
1000
0000
0000
0000
,
0010
0000
0000
0000
,
0001
0000
0000
0000
,
0001
0000
0000
0000
,
0001
0000
0000
0000
,
0010
0000
0000
0000
,
1000
0000
1000
0000
,
0001
0000
0000
0000
,
0010
0000
0010
0000
,
0001
0000
0000
0000
,
0001
0000
0001
0000
,
1000
0000
0000
0000
,
0010
0000
0010
0000
,
1000
0000
0000
0000
,
0001
0000
0001
0000
,
0001
0000
0001
0000
,
0010
0000
0010
0000
,
0010
0000
0010
0000
,
1000
0000
1000
0000
,
1000
0000
1000
0000
,
0010
0000
0010
0000
,
0010
0000
0010
0000
,
0020
0000
0000
0000
,
0000
0030
0000
0000
,
1000
0000
0100
0000
,
0001
0000
0100
0000
,
0020
0000
0000
0000
,
0000
0030
0000
0000
,
1000
0000
0100
0000
,
0000
0000
0000
0000
,
0010
0000
0000
0000
,
0100
0000
0000
0000
,
0010
0000
0000
0000
,
0100
0000
0000
0000
,
0010
0000
0000
0000
,
0100
0000
0000
0000
,
0010
0000
0000
0000
,
0100
0000
0000
0000
,
2000
0000
3000
0000
,
0020
0000
0030
0000
,
0200
0000
0300
0000
,
0002
0000
0003
0000
,
1000
0000
1000
0000
,
1000
0000
1000
0000
,
0010
0000
0010
0000
,
0010
0000
0010
0000
,
0001
0000
0001
0000
,
0001
0000
0001
0000
,
0010
0000
0010
0000
,
0010
0000
0010
0000
,
0020
0000
0000
0000
,
0000
0030
0000
0000
,
0001
0000
0100
0000
,
1000
0000
0100
0000
,
0020
0000
0000
0000
,
0000
0030
0000
0000
,
0001
0000
0100
0000
,
1000
1000
1000
1000
,
1000
0000
0000
0000
,
0001
0000
0000
0000
,
1000
0000
0000
0000
,
;

//---------------dance-single - ----------------
#NOTES:
     dance-single:
     :
     Easy:
     4:
     0.177,0.170,0.005,0.157,0.000:
0000
0000
0000
0000
,
0000
0000
0000
0000
,
0000
0000
0000
0000
,
0000
0000
0000
0000
,
0000
0000
0000
0000
,
1000
0000
1000
0000
,
0100
0000
0100
0000
,
0010
0000
0010
0000
,
0001
1000
0001
0000
,
0001
0000
0001
0000
,
0100
0000
0100
0000
,
0010
0000
0010
0000
,
1000
0001
1000
0000
,
0001
0000
0010
0000
,
0001
0000
0100
0000
,
0001
0000
1000
0000
,
0200
0000
0300
0000
,
1000
0000
0010
0000
,
1000
0000
0100
0000
,
1000
0000
0001
0000
,
0020
0000
0030
0000
,
0001
0000
0001
1000
,
0001
0000
0001
0100
,
0002
0003
2000
3000
,
0020
0030
0200
0300
,
0001
0000
0001
1000
,
0001
0000
0001
0100
,
0002
0003
2000
3000
,
0020
0030
0200
0300
,
0010
0010
0010
0000
,
1000
1000
1000
0000
,
0001
0001
0001
0000
,
0100
0100
0100
0000
,
0010
0010
0010
0000
,
1000
1000
1000
0000
,
0001
0001
0001
0000
,
0000
0000
0000
0000
,
0001
0000
0001
0000
,
0100
0000
0100
0000
,
0010
0000
0010
0000
,
1000
0001
1000
0000
,
1000
0000
1000
0000
,
0100
0000
0100
0000
,
0010
0000
0010
0000
,
0001
1000
0001
0000
,
1000
0000
0010
0000
,
1000
0000
0100
0000
,
1000
0000
0001
0000
,
0200
0000
0300
0000
,
0001
0000
0010
0000
,
0001
0000
0100
0000
,
0001
0000
1000
0000
,
0020
0000
0030
0000
,
1000
0000
1000
0001
,
1000
0000
1000
0100
,
2000
3000
0002
0003
,
0020
0030
0200
0300
,
1000
0000
1000
0001
,
1000
0000
1000
0100
,
2000
3000
0002
0003
,
0020
0030
0200
0300
,
0010
0010
0010
0000
,
0001
0001
0001
0000
,
1000
1000
1000
0000
,
0100
0100
0100
0000
,
0010
0010
0010
0000
,
0001
0001
0001
0000
,
1000
1000
1000
0000
,
0000
0000
0000
0000
,
0010
0000
0001
0000
,
0100
0000
1000
0000
,
0010
0000
0100
0000
,
0001
0100
0010
0000
,
0010
1000
0001
0000
,
0100
0010
1000
0000
,
0010
1000
0100
0000
,
0001
0100
0010
1000
,
0002
0000
0000
0003
,
0020
0000
0000
0030
,
0200
0000
0000
0300
,
2000
0000
0000
3000
,
0001
0000
0001
1000
,
0001
0000
0001
0100
,
0002
0003
2000
3000
,
0020
0030
0200
0300
,
0001
0000
0001
1000
,
0001
0000
0001
0100
,
0002
0003
2000
3000
,
0020
0030
0200
0300
,
0010
0010
0010
0000
,
1000
1000
1000
0000
,
0001
0001
0001
0000
,
0100
0100
0100
0000
,
0010
0010
0010
0000
,
1000
1000
1000
0000
,
0001
0001
0001
0000
,
1000
0001
1000
1001
,
0001
0000
0000
0000
,
0010
0000
0000
0000
,
0100
0000
0000
0000
;

//---------------dance-single - ----------------
#NOTES:
     dance-single:
     :
     Medium:
     6:
     0.259,0.218,0.069,0.088,0.000:
0000
0000
0000
0000
,
0000
0000
0000
0000
,
0000
0000
0000
0000
,
0000
0000
0000
0000
,
0000
0000
0000
0000
,
0000
0000
1000
0000
1000
0100
1000
0000
,
0000
0000
0100
0000
0100
0010
0100
0000
,
1000
1000
0100
0100
,
0010
0010
0001
1000
,
0000
0000
0001
0000
0001
0100
0001
0000
,
0000
0000
0100
0000
0100
0010
0100
0000
,
0001
0001
0100
0100
,
0010
0010
1000
0001
,
1000
0001
1000
0001
,
0100
0010
0100
0010
,
1000
0000
0100
1100
,
0001
0000
0001
0101
,
0001
1000
0001
1000
,
0100
0010
0100
0010
,
0001
0000
0100
0101
,
2000
0000
0100
3100
,
0000
0000
0001
0000
0010
0001
0010
0000
,
0000
0000
0100
0000
1000
0100
1000
0000
,
0002
0000
0103
0010
,
2000
0000
3100
1001
,
0000
0000
1000
0000
0010
1000
0010
0000
,
0000
0000
0100
0000
0001
0100
0001
0000
,
2000
0000
3100
0010
,
0200
0000
0310
1001
,
1000
0100
0010
0001
,
1000
0010
0100
0001
,
1000
0000
0001
0000
0100
0010
0100
0000
,
0001
0000
1000
0000
0010
0100
0010
0000
,
0001
0100
0010
1000
,
0001
0010
0100
1000
,
0001
0000
1000
0000
0100
0010
0100
0000
,
0010
0000
0000
0000
,
0000
0000
1000
0000
1000
0100
1000
0000
,
0000
0000
0100
0000
0100
0010
0100
0000
,
1000
1000
0100
0100
,
0010
0010
0001
1000
,
0000
0000
0001
0000
0001
0100
0001
0000
,
0000
0000
0100
0000
0100
0010
0100
0000
,
0001
0001
0100
0100
,
0010
0010
1000
0001
,
1000
0001
1000
0001
,
0100
0010
0100
0010
,
1000
0000
0100
1100
,
0001
0000
0001
0101
,
0001
1000
0001
1000
,
0100
0010
0100
0010
,
0001
0000
0100
0101
,
2000
0000
0100
3100
,
0000
0000
0001
0000
0010
0001
0010
0000
,
0000
0000
0100
0000
1000
0100
1000
0000
,
0002
0000
0103
0010
,
2000
0000
3100
1001
,
0000
0000
1000
0000
0010
1000
0010
0000
,
0000
0000
0100
0000
0001
0100
0001
0000
,
2000
0000
3100
0010
,
0200
0000
0310
1001
,
1000
0100
0010
0001
,
1000
0010
0100
0001
,
1000
0000
0001
0000
0100
0010
0100
0000
,
0001
0000
1000
0000
0010
0100
0010
0000
,
0001
0100
0010
1000
,
0001
0010
0100
1000
,
0001
0000
1000
0000
0100
0010
0100
0000
,
0100
0000
0000
0000
,
0001
0100
0010
0000
,
1000
0100
0100
0000
,
0010
0001
0100
0000
,
0010
0010
0010
0000
,
0001
0100
0010
0010
,
1000
0100
0100
0100
,
0010
0001
0100
0100
,
0010
0010
0010
0010
,
2000
0000
0000
0000
,
0002
0000
3000
0000
,
0200
0000
0003
0000
,
0020
0000
0000
0330
,
0000
0000
1000
0000
0010
1000
0010
0000
,
0000
0000
0100
0000
0001
0100
0001
0000
,
2000
0000
3100
0010
,
0002
0000
0103
1001
,
0000
0000
0001
0000
0010
0001
0010
0000
,
0000
0000
0100
0000
1000
0100
1000
0000
,
0002
0000
0103
0010
,
0200
0000
0310
1001
,
0001
0100
0010
1000
,
0001
0010
0100
1000
,
0001
0000
1000
0000
0100
0010
0100
0000
,
1000
0000
0001
0000
0010
0100
0010
0000
,
1000
0100
0010
0001
,
1000
0010
0100
0001
,
1000
0000
0001
0000
0100
0010
0100
0000
,
0100
0110
0100
0110
,
0001
0000
0000
0000
,
1000
0000
0000
0000
,
0010
0000
0000
0000
,
;

//---------------dance-single - ----------------
#NOTES:
     dance-single:
     :
     Hard:
     7:
     0.305,0.267,0.059,0.181,0.000:
0000
0000
0000
0000
,
0000
0000
0000
0000
,
0000
0000
0000
0000
,
0000
0000
0000
0000
,
0000
0000
0000
0000
,
0000
0000
0100
0000
0100
0010
0001
0000
,
0000
0000
0100
0000
0100
0010
0100
0000
,
0001
0100
0001
0010
,
1000
0100
0001
1000
,
0000
0000
0100
0000
0100
0010
1000
0000
,
0000
0000
0100
0000
0100
0010
0100
0000
,
1000
0100
1000
0010
,
0001
0100
1000
0001
,
0100
0010
0100
0000
0001
0000
0100
0000
,
1000
0100
1000
0000
0010
0000
0001
0000
,
0200
0310
0002
0103
,
2000
3010
0002
0103
,
0100
0010
0100
0000
1000
0000
0100
0000
,
0001
0100
0001
0000
0010
0000
1000
0000
,
0200
0310
2000
3100
,
0002
0000
0010
0013
,
0000
0000
1000
0100
0010
0100
2000
0000
,
3000
0000
0001
0100
0010
0100
0001
1000
,
0200
0000
0000
0000
0310
0001
0010
0000
,
0200
1000
0001
0310
,
0000
0000
0001
0100
0010
0100
0002
0000
,
0003
0000
1000
0100
0010
0100
1000
0001
,
0200
0000
0000
0000
0310
1000
0010
0000
,
0200
0001
0010
0310
,
1000
1000
1000
0100
,
0001
0000
0001
0000
0001
0010
0001
0010
,
0100
1000
0100
0001
,
0100
1000
0100
0000
0100
0001
0100
0000
,
0001
0001
0001
0100
,
1000
0000
1000
0000
1000
0010
1000
0010
,
0100
0001
0100
1000
,
0100
0000
0000
0000
,
0000
0000
0010
0000
0010
0100
0001
0000
,
0000
0000
0010
0000
0010
0100
0010
0000
,
0001
0010
0001
0100
,
1000
0010
0001
1000
,
0000
0000
0010
0000
0010
0100
1000
0000
,
0000
0000
0010
0000
0010
0100
0010
0000
,
1000
0010
1000
0100
,
0001
0010
1000
0001
,
0010
0100
0010
0000
0001
0000
0010
0000
,
1000
0010
1000
0000
0100
0000
0001
0000
,
0020
0130
0002
0013
,
2000
3100
0002
0013
,
0010
0100
0010
0000
1000
0000
0010
0000
,
0001
0010
0001
0000
0100
0000
1000
0000
,
0020
0130
2000
3010
,
0002
0000
0100
0103
,
0000
0000
1000
0010
0100
0010
2000
0000
,
3000
0000
0001
0010
0100
0010
0001
1000
,
0020
0000
0000
0000
0130
0001
0100
0000
,
0020
1000
0001
0130
,
0000
0000
0001
0010
0100
0010
0002
0000
,
0003
0000
1000
0010
0100
0010
1000
0001
,
0020
0000
0000
0000
0130
1000
0100
0000
,
0020
0001
0100
0130
,
1000
1000
1000
0010
,
0001
0000
0001
0000
0001
0100
0001
0100
,
0010
1000
0010
0001
,
0010
1000
0010
0000
0010
0001
0010
0000
,
0001
0001
0001
0010
,
1000
0000
1000
0000
1000
0100
1000
0100
,
0010
0001
0010
1000
,
0001
0000
0000
0000
,
1000
0100
1100
0000
,
0001
0010
0011
0000
,
0100
0010
0110
0000
,
1000
0001
1001
0000
,
1000
0001
1100
0000
,
0001
0100
0011
0000
,
0100
0001
0110
0000
,
1000
0010
1001
0000
,
0220
0000
0000
0030
,
2000
0000
0000
0300
,
0200
0000
0000
3000
,
0002
0000
0000
0303
,
0000
0000
1000
0100
0010
0100
2000
0000
,
3000
0000
0001
0100
0010
0100
0001
1000
,
0200
0000
0000
0000
0310
0001
0010
0000
,
0200
1000
0001
0310
,
0000
0000
0001
0100
0010
0100
0002
0000
,
0003
0000
1000
0100
0010
0100
1000
0001
,
0200
0000
0000
0000
0310
1000
0010
0000
,
0200
0001
0010
0310
,
1000
1000
1000
0100
,
0001
0000
0001
0000
0001
0010
0001
0010
,
0100
1000
0100
0001
,
0100
1000
0100
0000
0100
0001
0100
0000
,
0001
0001
0001
0100
,
1000
0000
1000
0000
1000
0010
1000
0010
,
0100
0001
0100
1000
,
0100
0101
0110
1010
,
0100
0000
0000
0000
,
0001
0000
0000
0000
,
0010
0000
0000
0000
,
;

//---------------dance-double - ----------------
#NOTES:
     dance-double:
     :
     Easy:
     4:
     0.196,0.170,0.020,0.137,0.000:
00000000
00000000
00000000
00000000
,
00000000
00000000
00000000
00000000
,
00000000
00000000
00000000
00000000
,
00000000
00000000
00000000
00000000
,
00000000
00000000
00000000
00000000
,
00000001
00000000
00000100
00000000
,
00000010
00000000
00001000
00000000
,
00000010
00000000
00010000
00010000
,
00001000
00000000
01000000
01000000
,
10000000
00000000
01000000
00000000
,
00100000
00000000
00010000
00000000
,
00100000
00000000
00001000
00001000
,
00010000
00000000
00000100
00000100
,
00000100
00000010
00000100
00000000
,
00010000
00001000
00010000
00000000
,
00001000
00100000
00100000
00000000
,
00010000
10000000
00010000
00000000
,
01000000
00100000
01000000
00000000
,
00001000
00010000
00001000
00000000
,
00010000
00000010
00000010
00000000
,
00001000
00000001
00001001
00000000
,
00000010
00000010
00000010
00000000
,
00010000
00001000
00000100
00000000
,
00000010
00010000
00001000
00010000
,
01000000
00100000
01000000
00000000
,
00100000
00100000
00100000
00000000
,
00001000
00010000
01000000
00000000
,
00100000
00001000
00010000
00001000
,
00000100
00000010
00000100
00000000
,
00000002
00000003
00000200
00000300
,
00002000
00003000
00020000
00030000
,
00100000
00000000
10000000
00010000
,
10000000
00000000
01000000
01000000
,
20000000
30000000
02000000
03000000
,
00020000
00030000
00002000
00003000
,
00000010
00000000
00000001
00001000
,
00000001
00000000
00000000
00000000
,
00000001
00000000
00000100
00000000
,
00000010
00000000
00001000
00000000
,
00000010
00000000
00010000
00010000
,
00001000
00000000
01000000
01000000
,
10000000
00000000
01000000
00000000
,
00100000
00000000
00010000
00000000
,
00100000
00000000
00001000
00001000
,
00010000
00000000
00000100
00000100
,
00000100
00000010
00000100
00000000
,
00010000
00001000
00010000
00000000
,
00001000
00100000
00100000
00000000
,
00010000
10000000
00010000
00000000
,
01000000
00100000
01000000
00000000
,
00001000
00010000
00001000
00000000
,
00010000
00000010
00000010
00000000
,
00001000
00000001
00001001
00000000
,
00000010
00000010
00000010
00000000
,
00010000
00001000
00000100
00000000
,
00000010
00010000
00001000
00010000
,
01000000
00100000
01000000
00000000
,
00100000
00100000
00100000
00000000
,
00001000
00010000
01000000
00000000
,
00100000
00001000
00010000
00001000
,
00000100
00000010
00000100
00000000
,
00000002
00000003
00000200
00000300
,
00002000
00003000
00020000
00030000
,
00100000
00000000
10000000
00010000
,
10000000
00000000
01000000
01000000
,
20000000
30000000
02000000
03000000
,
00020000
00030000
00002000
00003000
,
00000010
00000000
00000001
00001000
,
00000001
00000000
00000000
00000000
,
00000100
00000000
00000000
00000000
,
00001000
00001000
00001000
00000000
,
00100000
00000000
00000000
00000000
,
01000000
01000000
01000000
00000000
,
01000000
00000000
00100000
00000000
,
00001000
00010000
00010000
00000000
,
00000010
00000000
00001000
00000000
,
00000100
00000100
00000100
00000000
,
00000020
00000000
00000000
00000030
,
00002000
00000000
00000000
00003000
,
00020000
00000000
00000000
00030000
,
02000000
00000000
00000000
03000000
,
00100000
00100000
00100000
00000000
,
00001000
00010000
01000000
00000000
,
00100000
00001000
00010000
00001000
,
00000100
00000010
00000100
00000000
,
00000010
00000010
00000010
00000000
,
00010000
00001000
00000100
00000000
,
00000010
00010000
00001000
00010000
,
01000000
00100000
01000000
00000000
,
20000000
30000000
02000000
03000000
,
00020000
00030000
00002000
00003000
,
00000010
00000000
00000001
00001000
,
00000001
00000000
00000100
00000100
,
00000002
00000003
00000200
00000300
,
00002000
00003000
00020000
00030000
,
00100000
00000000
10000000
00010000
,
10000000
10010000
00010000
10010000
,
10000000
00000000
00000000
00000000
,
01000000
00000000
00000000
00000000
,
00100000
00000000
00000000
00000000
,
;

//---------------dance-double - ----------------
#NOTES:
     dance-double:
     :
     Medium:
     6:
     0.297,0.267,0.103,0.255,0.000:
00000000
00000000
00000000
00000000
,
00000000
00000000
00000000
00000000
,
00000000
00000000
00000000
00000000
,
00000000
00000000
00000000
00000000
,
00000000
00000000
00000000
00000000
,
00000000
00000000
00010000
00000000
00100000
00010000
00100000
00000000
,
00000000
00000000
10000000
00000000
01000000
10000000
01000000
00000000
,
00100000
00001000
00010000
00000100
,
00010000
00000000
00001000
00000000
00000100
00000010
00000100
00000000
,
00000000
00000000
00001000
00000000
00000010
00001000
00000010
00000000
,
00000000
00000000
00000001
00000000
00000100
00000001
00000100
00000000
,
00000010
00010000
00001000
01000000
,
00001000
00000000
00010000
00000000
01000000
00100000
01000000
00000000
,
10000000
00000000
01000000
00000000
00100000
00000000
00001000
00010000
,
00001000
00000000
00000100
00000000
00000001
00000000
00001000
00000001
,
00001000
00000000
00000100
00000000
00010000
00000000
00001000
00010000
,
00001000
00000100
00000001
00000000
,
00000001
00000000
00000100
00000000
00000010
00000000
00010000
00001000
,
00010000
00000000
01000000
00000000
10000000
00000000
00010000
10000000
,
00010000
00000000
01000000
00000000
00001000
00000000
00010000
00001000
,
00010000
01000000
10000000
10010000
,
00000000
00000000
01000000
00100000
01000000
00000000
01100000
00000000
,
00000000
00000000
00010000
00100000
00010000
00000000
00110000
00000000
,
00200000
00301000
00020000
00030010
,
00002000
00013000
00002000
00003100
,
00000000
00000000
00000100
00000010
00000100
00000000
00000110
00000000
,
00000000
00000000
00001000
00000010
00001000
00000000
00001010
00000000
,
00000020
00010030
00002000
00103000
,
00020000
00031000
00020000
01030000
,
20000000
00100000
31000000
00010000
,
00200000
00001000
00310000
00001000
,
00000200
00000000
00000320
00000000
,
00010030
00001000
00000100
00000001
,
00000002
00000010
00000103
00001000
,
00000020
00010000
00001030
00010000
,
02000000
00000000
03200000
00000000
,
00301000
00000000
00000000
00000000
,
00000000
00000000
00001000
00000000
00000010
00001000
00000010
00000000
,
00000000
00000000
00000001
00000000
00000100
00000001
00000100
00000000
,
00000010
00010000
00001000
01000000
,
00001000
00000000
00010000
00000000
01000000
00100000
01000000
00000000
,
00000000
00000000
00010000
00000000
00100000
00010000
00100000
00000000
,
00000000
00000000
10000000
00000000
01000000
10000000
01000000
00000000
,
00100000
00001000
00010000
00000100
,
00010000
00000000
00001000
00000000
00000100
00000010
00000100
00000000
,
00000001
00000000
00000100
00000000
00000010
00000000
00010000
00001000
,
00010000
00000000
01000000
00000000
10000000
00000000
00010000
10000000
,
00010000
00000000
01000000
00000000
00001000
00000000
00010000
00001000
,
00010000
01000000
10000000
00000000
,
10000000
00000000
01000000
00000000
00100000
00000000
00001000
00010000
,
00001000
00000000
00000100
00000000
00000001
00000000
00001000
00000001
,
00001000
00000000
00000100
00000000
00010000
00000000
00001000
00010000
,
00001000
00000100
00000001
00001001
,
00000000
00000000
00000100
00000010
00000100
00000000
00000110
00000000
,
00000000
00000000
00001000
00000010
00001000
00000000
00001010
00000000
,
00000020
00010030
00002000
00103000
,
00020000
00031000
00020000
01030000
,
00000000
00000000
01000000
00100000
01000000
00000000
01100000
00000000
,
00000000
00000000
00010000
00100000
00010000
00000000
00110000
00000000
,
00200000
00301000
00020000
00030010
,
00002000
00013000
00002000
00003100
,
00000002
00000010
00000103
00001000
,
00000020
00010000
00001030
00010000
,
02000000
00000000
03200000
00000000
,
00301000
00010000
01000000
10000000
,
20000000
00100000
31000000
00010000
,
00200000
00001000
00310000
00001000
,
00000200
00000000
00000320
00000000
,
00000130
00000000
00000000
00000000
,
00000001
00000000
00000100
00000010
,
00010000
00001000
00011000
00000000
,
00100000
00000000
00001000
01000000
,
01000000
00100000
01100000
00000000
,
10000000
10000000
01000000
00100000
,
00001000
00010000
00011000
00010000
,
00000010
00010000
00010000
00000100
,
00000100
00000010
00000110
00000110
,
00020000
00000000
00000000
00000000
,
00032000
00000000
00000000
00000000
,
02003000
00000000
00000000
00000000
,
00200000
00000000
00000000
03300000
,
00000000
00000000
01000000
00100000
01000000
00000000
01100000
00000000
,
00000000
00000000
00010000
00100000
00010000
00000000
00110000
00000000
,
00200000
00301000
00020000
00030010
,
00002000
00013000
00002000
00003100
,
00000000
00000000
00000100
00000010
00000100
00000000
00000110
00000000
,
00000000
00000000
00001000
00000010
00001000
00000000
00001010
00000000
,
00000020
00010030
00002000
00103000
,
00020000
00031000
00020000
01030000
,
20000000
00100000
31000000
00010000
,
00200000
00001000
00310000
00001000
,
00000200
00000000
00000320
00000000
,
00010030
00001000
00000100
00000001
,
00000002
00000010
00000103
00001000
,
00000020
00010000
00001030
00010000
,
02000000
00000000
03200000
00000000
,
01300000
01100000
00100000
01100000
,
00010000
00000000
00000000
00000000
,
00001000
00000000
00000000
00000000
,
00000010
00000000
00000000
00000000
,
;

//---------------dance-double - ----------------
#NOTES:
     dance-double:
     :
     Hard:
     8:
     0.317,0.291,0.069,0.137,0.010:
00000000
00000000
00000000
00000000
,
00000000
00000000
00000000
00000000
,
00000000
00000000
00000000
00000000
,
00000000
00000000
00000000
00000000
,
00000000
00000000
00000000
00000000
,
00000001
00000000
00000100
00000010
00000100
00000010
00000100
00000000
,
00001000
00000000
00010000
00001000
00010000
00001000
00010000
00000000
,
01000000
10000000
01000000
00100000
,
00010000
00001000
00100000
01000000
,
10000000
00000000
01000000
00100000
01000000
00100000
01000000
00000000
,
00010000
00000000
00001000
00010000
00001000
00010000
00001000
00000000
,
00000100
00000001
00000100
00000010
,
00001000
00010000
00000010
00000010
,
00000100
00000000
00000001
00000000
00000100
00001000
00000100
00001000
,
00010000
00001000
00100000
00010000
,
01000000
00100000
00010000
00000000
10000000
01000000
00001000
00000000
,
00010000
00001000
01000000
00010000
,
01000000
00000000
10000000
00000000
01000000
00010000
01000000
00010000
,
00001000
00010000
00000010
00001000
,
00000100
00000010
00001000
00000000
00000001
00000100
00010000
00000000
,
00001000
00010000
00001000
00011000
,
01000000
00000000
00100000
00010000
00001000
00010000
00100000
00000000
,
10000000
00000000
01000000
00010000
01000000
10000000
01000000
00000000
,
00200000
00001000
00320000
01000000
,
00130000
00001000
00010000
00000010
,
00000100
00000000
00000010
00001000
00010000
00001000
00000010
00000000
,
00000001
00000000
00000100
00001000
00000100
00000001
00000100
00000000
,
00000020
00010000
00002030
00000100
,
00003010
00010000
00001000
00011000
,
02000000
10000000
00100000
00010000
,
03002000
01000000
00100000
00010000
,
00003010
00000001
00000010
00000010
,
00000100
00010000
00000100
00000110
,
00000200
00000001
00000010
00001000
,
00020300
00000100
00000010
00001000
,
00130000
10000000
00100000
00100000
,
00000000
00000000
00000000
00000000
,
10000000
00000000
01000000
00100000
01000000
00100000
01000000
00000000
,
00010000
00000000
00001000
00010000
00001000
00010000
00001000
00000000
,
00000100
00000001
00000100
00000010
,
00001000
00010000
00000010
00000100
,
00000001
00000000
00000100
00000010
00000100
00000010
00000100
00000000
,
00001000
00000000
00010000
00001000
00010000
00001000
00010000
00000000
,
01000000
10000000
01000000
00100000
,
00010000
00001000
00100000
00100000
,
01000000
00000000
10000000
00000000
01000000
00010000
01000000
00010000
,
00001000
00010000
00000010
00001000
,
00000100
00000010
00001000
00000000
00000001
00000100
00010000
00000000
,
00001000
00010000
00000100
00001000
,
00000100
00000000
00000001
00000000
00000100
00001000
00000100
00001000
,
00010000
00001000
00100000
00010000
,
01000000
00100000
00010000
00000000
10000000
01000000
00001000
00000000
,
00010000
00001000
00010000
00011000
,
00000100
00000000
00000010
00001000
00010000
00001000
00000010
00000000
,
00000001
00000000
00000100
00001000
00000100
00000001
00000100
00000000
,
00000020
00010000
00002030
00000100
,
00003010
00010000
00001000
00100000
,
01000000
00000000
00100000
00010000
00001000
00010000
00100000
00000000
,
10000000
00000000
01000000
00010000
01000000
10000000
01000000
00000000
,
00200000
00001000
00320000
01000000
,
00130000
00001000
00010000
00011000
,
00000200
00000001
00000010
00001000
,
00020300
00000100
00000010
00001000
,
00130000
10000000
00100000
00100000
,
01000000
00001000
01000000
01100000
,
02000000
10000000
00100000
00010000
,
03002000
01000000
00100000
00010000
,
00003010
00000001
00000010
00000010
,
00000000
00000000
00000000
00000000
,
00000001
00000000
00000000
00000001
00000000
00000000
00000001
00000000
00000000
00000000
00000000
00000000
00000000
00000000
00000000
00000000
,
00000100
00001000
00010000
00100000
,
01000000
00000000
00000000
01000000
00000000
00000000
01000000
00000000
00000000
00000000
00000000
00000000
00000000
00000000
00000000
00000000
,
00100000
00010000
00001000
00000100
00000010
00000000
00000110
00000000
,
00000001
00000000
00000000
00000001
00000000
00000000
00000001
00000000
00001000
00000000
00000000
00000000
00000000
00000000
00000000
00000000
,
00000100
00001000
00010000
10100000
,
01000000
00000000
00000000
01000000
00000000
00000000
01000000
00000000
10000000
00000000
00000000
00000000
00000000
00000000
00000000
00000000
,
00100000
00010000
00001000
00000100
00000010
00000100
00000110
00000000
,
00000002
00000000
00000000
00000000
,
00000200
00000000
00000003
00000000
,
00020000
00000000
00000300
00000000
,
20000000
00000000
00000000
30030000
,
01000000
00000000
00100000
00010000
00001000
00010000
00100000
00000000
,
10000000
00000000
01000000
00010000
01000000
10000000
01000000
00000000
,
00200000
00001000
00320000
01000000
,
00130000
00001000
00010000
00000010
,
00000100
00000000
00000010
00001000
00010000
00001000
00000010
00000000
,
00000001
00000000
00000100
00001000
00000100
00000001
00000100
00000000
,
00000020
00010000
00002030
00000100
,
00003010
00010000
00001000
00011000
,
02000000
10000000
00100000
00010000
,
03002000
01000000
00100000
00010000
,
00003010
00000001
00000010
00000010
,
00000100
00010000
00000100
00000110
,
00000200
00000001
00000010
00001000
,
00020300
00000100
00000010
00001000
,
00130000
10000000
00100000
00100000
,
01000000
00110000
00011000
00001010
,
00000001
00000000
00000000
00000000
,
00001000
00000000
00000000
00000000
,
00010000
00000000
00000000
00000000
,
;

//---------------dance-single - 370K----------------
#NOTES:
     dance-single:
     370K:
     Challenge:
     9:
     0.559,0.728,0.417,0.127,0.358:
0000
0000
0000
0000
,
0000
0000
0000
0000
,
0000
0000
0000
0000
,
0010
0010
0010
0010
0010
0010
0010
0010
,
0100
0100
0100
0100
0100
0100
0100
0000
,
0000
0000
0000
0000
1100
0000
0000
0000
0100
0000
0100
0010
0100
0000
0000
0000
,
0000
0000
0010
0000
0100
0001
2200
0000
,
0001
0010
0001
3310
,
1000
1000
0100
0100
0001
0001
0010
0010
,
0000
0000
0000
0000
1000
0000
0100
0000
0010
0001
0010
0000
0011
0000
0000
0000
,
0000
0000
0100
0000
0100
0010
0100
0000
,
2002
0010
0100
3013
,
0001
0100
1000
0001
,
0100
0000
0010
0000
0100
0000
0010
0000
0001
0000
0010
0100
0010
0000
1000
0000
,
0100
0000
1000
0000
0100
0000
0010
0000
0100
0000
0010
0001
0010
0000
0000
0000
,
0100
0000
0000
0100
0010
0000
0000
0000
0001
0000
0000
0001
0100
0000
0000
0000
,
1000
0000
0000
1000
0010
0000
0000
0000
0001
0000
0000
0001
0100
0000
0000
0000
,
0100
0010
0100
0000
0100
0000
0010
0000
1000
0100
1000
0000
0100
0000
0001
0010
,
0100
1000
0100
0000
0010
0000
1000
0000
,
0100
0000
0000
0100
0010
0000
0000
0000
1000
0000
0000
1000
0100
0000
0000
0000
,
0002
0000
1100
1103
,
1000
0000
0100
0000
1000
0000
1000
0100
0010
0000
0100
0000
1000
0000
0100
0000
,
0010
0100
0001
0100
0010
0100
0001
1000
,
0100
0000
0000
0000
0010
0100
0010
0000
0010
0000
0001
0000
0010
0000
0000
0000
,
0100
0100
1100
0100
0101
0100
0110
0100
,
0101
0000
0100
0000
0001
0000
0100
0000
0010
0000
0100
0010
0100
0000
0000
0000
,
0000
0000
1100
0100
0110
0100
0101
0001
,
0011
0000
0000
0000
0010
1000
0010
0011
,
0000
0101
0000
1100
0000
1010
0010
0000
,
1000
0100
1000
0100
0010
0100
0010
0100
0001
0100
0001
0100
0010
0100
0010
0100
,
1000
0100
1000
0100
0010
0100
0010
0100
0001
0100
0000
0000
0001
0000
0010
0000
,
0100
1100
0000
0110
0000
0011
0110
0101
,
0000
0000
0101
0000
0000
0000
1010
0000
0000
0000
0001
0000
0100
0000
0010
0001
,
0010
0001
0100
0001
0100
0001
1000
0001
1000
0001
0100
0001
0100
0001
0010
0001
,
0010
0001
1000
0001
1000
0001
0100
0001
0100
0001
0010
0001
0010
0001
0100
0000
,
0100
0001
0100
1000
,
0100
0000
0000
0100
0000
0100
0000
0100
,
0100
0000
0000
0000
0010
0100
0010
0000
0010
0000
0100
0000
0001
0000
0000
0000
,
0000
0010
0001
0010
1000
0100
0001
0020
,
0000
0000
0000
1000
0030
0000
0000
0000
,
1000
1000
0010
0010
0001
0000
1001
0000
,
0000
0000
0100
0000
0010
0000
0001
0000
0010
0000
0100
1000
0100
0000
0010
0000
,
0100
0000
0010
0000
0001
0000
0100
0010
0100
0000
0100
0000
0010
0000
0000
0000
,
1000
0010
1000
0100
,
0001
0001
0020
0000
2000
0000
3131
0000
,
0010
0000
0100
0000
0010
0001
0010
0000
0001
0000
0100
0000
0010
1000
0010
0000
,
1000
0000
0010
0001
0010
0000
0000
0000
0100
0000
0000
0000
0001
0000
0000
0000
,
0010
0000
0000
0010
0100
0000
0000
0000
0001
0000
0000
0001
0010
0000
0000
0000
,
1000
0000
0000
1000
0100
0000
0000
0000
0001
0000
0000
0001
0010
0000
0000
0000
,
0010
0000
0100
0000
0010
0100
0010
0000
1000
0000
0100
0010
0100
0000
0001
0000
,
0100
0000
1000
0010
0100
0000
0000
0100
1000
0000
0000
0000
1000
0000
0000
0000
,
0010
0000
0000
0010
0100
0000
0000
0000
1000
0000
0000
1000
0010
0000
0000
0000
,
0002
0000
0110
0113
,
1000
0000
0100
0000
1000
0100
0010
0000
0100
0000
0010
0100
1000
0000
0100
0000
,
1000
0000
0010
0001
0010
0000
0010
0000
0100
0000
1010
0000
0011
0000
0000
0000
,
0020
0100
1000
0100
0130
0001
0100
0000
,
0120
0100
1100
0100
0101
0100
1130
0100
,
0101
0000
0010
0000
0001
0000
0010
0100
0010
0000
0010
0000
0002
0000
0010
0000
,
0003
0000
0100
0000
1000
0000
0010
0000
0100
0010
0100
0010
0100
0000
0001
0000
,
0120
0100
0100
0100
0130
1000
0100
1001
,
0000
0110
0000
1001
0000
0110
0100
0000
,
1000
0100
0010
0001
1000
0100
0010
0001
1000
0100
0010
0001
0010
0100
1000
0001
,
0010
0100
1000
0001
0010
0100
1000
0010
0100
0001
1000
0100
0010
0000
0100
0000
,
0010
0000
1000
0000
0011
0011
0011
0000
,
1010
0000
0000
1010
0000
0000
1010
0000
0000
0000
0000
0000
0101
0000
0000
0101
0000
0000
0101
0000
0000
0001
0010
0001
,
0010
0001
0010
0001
0000
0000
0001
0000
0000
0000
0001
0100
0001
0100
0001
0100
0001
0000
0010
0000
0000
0000
0100
1000
,
0100
1000
0100
1000
0100
0000
1000
0000
0000
0000
0001
1000
0001
1000
0001
1000
0001
0000
1000
0000
0000
0100
0000
0000
,
0010
0000
0001
0000
0010
0000
0100
0000
1010
0000
0000
0110
0000
0000
0101
0000
,
2002
0000
0000
0000
,
0100
0100
0100
0000
,
0010
0010
0010
0000
,
0100
0000
0000
0100
0000
0000
0010
0000
0000
0000
0000
0000
0000
0000
0000
0000
,
0220
0000
0000
0000
3333
1000
0100
0010
,
1000
0100
1000
0100
1000
0000
1100
0000
1100
0000
0000
0000
0011
0000
0000
0000
,
0001
0100
0001
0100
0001
0000
0011
0000
0011
0000
0000
0000
1001
0000
0000
0000
,
0100
1000
0100
0010
0100
1000
0000
0000
0220
0000
0000
0000
0000
0000
0000
0000
,
0000
1000
0001
1000
0001
0001
1331
0000
,
0440
0000
0000
0030
,
4000
0000
0000
0300
,
0400
0000
0000
0000
3000
0010
0010
0010
,
0040
0000
0000
0330
,
1000
0000
1100
0000
1000
0100
0010
0000
0110
0000
0010
0100
0001
0000
0011
0000
,
0110
0000
0010
0001
0010
0000
0011
0000
0100
0000
1010
0000
0011
0000
0000
0000
,
0020
0100
1000
0001
0130
0001
0100
0000
,
0010
0020
1030
2000
3100
0200
0301
0002
,
0103
0000
1000
0000
0010
0000
1000
0100
1000
0000
0010
0000
2000
0000
0100
0000
,
3000
0000
0100
0000
1000
0000
0010
0000
0100
0010
0100
0010
0100
0000
0001
0000
,
0120
0100
0100
0100
0130
1000
0100
1001
,
0000
0110
0000
1001
0000
0110
0100
0000
,
1000
0100
0010
0001
0010
0100
1000
0000
0000
0001
0000
0000
0001
0010
0100
1000
0100
0010
0001
0000
0000
0010
0000
0000
,
0100
0010
0100
0010
0100
0010
0100
0000
0000
0110
0000
1000
0100
1000
0100
1000
0100
0000
0010
0000
0000
0100
0000
0000
,
0010
0000
1000
0000
0001
0001
0001
0000
,
0010
0010
0010
0000
0100
0100
0100
0000
,
0001
0010
0100
0010
0001
0010
0100
1000
0100
0010
0100
1000
0100
0010
0001
0100
,
1000
0100
0001
0100
1000
0100
0001
0010
1000
0010
0001
0010
1000
0010
0001
0000
,
1100
0101
0011
1010
,
0100
0101
0111
1111
,
0400
0000
0000
0000
,
0004
0000
0000
0000
,
1313
0000
0000
0000
;
