#TITLE:A Stupid Barber;
#SUBTITLE:(Excited Hair Remix);
#ARTIST:Shot-T/Routine;
#TITLETRANSLIT:;
#SUBTITLETRANSLIT:;
#ARTISTTRANSLIT:;
#CREDIT:;
#BANNER:bn.png;
#BACKGROUND:bg.png;
#LYRICSPATH:;
#CDTITLE:;
#MUSIC:A Stupid Barber (Excited Hair Remix).mp3;
#OFFSET:0.000;
#SAMPLESTART:51.170;
#SAMPLELENGTH:12.000;
#SELECTABLE:YES;
#BPMS:0.000=183.660;
#STOPS:;
#BGCHANGES:;

//---------------dance-single - ----------------
#NOTES:
     dance-single:
     :
     Beginner:
     2:
     0.275,0.365,0.051,0.257,0.000:
0000
0000
0000
0000
,
0000
0000
1000
0001
,
0000
1000
0010
0100
,
0000
0001
0010
0100
,
1000
0002
0000
0003
,
0010
0100
0000
0010
,
0001
0010
0100
0020
,
0000
0030
1000
0000
,
0001
1000
0001
1000
,
0001
0000
1000
0001
,
0010
0100
0000
0010
,
0100
0020
0000
0000
,
0000
0030
0100
0110
,
0000
0000
0000
0010
,
0110
0000
0000
0000
,
0001
0000
1000
0001
,
0010
0100
0000
0100
,
0010
0000
0000
0001
,
1000
0000
0000
0100
,
0000
0100
0010
0000
,
0001
0000
0000
1000
,
0000
0001
0000
0000
,
1000
0000
0000
0010
,
0010
0010
0010
0010
,
0010
0010
0010
0010
,
0010
0100
0100
0100
,
0100
0100
0100
0100
,
0000
0000
0002
0000
,
0003
2000
0000
3000
,
0002
0000
2003
0000
,
3000
0002
0000
2003
,
0000
3002
0000
2003
,
0000
3002
1003
0010
,
0010
0010
0000
0010
,
0100
0100
0100
0000
,
0100
0002
0000
0000
,
0000
2000
0000
0000
,
0000
3003
0000
0010
,
0010
0100
0100
0000
,
0010
0010
0001
0001
,
0000
2000
0000
0000
,
0000
0000
0002
0000
,
0000
0000
3003
1000
,
0100
0010
0000
0001
,
0010
0100
0000
1000
,
0200
0000
0000
0000
,
0000
0300
0010
0010
,
0010
0000
0000
0002
,
0000
2000
0000
0003
,
0002
0000
3000
2000
,
0000
0000
3000
2003
,
3002
2003
0000
3002
,
2003
3001
0000
0010
,
0000
0010
0010
0010
,
0010
0000
0010
0000
,
0000
0000
0010
0000
,
0000
0000
0010
0000
,
0000
0000
0000
0010
,
0000
0000
0010
0000
,
0010
0000
0000
0000
,
0010
0000
0000
0000
,
0010
0000
0000
0000
,
0100
0000
0000
0000
,
0110
0000
0010
0100
,
0010
0100
0010
0100
,
0010
0100
0010
0100
,
0100
0100
0001
1000
,
0001
0020
0000
0030
,
0100
0100
0001
1000
,
0000
0001
0001
0010
,
0100
0000
0100
0010
,
0001
0000
1000
0001
,
1000
0001
0000
1000
,
0020
0000
0000
0000
,
0030
0100
0100
0101
,
0000
0000
0100
0100
,
0101
0100
0000
0100
,
0100
0202
0000
0303
,
0010
0010
0100
0000
,
0010
0001
0000
0000
,
0001
0000
1000
0000
,
1000
0000
0000
0000
,
1000
0000
0000
0000
,
1000
0000
0000
0000
,
0001
0000
0000
0000
,
1000
0000
0000
0000
;

//---------------dance-single - ----------------
#NOTES:
     dance-single:
     :
     Easy:
     3:
     0.435,0.583,0.806,0.326,0.000:
0000
0000
0000
0000
,
0000
1000
0100
0010
,
0010
0010
0001
1000
,
0000
0010
0100
0100
,
0100
0010
0000
0000
,
0001
0001
1000
0000
,
1000
0001
1000
0000
,
0001
1000
0001
1000
,
0000
0002
0003
2000
,
0000
3000
0002
0003
,
0001
1000
1001
0000
,
0000
1001
1001
0000
,
0110
0000
0011
0000
,
0011
0011
0011
0011
,
0000
0011
0000
0011
,
0011
0000
0011
0011
,
0011
0011
0011
0000
,
0011
1100
0011
0000
,
1100
1010
0101
1000
,
0010
0001
0010
0100
,
0000
1100
0000
0000
,
0000
0000
1100
0011
,
0000
0000
0000
1100
,
1100
1000
0100
0000
,
1000
0100
1000
1100
,
0000
0010
0001
0010
,
0011
0000
0011
0000
,
0010
0000
0000
0011
,
0011
0001
0011
0000
,
0011
0011
0001
0011
,
0000
0010
0010
0001
,
0001
0000
1100
0100
,
0200
0000
0000
0320
,
0000
0032
0000
0000
,
0023
0000
0230
0000
,
0000
2300
0000
3200
,
0000
0000
0320
0000
,
0032
0000
0023
0000
,
0230
0000
2300
0000
,
3200
0000
0320
0000
,
0032
0023
0000
0230
,
2300
0000
3200
0320
,
0032
0023
0130
1000
,
1000
1000
0000
1000
,
1000
1000
0000
1001
,
0001
1000
0001
0000
,
0001
0001
1000
0010
,
0200
0000
0300
1000
,
1000
0000
1000
1000
,
1000
1000
0000
1000
,
1000
1000
1000
1000
,
1000
1000
1000
1000
,
0000
1001
1001
0020
,
0000
0000
0200
0000
,
0300
0000
0200
0000
,
0330
0200
0000
0020
,
0030
0010
0000
0010
,
0000
0020
0030
0020
,
0030
0020
0000
0000
,
0000
0030
0020
0000
,
0330
0001
1000
0001
,
1000
0001
0011
0000
,
0110
0000
0000
0000
,
0100
0110
0110
0110
,
0000
0110
0110
0110
,
0000
0000
0110
1001
,
0101
0010
1000
0010
,
0010
0000
0000
0000
,
1001
0110
0011
1100
,
0000
0010
1010
0001
,
0000
0000
1001
0110
,
0101
1010
0000
1100
,
0011
0000
0000
0000
,
1010
1010
0101
0101
,
0000
1001
0110
0011
,
0000
1100
0010
0010
,
1001
0000
1001
0110
,
0011
0011
0000
0011
,
1100
1010
0101
0000
,
1010
0101
0101
0000
,
0011
1010
0101
1010
,
0101
0000
1010
1010
,
0011
0000
1010
0100
,
0020
0000
0200
0030
,
0000
0301
1001
1002
,
0003
0000
0000
0000
;

//---------------dance-single - ----------------
#NOTES:
     dance-single:
     :
     Medium:
     7:
     0.494,0.621,0.558,0.129,0.000:
0000
0000
0000
0000
,
0000
0000
0000
1000
0000
0000
0010
0010
,
0000
0010
0000
0000
0001
0000
0000
0001
,
0000
1000
0000
0000
1000
0000
0010
0010
,
0010
0000
0000
0010
0010
0010
0000
0000
,
0010
0010
0000
0010
0000
0010
0000
0010
,
0010
0000
0010
0000
0010
0010
0000
0010
,
0000
0010
0010
0000
0010
0010
0000
0010
,
0000
0010
0000
0010
0000
0000
0010
0000
,
0000
0010
0000
0010
0000
0000
0010
0000
,
0000
0001
1000
0001
1000
0000
0001
1000
,
0001
0002
0000
2000
,
0000
0000
3003
0000
0000
0010
0010
0000
,
0100
0000
0100
0000
0000
0000
0000
0010
,
0000
0010
0000
0001
0000
0000
0010
0000
,
0000
0001
0000
0001
0000
0000
0010
0000
,
0000
0001
0001
0010
0000
0010
0000
0001
,
0000
0000
0000
0000
0000
0001
0001
0001
,
0000
0000
0010
0000
0010
0000
0100
0100
,
0100
0000
0010
0000
,
0000
0010
0000
0001
0000
0000
0010
0000
,
0001
0000
0000
1000
0000
0100
0000
0010
,
0001
0000
0000
0000
0000
1000
0000
0010
,
0000
0100
0000
0010
0010
0000
0010
0001
,
0000
0010
0100
1200
0000
0000
0000
0300
,
0000
0010
0000
1000
0100
0000
0010
0000
,
0001
0010
0011
0010
0001
0010
0000
0001
,
0000
0000
0000
0000
0000
1000
0100
1000
,
0000
0100
0100
0000
0010
0010
0000
0001
,
0000
0010
0000
0001
0001
0001
0001
0000
,
0000
0000
1001
1001
0110
0000
1001
0000
,
1001
0110
0000
0000
0011
0000
1100
0000
,
0000
1010
0000
0101
0000
0020
0000
0000
,
0000
0000
0000
0200
0000
0000
0300
0000
,
1000
0000
1000
0000
0000
0001
0000
0000
,
0030
0000
0001
0100
1000
0100
0000
0010
,
0000
0001
0000
0010
0000
0100
0001
0010
,
0010
0000
0100
0100
0000
0000
0100
0100
,
0000
0000
0010
0010
0010
0000
0000
0000
,
0001
0001
0000
0000
0000
0010
0010
0010
,
0000
0000
0010
0010
0010
0010
0010
0010
,
0010
0010
0010
0010
0000
0000
0000
0000
,
0000
0000
0000
0000
0000
0001
0001
0001
,
0000
0000
0000
0000
,
0001
0001
0001
0000
0000
0000
0000
0000
,
0000
0000
1000
1000
1000
0000
0000
0010
,
0010
0010
0000
0000
0100
0100
0100
0000
,
0000
0001
0001
0000
0000
0000
0010
0010
,
0010
0010
0010
0010
0010
0010
0010
0010
,
0010
0010
0010
0010
0000
0200
0000
0000
,
0000
0300
0000
0010
0010
0010
0010
0010
,
0010
0010
0010
0010
0200
0000
0000
0000
,
0002
0300
0000
0000
0003
0000
0000
1001
,
1001
0110
0000
0000
1001
1001
0000
0110
,
0000
1001
0000
0110
0000
1001
0000
1001
,
0000
0110
0000
0001
0000
1000
0001
0000
,
0000
1000
1000
0000
0000
0001
0000
1000
,
1000
0000
0000
0000
0000
0000
0000
1001
,
0000
0110
0110
0000
0000
1001
0110
0000
,
0000
0110
0000
1001
0000
0110
0000
0110
,
0010
0100
0000
1001
0000
1001
0000
0010
,
0000
1001
1000
0010
0000
0001
0000
0010
,
0000
0001
0000
0000
0000
0000
0000
1001
,
0000
0010
0000
0000
1001
0000
0010
0000
,
0000
1001
0000
0010
0000
1001
0000
1001
,
0000
0010
0000
1001
0000
0000
0010
0000
,
1001
1001
0000
0010
0000
0000
0001
0000
,
0010
0000
0001
0000
0000
0000
0000
1000
,
0001
0000
0010
0000
1001
0000
0000
0010
,
0000
0001
1000
0010
0000
1001
0010
0000
,
0000
0000
0000
1001
0000
0010
0000
1001
,
0010
0000
0000
1001
0000
0000
1001
1001
,
0000
1001
0010
0000
0000
0000
0000
0000
,
1001
0010
0000
1001
0010
0000
0000
1001
,
0010
0000
0000
1001
0010
0000
0000
0000
,
1001
0010
0000
0000
0010
0000
0010
0000
,
0000
0100
0000
0100
0000
0000
0010
0010
,
0010
0010
0002
0000
0000
0000
0003
0000
,
0010
0010
0010
0020
0000
0000
0000
0030
,
0000
0010
0010
0020
0000
0000
0000
0030
,
0000
0000
0010
0010
0020
0000
0000
0030
,
0000
0200
0000
0000
0000
0300
0001
0001
,
1001
0001
1000
0001
1000
1001
0001
0000
,
1001
0000
0000
0110
0000
0011
0000
0000
,
1100
1010
0101
2002
,
0000
3003
0000
0000
0000
0000
0000
0000
;

//---------------dance-single - ----------------
#NOTES:
     dance-single:
     :
     Hard:
     7:
     0.520,0.876,0.317,0.317,0.000:
0000
0000
0000
0000
,
0000
1000
0000
0000
0001
0000
0000
0010
,
0010
0010
0000
0000
0100
0100
0100
0000
,
0000
0010
0010
0010
0000
0000
0001
1000
,
0001
0010
0000
0200
0000
0000
0300
0000
,
0001
0000
0010
0000
0000
0100
0100
0000
,
0010
0001
0010
0000
0100
0010
0002
0000
,
0000
0003
0000
0000
2000
0000
0000
0000
,
0000
0002
0000
0000
3000
0000
2000
0000
,
0000
0003
0000
0002
0000
0000
0003
3000
,
0001
0000
0000
0010
0000
0100
0000
0000
,
0010
0000
0001
1000
1001
0000
0000
0001
,
0000
0000
0000
0000
0000
0001
1000
0001
,
1000
0001
1000
0000
0001
1000
0000
0010
,
1000
0010
0000
1000
0010
1000
0000
0010
,
0100
0010
0100
0010
0000
0000
0100
0000
,
0010
0000
0000
0100
0010
0100
0010
0000
,
0000
0000
0000
0000
0000
0100
0110
0010
,
0100
0010
0100
0000
0000
0110
0110
0110
,
0000
0001
0000
1000
0000
0000
0000
0000
,
0000
0001
0001
0000
0001
0001
1000
1000
,
1000
0000
0000
0010
0010
0100
0110
0000
,
0000
0000
0000
0000
0000
0110
0110
0000
,
0001
0000
0010
0000
0100
0000
0000
1000
,
0100
0010
0000
0001
0010
0100
1000
0100
,
0010
0001
0000
0010
0010
0010
0001
0010
,
0000
0100
1000
0100
0110
0010
0000
0001
,
0000
0000
0000
0000
0000
0000
1000
0100
,
0010
0001
0010
0100
0000
1000
0100
0010
,
0001
0010
0100
0000
1000
0100
0100
1000
,
0000
0010
0001
0010
1000
0010
0000
0010
,
0010
0010
0010
0010
1000
0001
0001
1000
,
0010
0010
1000
0000
0001
0000
2002
0000
,
0000
0000
0000
0103
0000
0000
3000
0010
,
0000
0000
0001
0001
1000
0010
0000
0010
,
0000
0100
0001
0001
0000
2010
0000
3000
,
0010
0000
0010
0000
0000
1000
0100
1000
,
0000
0100
1000
0010
0000
0010
0001
0010
,
0001
0000
0010
0001
0000
0010
0001
0010
,
0001
0000
0010
0001
0010
0001
0000
0010
,
0000
0001
0000
0000
0000
0100
0000
0000
,
0000
0100
0000
0000
0000
0100
0000
0000
,
0000
0100
0000
0100
0000
0000
2000
0000
,
0000
0000
0000
3002
0000
0000
0000
0000
,
2003
0000
0000
3002
0000
2003
0000
0000
,
3002
0000
2003
0000
0000
3002
0000
2003
,
0000
0000
3002
0000
2003
0000
0000
3002
,
0000
2003
0000
0000
3002
0000
0000
2003
,
0000
3002
0000
0000
2003
0000
3002
0000
,
0023
0000
0000
2030
0000
3020
0000
0000
,
0031
0000
0000
0002
0000
0020
0003
0000
,
0230
0000
2300
0000
3200
0000
0000
0320
,
0000
0002
0030
0000
0013
0000
0000
0100
,
0000
0100
0000
0000
0100
0000
0100
0000
,
0000
0001
0000
0001
0000
0000
0001
0000
,
0000
0000
0000
1000
0000
1000
0000
0000
,
1000
0000
1000
0000
0000
1000
0000
1000
,
0000
1000
0000
0000
1000
0000
0000
1000
,
0000
0100
0000
0000
0100
0000
0000
0100
,
0000
0100
0000
0000
0000
0000
0000
0000
,
0000
0100
0000
0100
0000
0000
0000
0100
,
0000
0100
0000
0100
,
0000
0000
0000
0000
0000
0000
0000
0100
,
0000
0000
0000
0000
0100
0000
0000
0100
,
0000
0000
0100
0000
0000
0100
0000
0000
,
0000
0000
0000
0000
0000
0000
0000
0100
,
0000
0100
0000
0000
0000
0100
0000
0000
,
0000
0000
0100
0000
0000
0000
0000
0001
,
0000
0010
0100
1000
0100
0000
0010
0001
,
0010
0000
0100
1000
0100
0000
0100
0000
,
0000
0000
0000
0000
1000
0100
0010
0001
,
0010
0000
0100
1000
0100
0010
0000
0001
,
0010
0100
1000
0100
0000
0000
0000
0000
,
1000
0100
0010
0001
0010
0100
1000
0100
,
0010
0001
0000
0010
0100
1000
0100
0010
,
0001
0010
0000
0100
1000
0100
0010
0001
,
0000
0010
0100
0010
0000
0010
0100
0010
,
0100
0000
0010
0100
0010
0100
0000
0000
,
0010
0100
0110
0010
0100
0010
0100
0110
,
0010
0100
0010
0100
0010
0110
0100
0000
,
0000
0000
0000
0000
0110
0110
0110
0110
,
0000
0110
0110
0110
0110
0110
0110
0110
,
0110
0010
0000
0000
0000
0000
0000
0000
,
1010
0101
0000
1010
1010
1010
1010
1010
,
0000
0000
1001
0000
0110
1001
0000
0110
,
0001
1000
0000
0000
0000
0000
0000
0000
;

//---------------dance-single - ----------------
#NOTES:
     dance-single:
     :
     Challenge:
     15:
     0.630,1.000,0.412,0.266,0.965: // measure 1
0000
0000
0000
0000
,  // measure 2
0000
0000
0000
0000
0000
0000
1000
0000
0000
0010
0000
0000
0000
0010
0000
0000
,  // measure 3
0001
0000
0000
0001
0000
0000
0000
0000
0010
0000
0000
0000
0000
0000
0010
0000
,  // measure 4
0000
0000
0000
1000
0000
0000
0000
0000
0100
0000
0000
0000
1000
0000
0000
0100
,  // measure 5
0000
0010
0000
0000
0001
0000
0010
0000
0000
0000
0000
1000
0000
0000
0000
0000
,  // measure 6
0000
0000
1000
0000
0000
0000
0100
0000
0000
0000
0010
0000
0000
0000
0000
0001
,  // measure 7
0000
0000
0000
0000
0001
0000
0000
0000
0000
0001
0000
0000
0000
0000
0001
0000
,  // measure 8
0000
0000
0000
0000
0000
0000
0000
0010
0000
0010
0010
0000
0000
0000
0000
0000
,  // measure 9
0000
0010
0000
0010
0010
0000
0000
0000
0000
0000
0000
0000
0010
0010
0000
0010
,  // measure 10
0000
0010
0000
0010
0000
0000
0000
0010
0000
0000
0000
0000
0000
0000
0000
0000
,  // measure 11
0000
1000
0001
0000
1001
0000
0000
1000
0001
0000
1000
0001
0000
1000
0001
0000
,  // measure 12
1000
0001
1000
0000
0100
0000
0010
0100
0100
0000
0010
0000
0000
0002
0000
0000
,  // measure 13
0000
0000
0000
0000
0000
0000
0000
0000
0000
2003
0000
0000
0000
0000
0020
3000
,  // measure 14
0000
0000
0000
0200
0030
0000
0000
0000
0002
0300
0000
0000
0000
2003
0000
0000
,  // measure 15
0000
0000
0010
3000
0000
0000
0000
1001
0000
1001
0000
0000
0110
0000
0000
0000
,  // measure 16
0000
0002
0000
0000
0000
0000
2003
0000
0000
0000
0000
0000
3020
0000
0000
0000
,  // measure 17
0000
2030
0000
0000
0000
0000
3020
0000
0000
0000
1000
0030
0000
0000
0000
1001
,  // measure 18
0000
1000
0001
0000
0011
0000
0000
0000
0000
1100
0000
0000
0000
0000
0010
0000
,  // measure 19
0000
0000
0000
0000
1000
0000
0000
0000
0000
0100
0000
0000
0000
0000
2002
0000
,  // measure 20
0000
0000
0000
0000
0000
0003
0000
0010
0000
0000
0000
0000
0000
0000
0000
0000
,  // measure 21
0000
0000
0001
0000
0010
0000
0000
0001
0000
0010
0000
0000
0001
0000
0001
0000
,  // measure 22
0000
0010
0000
0001
0000
0000
0100
0000
0000
0000
0000
3100
0000
0000
0000
0000
,  // measure 23
0000
0000
0000
0000
0000
0000
0000
0000
0000
0000
0000
1000
0000
0100
0000
0010
,  // measure 24
0000
0000
0001
0000
0010
0000
0010
0000
0100
0000
0000
1000
0000
0100
0000
0010
,  // measure 25
0000
0000
0001
0000
0010
0000
0100
0000
1000
0000
0100
0000
0000
0010
0000
0001
,  // measure 26
0000
0000
0010
0000
0100
0000
1000
0000
0100
0000
0010
0000
0000
0001
0000
0010
,  // measure 27
0000
0100
0000
1000
0000
0100
0000
0000
0010
0000
0001
0000
0010
0000
0000
0100
,  // measure 28
0000
0010
0000
0000
0000
0000
0100
0000
0000
0000
0000
0010
0000
0010
0000
0000
,  // measure 29
0100
0000
0010
0000
0010
0000
0000
0010
0000
0000
0100
0000
0000
0000
0000
0010
,  // measure 30
0000
0010
0000
0000
0100
0000
0010
0000
0000
0100
0000
0010
0000
0100
0000
0000
,  // measure 31
1000
0000
0010
0000
0000
1000
0000
0000
0001
0000
0001
0000
0010
0000
0000
0100
,  // measure 32
0000
0100
0000
0010
0000
0000
0000
0000
1001
0000
1001
0000
0000
0011
0000
0011
,  // measure 33
0000
1100
0000
0000
1100
0000
0011
0000
0000
0011
0000
0100
0000
0000
0000
0000
,  // measure 34
0010
0000
1000
0000
0010
0000
0000
0010
0000
0000
0000
1000
0000
0000
0000
0010
,  // measure 35
0000
0000
1000
0000
0001
0000
0000
0001
0000
1000
0000
0100
0000
0100
0000
0010
,  // measure 36
0000
0001
0000
0001
0000
0000
1000
0000
0010
0000
0010
0000
1000
0000
0100
0000
,  // measure 37
0000
0100
0000
0000
0000
0000
0000
1000
0000
1000
0000
0100
0000
0100
0000
0000
,  // measure 38
0010
0000
0010
0000
0000
0010
0000
0001
0000
0001
0000
0000
0001
0000
1000
0000
,  // measure 39
0000
1000
0000
1000
0000
0000
0100
0000
0100
0000
0100
0000
0000
0010
0000
0010
,  // measure 40
0000
0000
0001
0000
0001
0000
0000
0000
0000
1000
0000
1000
0000
0000
1000
0000
,  // measure 41
0000
0000
0000
0000
0000
1000
0000
1000
0000
1000
0000
0000
0000
0000
0100
0000
,  // measure 42
0100
0000
0100
0000
0000
0000
0000
0000
0010
0010
0000
0000
0010
0000
0000
0000
,  // measure 43
0000
0001
0000
0000
0001
0000
0000
0000
0000
0000
0000
0000
1000
0000
1000
0000
,  // measure 44
0000
0100
0000
0100
0000
0000
0010
0000
0010
0000
0001
0000
0001
0000
0000
0010
,  // measure 45
0000
0010
0000
0000
0100
0000
0100
0000
0000
1000
0000
0000
1000
0000
0000
0100
,  // measure 46
0000
0000
0000
0000
0010
0000
0000
0000
0000
0000
0001
0000
0000
0000
0000
0010
,  // measure 47
0000
0010
0000
0000
0000
1000
0000
0000
0000
0010
0000
1000
0100
0000
0010
0000
,  // measure 48
0001
0000
0000
1000
0000
0000
0000
0000
0000
0000
0000
0000
0000
1000
0000
0100
,  // measure 49
0000
0000
0010
0000
0001
0000
0000
1000
0000
0100
0000
0000
0010
0000
0001
0000
,  // measure 50
1000
0000
0000
0100
0000
0010
0000
0000
0001
0000
1000
0000
0100
0000
0000
0010
,  // measure 51
0000
0001
0000
0000
0010
0000
0100
0000
0000
0010
0000
0100
0000
0000
0010
0000
,  // measure 52
0100
0000
0000
0010
0000
0100
0000
0010
0000
0100
0010
0000
0100
0010
0100
0010
,  // measure 53
0100
0000
0000
0000
1000
0000
0000
0000
0002
0000
0000
0000
0000
2003
0000
0000
,  // measure 54
0000
0000
0002
3000
0000
0000
0000
2000
0003
0000
0000
0000
0000
3001
0000
0000
,  // measure 55
0000
0000
1000
0000
0100
0000
0010
0000
0000
0001
0000
0010
0000
0000
0000
0000
,  // measure 56
0000
0000
0000
0000
0000
0000
1000
0000
0010
0000
0000
0001
0000
0001
0000
1000
,  // measure 57
0000
0010
0000
0010
0000
1000
0000
0001
0000
0000
0100
0000
0001
0100
0000
0001
,  // measure 58
0000
0100
0000
0000
0000
0000
0000
0000
0000
0000
0000
0000
0000
0000
1001
0000
,  // measure 59
0000
0000
0110
0000
0000
0000
0000
0011
0000
0000
0000
0000
0000
0011
0000
0000
,  // measure 60
0000
0000
0011
0000
0000
0000
0000
0011
0000
0000
0000
0000
1100
0000
0000
0000
,  // measure 61
0000
0011
0000
0000
0000
2002
0000
0000
0000
0000
0000
0000
0000
0000
0000
0000
,  // measure 62
0000
0000
0000
0003
0000
0000
0000
0000
0000
0000
0010
0000
0010
0010
0000
0010
,  // measure 63
0000
0000
3010
0000
0000
0000
0000
0010
,  // measure 64
0010
0010
0000
0000
0000
0000
0000
0000
0000
0010
0000
0000
0000
0010
0000
0000
,  // measure 65
0000
0000
0010
0000
0010
0000
0000
0010
0000
0000
0000
0000
0010
0000
0000
0010
,  // measure 66
0010
0000
0000
0000
0000
0000
0000
0010
0010
0000
0010
0000
0000
0000
0000
0000
,  // measure 67
0010
0000
0010
0010
0000
0000
0000
0000
0000
0000
0010
0000
0010
0000
0010
0000
,  // measure 68
0000
0000
0000
0000
0000
0010
0000
0010
0010
0000
0000
0000
0000
0000
0010
0000
,  // measure 69
0010
0000
0010
0000
0010
0000
0010
0010
0000
0010
0000
0010
0000
0010
0000
0010
,  // measure 70
0000
0000
0010
0000
0010
0010
0000
1000
0010
0000
1000
0010
1000
0000
0000
0000
,  // measure 71
0000
0000
0000
0000
0000
0000
0000
0001
1000
0000
1001
0000
0001
1000
0000
0001
,  // measure 72
1000
0001
1000
0000
0001
1000
1000
0001
0000
0000
0000
0002
0000
0000
0000
0000
,  // measure 73
2000
0003
0000
0000
0000
3020
0000
0000
0000
0000
0230
0000
0000
0000
0000
0301
,  // measure 74
0000
0000
0000
0010
0000
0000
0100
0000
0000
2000
0000
0000
0000
3000
0100
0000
,  // measure 75
0000
0000
0000
0001
0000
0000
0000
0000
0000
0000
0001
0000
0001
0000
0000
0000
,  // measure 76
0000
0000
0000
0000
0000
0000
0000
0002
0000
0000
0000
0023
0000
0000
0000
0000
,  // measure 77
0130
0000
0000
2000
0000
0000
0000
3200
0000
0000
0000
0320
0000
0000
0001
0030
,  // measure 78
0000
0010
0000
0000
0100
0000
0000
1000
0000
0000
0100
0000
0010
0000
0100
0000
,  // measure 79
0010
0100
0010
0000
0100
0010
0000
1000
0000
0001
0000
0001
0000
1000
0000
0001
,  // measure 80
0000
1000
0000
1000
0000
1000
0001
0000
0000
0001
0000
1000
0000
0001
0000
0000
,  // measure 81
1000
0000
1000
1000
0000
0001
1000
1001
0000
1001
0000
1001
0000
1001
0000
1001
,  // measure 82
0000
1001
0000
1001
0000
1001
0000
0000
1001
0000
1001
0000
1001
0000
1001
1001
,  // measure 83
0000
1001
0000
1001
1001
0000
1001
1000
0001
1001
0000
0000
0000
0000
0000
0010
,  // measure 84
0000
0000
1000
0000
0000
0100
0000
1000
0000
0000
0000
1010
0000
0000
0000
0100
,  // measure 85
0001
0000
0000
0000
0000
1010
0000
0000
0000
0110
0000
0000
0000
2002
0000
0000
,  // measure 86
0000
0000
0000
0000
0000
0000
0000
0000
0000
3003
0000
0000
0000
0000
0000
0000
;
