#TITLE:7-11 (Jack U) Remix;
#SUBTITLE:;
#ARTIST:Beyonce;
#TITLETRANSLIT:;
#SUBTITLETRANSLIT:;
#ARTISTTRANSLIT:;
#GENRE:;
#CREDIT:;
#BANNER:;
#BACKGROUND:7-11 (Jack U)-bg.png;
#LYRICSPATH:;
#CDTITLE:;
#MUSIC:7-11 (Jack U).mp3;
#OFFSET:-0.200000;
#SAMPLESTART:99.800026;
#SAMPLELENGTH:12.000000;
#SELECTABLE:YES;
#DISPLAYBPM:150.000000;
#BPMS:0.000000=150.000000
;
#STOPS:
;
#BGCHANGES:;
#KEYSOUNDS:;
#ATTACKS:;

//---------------dance-single - ----------------
#NOTES:
     dance-single:
     :
     Medium:
     5:
     0.370459,0.373565,0.371588,0.150217,0.000000,262.000000,47.000000,19.000000,0.000000,0.000000,0.000000,0.370459,0.373565,0.371588,0.150217,0.000000,262.000000,47.000000,19.000000,0.000000,0.000000,0.000000:
// measure 0
0000
0000
0000
0000
,  // measure 1
0000
0000
0000
0000
,  // measure 2
0000
0000
0000
0000
,  // measure 3
0000
0000
0000
0000
,  // measure 4
0001
0100
0001
0000
,  // measure 5
1000
0010
1000
0000
,  // measure 6
0010
0100
0010
0000
,  // measure 7
0100
0010
0100
0000
,  // measure 8
0001
1000
0001
0000
,  // measure 9
1000
0001
1000
0000
,  // measure 10
0001
0100
0001
0000
,  // measure 11
1000
0010
1000
0000
,  // measure 12
0010
0100
0010
0000
,  // measure 13
0100
0010
0100
0000
,  // measure 14
0010
0001
0010
0000
,  // measure 15
1000
0100
1000
0000
,  // measure 16
0110
0010
0100
0010
,  // measure 17
0100
0020
0000
0030
,  // measure 18
1001
0001
1000
0001
,  // measure 19
1000
0002
0000
0003
,  // measure 20
0110
0100
0010
0100
,  // measure 21
0010
0100
0001
1000
,  // measure 22
0010
0100
0001
1000
,  // measure 23
0001
0000
0000
0000
,  // measure 24
1002
1000
1000
1003
,  // measure 25
0210
0010
0010
0310
,  // measure 26
2100
0100
0100
3100
,  // measure 27
0012
0010
0010
0013
,  // measure 28
2100
0100
0100
3100
,  // measure 29
0210
0010
0010
0310
,  // measure 30
0021
0001
0001
0031
,  // measure 31
1002
1000
1000
1003
,  // measure 32
1100
0000
0011
0000
,  // measure 33
0110
0000
1100
0000
,  // measure 34
1001
0000
0011
0000
,  // measure 35
0101
0000
1001
0000
,  // measure 36
0110
0000
1100
0000
,  // measure 37
0011
0000
0101
0000
,  // measure 38
1010
0010
0010
0010
,  // measure 39
1000
1000
1000
1000
,  // measure 40
0001
0001
0001
0001
,  // measure 41
0010
0100
0010
0100
,  // measure 42
1000
0001
0100
0010
,  // measure 43
0100
0010
0100
0010
,  // measure 44
1000
0001
0100
0001
,  // measure 45
0100
0001
0110
1001
,  // measure 46
1000
0100
0010
0100
,  // measure 47
1000
0001
0110
1001
,  // measure 48
0100
0010
0001
0010
,  // measure 49
0100
1000
0100
0010
,  // measure 50
1001
0100
0010
0010
,  // measure 51
0100
0100
0010
0010
,  // measure 52
0001
0010
0001
0010
,  // measure 53
0100
1000
0100
1000
,  // measure 54
0001
1000
0001
1000
,  // measure 55
0010
0100
0010
0100
,  // measure 56
1001
0000
0110
0000
,  // measure 57
0011
0000
1100
0000
,  // measure 58
0101
0000
1010
0000
,  // measure 59
0100
0100
0010
0000
,  // measure 60
1001
0010
0100
0010
,  // measure 61
1001
0100
0010
0100
,  // measure 62
1001
1000
0100
1000
,  // measure 63
1001
0001
0010
0001
,  // measure 64
2001
0001
0001
3001
,  // measure 65
0102
0100
0100
0103
,  // measure 66
0210
0010
0010
0310
,  // measure 67
1020
1000
1000
1030
,  // measure 68
0102
0100
0100
0103
,  // measure 69
2010
0010
0010
3010
,  // measure 70
1200
1000
1000
1300
,  // measure 71
0021
0001
0001
0031
,  // measure 72
1000
0100
0010
0100
,  // measure 73
1000
0001
0010
0100
,  // measure 74
0010
0001
1000
0100
,  // measure 75
0010
0001
0010
0100
,  // measure 76
2000
0100
0001
0100
,  // measure 77
0001
0100
0001
3100
,  // measure 78
0001
0001
1000
1000
;

//---------------dance-single - ----------------
#NOTES:
     dance-single:
     :
     Easy:
     4:
     0.307210,0.280174,0.450650,0.007906,0.000000,214.000000,57.000000,1.000000,0.000000,0.000000,0.000000,0.307210,0.280174,0.450650,0.007906,0.000000,214.000000,57.000000,1.000000,0.000000,0.000000,0.000000:
0000
0000
0000
0000
,
0000
0000
0000
0000
,
0000
0000
0000
0000
,
0000
0000
0000
0000
,
0001
0000
0001
0000
,
1000
0000
1000
0000
,
0010
0000
0010
0000
,
0100
0000
0100
0000
,
1000
0000
0100
0000
,
0010
0000
0001
0000
,
1000
0000
0100
0000
,
0010
0000
0001
0000
,
0001
0000
0010
0000
,
0100
0000
1000
0000
,
1000
0000
0100
0000
,
0010
0000
0100
0000
,
1100
1000
1000
1000
,
0011
0001
0001
0000
,
0110
0100
0100
0100
,
1001
1000
1000
0000
,
1000
0100
0010
0001
,
0010
0100
1000
0100
,
0010
0001
0010
0100
,
1001
0000
0000
0000
,
1001
1000
1000
0000
,
0110
0010
0010
0000
,
0101
0100
0100
0000
,
1001
0001
0001
0000
,
1100
0100
0100
0000
,
0011
0010
0010
0000
,
1001
1000
1000
0000
,
0101
0001
0001
0000
,
0110
0100
0100
0000
,
1010
0010
0010
0000
,
1100
1000
1000
0000
,
0011
0001
0001
0000
,
0100
1000
0100
1000
,
0001
0010
0001
0010
,
1000
0001
1000
0001
,
0010
0100
0010
0100
,
1000
0000
1001
0000
,
0110
0000
1100
0000
,
0011
0000
1010
0000
,
0101
0000
0110
0000
,
1001
0000
0001
0001
,
1000
1000
1000
0000
,
0010
0010
0100
0100
,
0200
0000
0000
0000
,
0300
0000
0001
0001
,
0010
0010
0100
1000
,
1001
0000
0110
0000
,
1100
0000
0011
0000
,
1010
0000
0101
0000
,
1001
0000
0110
0000
,
0101
0000
1010
0000
,
1100
0000
0011
0000
,
0001
0010
0100
0010
,
0001
1000
0100
0010
,
0001
1000
0001
1000
,
0001
0100
0010
0100
,
1001
0000
0110
0000
,
0110
0000
1001
0000
,
0011
0000
0101
0000
,
1100
0000
1010
0000
,
0101
0001
0001
0000
,
1010
1000
1000
0000
,
0110
0100
0100
0000
,
0101
0001
0001
0000
,
1001
1000
1000
0000
,
0110
0010
0010
0000
,
0011
0001
0001
0000
,
1010
1000
1000
0000
,
1000
0100
1000
0100
,
0010
0001
0010
0001
,
1000
0100
0010
0001
,
0010
0100
0010
0001
,
1001
1000
1000
0000
,
0110
0010
0010
0000
,
0101
0001
0001
1001
;

//---------------dance-single - ----------------
#NOTES:
     dance-single:
     :
     Beginner:
     2:
     0.124239,0.124126,0.063249,0.031625,0.000000,98.000000,8.000000,4.000000,0.000000,0.000000,0.000000,0.124239,0.124126,0.063249,0.031625,0.000000,98.000000,8.000000,4.000000,0.000000,0.000000,0.000000:
0000
0000
0000
0000
,
0000
0000
0000
0000
,
0000
0000
0000
0000
,
0000
0000
0000
0000
,
1000
0000
0000
0000
,
0001
0000
0000
0000
,
1000
0000
0000
0000
,
0001
0000
0000
0000
,
0100
0000
0010
0000
,
0100
0000
0000
0000
,
1000
0000
0001
0000
,
1000
0000
0000
0000
,
1000
0000
0100
0000
,
1000
0000
0000
0000
,
0001
0000
0010
0000
,
0001
0000
0000
0000
,
1000
0000
0000
0000
,
0001
0000
0000
0000
,
1000
0000
0000
0000
,
0001
0000
0000
0000
,
0010
0000
0000
0000
,
0100
0000
0000
0000
,
0010
0000
0010
0000
,
0010
0000
0000
0000
,
1001
0000
0000
0000
,
0110
0000
0000
0000
,
1001
0000
0000
0000
,
0110
0000
0000
0000
,
1000
0000
0000
0000
,
0001
0000
0000
0000
,
1000
0000
0000
0000
,
0001
0000
0000
0000
,
0110
0000
0000
0000
,
1001
0000
0000
0000
,
0110
0000
0000
0000
,
1001
0000
0000
0000
,
1000
0000
0000
0000
,
0100
0000
0000
0000
,
0010
0000
0010
0000
,
0001
0000
0001
0000
,
1000
0000
0000
0000
,
0001
0000
0000
0000
,
0100
0000
0000
0000
,
0010
0000
0000
0000
,
0100
0000
0000
0000
,
0010
0000
0000
0000
,
1000
0000
0001
0000
,
1000
0000
0010
0000
,
1000
0000
0001
0000
,
0001
0000
0000
0000
,
1000
0000
0001
0000
,
1000
0000
0000
0000
,
0010
0000
0100
0000
,
0010
0000
0000
0000
,
1000
0000
0100
0000
,
0010
0000
0000
0000
,
0001
0000
0010
0000
,
0100
0000
0000
0000
,
1000
0000
0001
0000
,
1000
0000
0000
0000
,
0010
0000
0100
0000
,
0010
0000
0100
0000
,
0010
0000
0100
0000
,
0010
0000
0000
0000
,
2000
0000
0000
3000
,
0002
0000
0000
0003
,
0200
0000
0000
0300
,
0020
0000
0000
0030
,
1000
0000
0000
0000
,
1000
0000
0000
0000
,
0001
0000
0000
0000
,
0001
0000
0000
0000
,
0100
0000
0100
0000
,
0010
0000
0010
0000
,
1000
0000
1000
0000
,
0001
0000
0001
0000
,
1000
0000
0000
0000
,
0001
0000
0000
0000
,
0100
0000
0010
0000
;

//---------------dance-single - ----------------
#NOTES:
     dance-single:
     :
     Hard:
     8:
     0.555689,0.560348,0.371588,0.284621,0.047437,409.000000,47.000000,36.000000,0.000000,0.000000,0.000000,0.555689,0.560348,0.371588,0.284621,0.047437,409.000000,47.000000,36.000000,0.000000,0.000000,0.000000:
// measure 0
0000
0000
0000
0000
,  // measure 1
0000
0000
0000
0000
,  // measure 2
0000
0000
0000
0000
,  // measure 3
0000
0000
0000
0000
,  // measure 4
0000
0000
0000
0000
,  // measure 5
0000
0000
0000
0000
,  // measure 6
1000
0100
0010
0100
,  // measure 7
0001
0010
0100
0010
,  // measure 8
1000
0001
1000
1000
,  // measure 9
0001
0001
0010
0100
,  // measure 10
1000
0001
1000
1000
,  // measure 11
0001
0001
0010
0100
,  // measure 12
1000
0100
0010
0001
,  // measure 13
0010
0100
0010
0100
,  // measure 14
1000
0100
1000
1000
,  // measure 15
0010
0010
0100
1000
,  // measure 16
0001
0000
0010
0100
0010
0000
0100
1000
,  // measure 17
0100
0000
0001
1000
0110
0000
1001
0000
,  // measure 18
0010
0000
0100
0001
0100
0000
0010
1000
,  // measure 19
0010
0000
1000
0001
0110
0000
1001
0000
,  // measure 20
0100
0010
0100
0010
,  // measure 21
0001
0010
0100
1000
,  // measure 22
0100
0010
0100
1000
0100
0010
0001
1000
,  // measure 23
0000
0000
0010
0100
1001
0000
0110
0000
,  // measure 24
1000
0100
1000
0001
0010
0001
1000
0010
,  // measure 25
0100
1000
0001
0002
0003
0010
0100
1000
,  // measure 26
0100
0010
0001
0002
0003
0010
0100
0010
,  // measure 27
0100
0000
0000
0000
1000
0000
0000
0000
0001
0000
0000
0000
0002
0000
0000
0003
0000
0110
0000
0000
0000
0000
0000
0110
0000
0000
0000
0000
0100
0000
0000
0000
,  // measure 28
0001
1000
1000
0001
0000
1000
0001
1000
,  // measure 29
0100
1000
0010
0020
0030
1000
0010
0001
,  // measure 30
0010
0100
1000
2000
3000
0100
0001
0100
,  // measure 31
0010
0000
0000
0000
1000
0000
0000
0000
0001
0000
0000
0000
0001
0000
0000
0000
0000
0110
0000
0000
0000
0000
0000
0110
0000
0000
0000
0000
0010
0000
0000
0000
,  // measure 32
1000
0100
1000
0001
0000
0100
0010
0100
,  // measure 33
0010
1000
0001
0002
0003
0100
0010
0001
,  // measure 34
0010
0100
1000
2000
3000
0010
1000
0010
,  // measure 35
0001
0000
0000
0000
0010
0000
0000
0000
0100
0000
0000
0000
0100
0000
0000
0000
0000
1001
0000
0000
0000
0000
0000
1001
0000
0000
0000
0000
0001
0000
0000
0000
,  // measure 36
1000
0001
0100
0010
0000
0010
0100
0001
,  // measure 37
0010
1000
0100
0200
0300
0010
1000
0010
,  // measure 38
0011
0101
1010
1100
,  // measure 39
0110
1001
0011
1100
,  // measure 40
1001
0000
0010
0000
0001
0010
1000
0010
,  // measure 41
0001
1000
0010
1000
0001
1000
0020
0000
,  // measure 42
0030
0000
0000
0000
0001
1000
0001
1000
,  // measure 43
0010
0100
0010
1000
0001
0010
0200
0000
,  // measure 44
0300
0000
1001
0110
,  // measure 45
0101
0000
1010
0001
0100
0000
0001
0000
,  // measure 46
0101
1010
1100
0011
,  // measure 47
1100
0000
0001
0010
1001
0000
0110
0000
,  // measure 48
0000
0000
1100
0110
,  // measure 49
1100
0000
0011
0000
0100
0010
0000
0000
,  // measure 50
2000
0000
0020
3000
,  // measure 51
0200
0030
0002
0300
,  // measure 52
0020
0003
0200
0030
,  // measure 53
0001
0301
2000
0000
,  // measure 54
0020
3000
0100
0130
,  // measure 55
0001
1000
0001
0100
0010
2000
3000
0001
,  // measure 56
1000
0002
0003
1000
0010
2000
3000
0000
,  // measure 57
0010
1000
0001
0010
0100
0020
0030
1000
,  // measure 58
0100
2000
3000
0001
0010
0002
0003
0010
,  // measure 59
0001
0010
0100
1000
0100
0010
1000
0100
,  // measure 60
0010
1000
0000
0001
0010
0200
0300
0001
,  // measure 61
0100
2000
3000
1000
0100
0002
0003
0001
,  // measure 62
1000
0002
0003
1000
0001
1000
0100
1000
,  // measure 63
0100
0010
0001
0010
0001
2000
0000
3000
,  // measure 64
0100
0010
0100
0010
0000
0001
1000
0010
,  // measure 65
1000
0100
0010
0020
0030
0001
1000
0010
,  // measure 66
0100
1000
0100
0200
0300
0001
1000
0010
,  // measure 67
0100
0000
0000
0000
0010
0000
0000
0000
0001
0000
0000
0000
0001
0000
0000
0000
0000
0110
0000
0000
0000
0000
0000
1001
0000
0000
0000
0000
0100
0000
0000
0000
,  // measure 68
0001
1000
0001
1000
0000
0100
1000
0010
,  // measure 69
0100
0010
0001
0002
0003
0010
0100
0001
,  // measure 70
0010
0100
1000
2000
3000
0100
0010
0001
,  // measure 71
0100
0000
0000
0000
0010
0000
0000
0000
0001
0000
0000
0000
0001
0000
0000
0000
0000
0110
0000
0000
0000
0000
0000
1001
0000
0000
0000
0000
0110
0000
0000
0000
,  // measure 72
0001
0010
1000
0010
0000
0001
1000
0100
,  // measure 73
0010
0001
1000
2000
3001
0000
1000
0100
,  // measure 74
0010
0001
0100
0200
0301
0010
0100
1000
,  // measure 75
0010
0000
0000
0000
0100
0000
0000
0000
0010
0000
0000
0000
1000
0000
0000
0000
0000
0110
0000
0000
0000
0000
0000
1100
0000
0000
0000
0000
0001
0000
0000
0000
,  // measure 76
0010
1000
0010
0001
0000
0010
0100
1000
,  // measure 77
0010
1000
0100
0200
0301
1000
0001
1000
,  // measure 78
0110
1001
0101
1010
;
