#VERSION:0.83;
#TITLE:Wings;
#SUBTITLE:;
#ARTIST:Little Mix;
#TITLETRANSLIT:;
#SUBTITLETRANSLIT:;
#ARTISTTRANSLIT:;
#GENRE:;
#ORIGIN:;
#CREDIT:;
#BANNER:wings-bn.png;
#BACKGROUND:wings-bg.png;
#PREVIEWVID:;
#JACKET:;
#CDIMAGE:;
#DISCIMAGE:;
#LYRICSPATH:;
#CDTITLE:;
#MUSIC:wings.ogg;
#OFFSET:0.000000;
#SAMPLESTART:20.813000;
#SAMPLELENGTH:12.000000;
#SELECTABLE:YES;
#DISPLAYBPM:115.000000:230.000000;
#BPMS:0.000=57.500,
46.000=230.000,
48.000=115.000,
76.000=230.000,
101.000=201.250,
101.667=173.500,
102.333=143.750,
103.000=115.000,
103.333=86.250,
103.667=57.500,
103.833=28.750,
104.000=230.000,
136.000=115.000,
152.000=230.000;
#STOPS:75.500=2.050;
#DELAYS:104.000=0.225;
#WARPS:0.938=8.000,
9.083=8.000,
17.333=8.000,
25.583=8.000,
33.833=8.000,
42.083=0.500,
42.833=0.500,
43.583=0.500,
44.333=0.500,
45.083=0.500;
#TIMESIGNATURES:0.000=4=4;
#TICKCOUNTS:0.000=4;
#COMBOS:0.000=1;
#SPEEDS:0.000=1.000=0.000=0;
#SCROLLS:0.000=2.000,
42.000=1.000;
#FAKES:;
#LABELS:0.000=Song Start;
#BGCHANGES:;
#KEYSOUNDS:;
#ATTACKS:
;

//---------------dance-single - ----------------
#NOTEDATA:;
#CHARTNAME:;
#STEPSTYPE:dance-single;
#DESCRIPTION:;
#CHARTSTYLE:Pad;
#DIFFICULTY:Hard;
#METER:12;
#RADARVALUES:0.477148,0.668007,0.430973,0.371115,0.197529,279.000000,243.000000,36.000000,31.000000,0.000000,0.000000,0.000000,0.000000,4.000000,0.477148,0.668007,0.430973,0.371115,0.197529,279.000000,243.000000,36.000000,31.000000,0.000000,0.000000,0.000000,0.000000,4.000000;
#CREDIT:Mozata;
#DISPLAYBPM:*;
#NOTES:
// measure 0
0000
0000
0000
0000
,  // measure 1
0000
0000
0000
0000
0000
0000
0000
0000
0000
0000
0000
0000
0000
0200
0000
0000
,  // measure 2
0000
0000
0000
0000
,  // measure 3
0000
0000
0000
0000
0000
0000
0000
0000
0000
0000
0000
0000
0000
0300
0002
0000
,  // measure 4
0000
0000
0000
0000
,  // measure 5
0000
0000
0000
0000
0000
0000
0000
0000
0000
0000
0000
0000
0000
0000
0000
0000
0000
0000
0000
0000
0000
0000
0000
0000
0000
0000
0000
0000
0000
0000
0000
0000
0000
0000
0000
0000
0000
0000
0000
0003
0000
0000
0000
0000
0020
0000
0000
0000
,  // measure 6
0000
0000
0000
0000
,  // measure 7
0000
0000
0000
0000
0000
0000
0000
0000
0000
0000
0000
0000
0000
0000
0000
0000
0000
0000
0000
0000
0000
0030
0000
2000
,  // measure 8
0000
0000
0000
0000
,  // measure 9
0000
0000
0000
0000
0000
0000
0000
0000
0000
0000
0000
0000
0000
0000
0000
3000
,  // measure 10
0000
0000
0000
0000
,  // measure 11
0000
0000
0002
0000
,  // measure 12
1003
0000
1000
0000
1000
0000
1000
0101
,  // measure 13
1000
1000
1000
0120
,  // measure 14
0031
0000
0001
0000
0001
0000
0001
0110
,  // measure 15
0001
0001
0001
1020
,  // measure 16
0130
0000
0100
0000
0100
0000
0100
1001
,  // measure 17
0100
0100
0100
1200
,  // measure 18
0310
0010
0010
0010
,  // measure 19
1000
0000
0000
0110
0000
0100
0001
0000
0000
1000
0000
0000
,  // measure 20
0110
0000
0100
0001
0000
0000
1000
0000
0000
0010
0000
0000
,  // measure 21
0100
0000
0000
0101
0000
0001
0100
0000
0000
0010
0000
0000
,  // measure 22
1010
0000
0010
1000
0000
0000
1000
0000
0000
0001
0000
0000
,  // measure 23
0001
0000
0000
0011
0000
0001
1000
0000
0000
0010
0000
0000
,  // measure 24
1010
0000
1000
0001
0000
0000
0100
0000
0000
0001
0000
0000
,  // measure 25
2000
0000
0000
0000
,  // measure 26
3100
0000
0000
0100
0000
1000
0100
0000
0000
0100
0000
0000
,  // measure 27
1100
0000
1000
0100
0000
0000
1000
0000
0000
1100
0000
0000
,  // measure 28
0001
0000
0000
0010
0000
0100
1000
0000
0000
0001
0000
0000
,  // measure 29
0010
0000
0100
1000
0000
0000
0001
0000
0000
1001
0000
0000
,  // measure 30
0010
0000
0000
0010
0000
1000
0100
0000
0000
0100
0000
0000
,  // measure 31
0010
0000
0001
0100
0000
0000
0010
0000
0000
0110
0000
0000
,  // measure 32
2000
3200
0320
0032
,  // measure 33
0000
0000
1003
0001
,  // measure 34
0100
0000
0000
0001
0100
0000
0020
0000
1000
0000
0030
2000
0000
0000
3100
0000
,  // measure 35
1000
0000
0000
0001
0010
0000
0002
0000
0010
0000
0003
2000
0000
0000
3100
0000
,  // measure 36
0001
0000
0000
0001
0100
0000
0020
0000
1000
0000
0000
0001
0000
0000
1030
0000
,  // measure 37
1010
1100
0101
0011
,  // measure 38
0010
0000
0000
0010
0000
0001
1000
0000
0000
1010
0000
0000
,  // measure 39
0010
1000
0100
1000
,  // measure 40
0010
0000
0000
0010
0000
0100
0001
0000
0000
1001
0000
0000
,  // measure 41
0010
0100
0010
0001
,  // measure 42
1001
0000
0000
1000
0000
0010
1000
0000
0000
0001
0000
0000
,  // measure 43
0100
1000
0100
0001
,  // measure 44
0101
0000
0000
0100
0000
0001
0010
0000
0000
0010
0000
0000
,  // measure 45
0010
1001
0100
1001
,  // measure 46
1000
0000
0000
1000
0000
0001
2000
0000
0000
3100
0000
0000
,  // measure 47
0100
0010
0100
0010
,  // measure 48
0001
0000
0000
0001
0000
1000
0002
0000
0000
0013
0000
0000
,  // measure 49
0010
0100
0010
0100
,  // measure 50
2100
0001
0010
0001
,  // measure 51
0000
0100
3000
1000
,  // measure 52
1001
0000
0100
0002
,  // measure 53
0003
0200
0300
0020
,  // measure 54
0000
0000
0000
0000
0030
1000
0002
0000
0000
0000
0003
1000
,  // measure 55
0200
0000
0300
0100
,  // measure 56
0001
0010
0100
1000
0000
0010
0000
0200
,  // measure 57
0000
0301
1001
0100
,  // measure 58
0020
0000
0000
0000
0030
1000
0002
0000
0000
0000
0003
1000
,  // measure 59
0200
0000
0300
2000
,  // measure 60
3002
0000
0000
0010
0003
0000
0000
0000
0000
0001
0000
0000
0000
0000
0000
1000
0000
0000
0000
0000
0000
0101
0000
0000
,  // measure 61
0000
0010
0100
0101
,  // measure 62
0000
1001
0000
1000
,  // measure 63
0000
1000
0000
1010
,  // measure 64
0010
1000
0000
0100
0000
1000
0000
0020
,  // measure 65
0000
0130
0001
0110
,  // measure 66
0000
0000
0000
1000
0000
0010
0100
0000
0000
0001
0000
0000
,  // measure 67
0100
0000
0000
0001
0000
1000
0100
0000
0000
0010
0000
0000
,  // measure 68
0011
0000
0100
2000
,  // measure 69
3000
0002
0003
1001
;

//---------------dance-single - ----------------
#NOTEDATA:;
#CHARTNAME:;
#STEPSTYPE:dance-single;
#DESCRIPTION:;
#CHARTSTYLE:Pad;
#DIFFICULTY:Beginner;
#METER:4;
#RADARVALUES:0.140237,0.251401,0.000000,0.119715,0.017957,82.000000,82.000000,0.000000,10.000000,0.000000,0.000000,0.000000,0.000000,4.000000,0.140237,0.251401,0.000000,0.119715,0.017957,82.000000,82.000000,0.000000,10.000000,0.000000,0.000000,0.000000,0.000000,4.000000;
#CREDIT:Mozata;
#DISPLAYBPM:*;
#NOTES:
0000
0000
0000
0000
,
0000
0000
0000
0000
0000
0000
0000
0000
0000
0000
0000
0000
0000
2000
0000
0000
,
0000
0000
0000
0000
,
0000
0000
0000
0000
0000
0000
0000
0000
0000
0000
0000
0000
0000
0000
0000
0000
0000
0000
0000
3000
0000
0200
0000
0000
,
0000
0000
0000
0000
,
0000
0000
0000
0000
0000
0000
0000
0000
0000
0000
0300
0020
,
0000
0000
0000
0000
,
0000
0000
0000
0000
0000
0000
0000
0000
0000
0000
0000
0000
0000
0000
0000
0000
0000
0000
0000
0000
0000
0030
0000
0002
,
0000
0000
0000
0000
,
0000
0000
0000
0000
0000
0000
0000
0000
0000
0000
0000
0003
,
0000
0000
0000
0000
,
0000
0000
0000
0000
,
0100
0000
0100
0000
,
0100
0000
0100
0000
,
0010
0000
0010
0000
,
0010
0000
0010
0000
,
1000
0000
1000
0000
,
1000
0000
1000
0000
,
0001
0000
0001
0000
,
0002
0000
0003
0000
,
1000
0000
1000
0000
,
2000
0000
3000
0000
,
0010
0000
0010
0000
,
0020
0000
0030
0000
,
0100
0000
0100
0000
,
0200
0000
0000
0000
,
0300
0000
0000
0000
,
0010
0000
0010
0000
,
0010
0000
0000
0000
,
0001
0000
0001
0000
,
2000
0000
0000
3000
,
0000
0000
0001
0000
,
2000
0000
0000
3000
,
0000
0000
0000
0000
,
0100
0000
1000
1000
,
1000
0000
0100
0000
,
0001
0000
0010
0000
,
0001
0001
0001
0000
,
0010
0000
0000
0000
,
0010
0000
0000
0000
,
0010
0000
0010
0000
,
0010
0000
0000
0000
,
0100
0000
0000
0000
,
1000
0000
0000
0000
,
0100
0000
0100
0000
,
0100
0000
0000
0000
,
0001
0000
0000
0000
,
1000
0000
0000
0000
,
0010
0000
0010
0000
,
0010
0000
0000
0000
,
0001
0000
0000
0000
,
0010
0000
0000
0000
,
0100
0000
0000
0000
,
1000
0000
1000
0000
,
2000
0000
0000
0000
,
3000
0000
0000
0000
,
0100
0100
0000
0000
,
0100
0000
0100
0000
,
0020
0000
0000
0000
,
0030
0000
0000
0000
,
0001
0001
0000
0000
,
0001
0000
0001
0000
,
0002
0000
0003
0000
,
0001
0000
0000
0000
,
0010
0000
0000
0000
,
0100
0000
0000
0000
,
2000
0000
3000
0000
,
1000
0000
1000
0000
,
1000
0000
0000
0000
,
0100
0000
0000
0000
,
0001
0000
0000
0000
;

//---------------dance-single - ----------------
#NOTEDATA:;
#CHARTNAME:;
#STEPSTYPE:dance-single;
#DESCRIPTION:;
#CHARTSTYLE:Pad;
#DIFFICULTY:Easy;
#METER:6;
#RADARVALUES:0.247980,0.375754,0.035914,0.167600,0.017957,145.000000,142.000000,3.000000,14.000000,0.000000,0.000000,0.000000,0.000000,4.000000,0.247980,0.375754,0.035914,0.167600,0.017957,145.000000,142.000000,3.000000,14.000000,0.000000,0.000000,0.000000,0.000000,4.000000;
#CREDIT:Mozata;
#DISPLAYBPM:*;
#NOTES:
0000
0000
0000
0000
,
0000
0000
0000
0000
0000
0000
0000
0000
0000
0000
0000
0000
0000
0002
0000
0000
,
0000
0000
0000
0000
,
0000
0000
0000
0000
0000
0000
0000
0000
0000
0000
0000
0000
0000
0003
0020
0000
,
0000
0000
0000
0000
,
0000
0000
0000
0000
0000
0000
0000
0000
0000
0000
0000
0000
0000
0000
0000
0000
0000
0000
0000
0000
0000
0030
0200
0000
,
0000
0000
0000
0000
,
0000
0000
0000
0000
0000
0000
0000
0000
0000
0000
0000
0000
0000
0000
0000
0000
0000
0000
0000
0000
0000
0000
0300
2000
,
0000
0000
0000
0000
,
0000
0000
0000
0000
0000
0000
0000
0000
0000
0000
0000
3000
,
0000
0000
0000
0000
,
0000
0000
0020
0000
,
0030
0010
0010
0010
,
0010
0010
0010
0020
,
0030
0100
0100
0100
,
0100
0100
0100
0200
,
0300
0001
0001
0001
,
0001
0001
0001
0002
,
0003
1000
1000
1000
,
0010
0000
1000
0000
,
0001
0000
0100
0000
,
0001
0000
0010
0000
,
0100
0000
1000
0000
,
0001
0000
0100
0000
,
0010
0000
1000
0000
,
0200
0000
0000
0000
,
0300
0000
0100
0000
,
0010
0000
0001
0000
,
1000
0000
0010
0000
,
0001
0000
0100
0000
,
1000
0001
1000
0002
,
0003
0000
1000
0000
,
0001
1000
0001
2000
,
3000
0000
0200
0000
,
0310
0000
0010
0100
,
0001
0000
0001
0100
,
1000
0000
1000
0100
,
0010
0100
1000
1001
,
0010
0010
0000
0010
,
0000
0100
0010
0100
,
0001
1000
0000
0001
,
0000
0020
0000
0000
,
0130
0100
0000
0001
,
0000
1000
0010
1000
,
0001
0100
0000
0001
,
0000
0000
1000
0000
,
0100
1000
0000
0100
,
0000
0000
0010
0001
,
0010
0001
0000
0010
,
0000
0000
0000
0010
,
1000
0010
1000
0001
,
0000
1000
0000
1000
,
0002
0000
0000
2000
,
0000
0000
3003
1001
,
0000
0000
0010
0000
,
0100
0000
1001
0000
,
0010
1000
0001
1000
,
0001
0100
0001
1000
,
0002
0000
0000
0000
,
2000
0000
3003
0000
,
1000
0100
1000
0100
,
0010
0001
0010
0100
,
0000
1000
0000
0000
,
0000
0000
0000
1000
,
0010
0100
0001
0100
,
0000
0010
1000
0020
,
0000
0000
0030
0000
,
0000
0000
0000
0001
,
1000
0000
0010
1000
,
0000
0100
0000
0001
;

//---------------dance-single - ----------------
#NOTEDATA:;
#CHARTNAME:;
#STEPSTYPE:dance-single;
#DESCRIPTION:;
#CHARTSTYLE:Pad;
#DIFFICULTY:Medium;
#METER:8;
#RADARVALUES:0.350593,0.668007,0.227458,0.227458,0.101757,205.000000,186.000000,19.000000,19.000000,0.000000,0.000000,0.000000,0.000000,4.000000,0.350593,0.668007,0.227458,0.227458,0.101757,205.000000,186.000000,19.000000,19.000000,0.000000,0.000000,0.000000,0.000000,4.000000;
#CREDIT:Mozata;
#DISPLAYBPM:*;
#NOTES:
0000
0000
0000
0000
,
0000
0000
0000
0000
0000
0000
0000
0000
0000
0000
0000
0000
0000
0002
0000
0000
,
0000
0000
0000
0000
,
0000
0000
0000
0000
0000
0000
0000
0000
0000
0000
0000
0000
0000
0003
0200
0000
,
0000
0000
0000
0000
,
0000
0000
0000
0000
0000
0000
0000
0000
0000
0000
0300
0020
,
0000
0000
0000
0000
,
0000
0000
0000
0000
0000
0000
0000
0000
0000
0000
0000
0000
0000
0000
0000
0000
0000
0000
0000
0000
0000
0030
0000
2000
,
0000
0000
0000
0000
,
0000
0000
0000
0000
,
3000
0000
0000
0000
,
0000
0000
0002
0000
,
0103
0100
0100
0100
,
0100
0100
0100
0210
,
0310
0010
0010
0010
,
0010
0010
0010
0021
,
0031
0001
0001
0001
,
0001
0001
0001
1002
,
1003
1000
1000
1000
,
0110
0000
0000
0000
0000
0000
0000
0000
0000
0000
0000
1000
,
0000
0000
0001
0000
0000
1000
0100
0000
0000
0010
0000
0000
,
0001
0000
0000
0000
0000
0000
0000
0000
0000
0000
0000
0001
,
0000
0000
0001
0000
0000
0000
0010
0000
0000
0001
0000
0000
,
0100
0000
0000
0000
0000
0000
0000
0000
0000
0000
0000
1000
,
0000
0000
0010
0000
0000
0000
1000
0000
0000
0100
0000
0000
,
0102
0000
0000
0000
,
0103
0000
0000
0000
0000
0000
0000
0000
0000
0010
0000
0100
,
0000
0000
0100
0000
0000
0000
1000
0000
0000
0001
0000
0000
,
0010
0000
0000
0000
0000
0000
0000
0000
0000
0100
0000
0010
,
0000
0000
0010
0000
0000
0000
0100
0000
0000
1000
0000
0000
,
0002
0023
0230
1300
,
0000
0000
1000
0000
,
0002
0203
0320
2030
,
0000
3000
1000
0000
,
1001
0000
0000
0000
1000
0000
0010
0000
0100
0000
0000
0010
0000
0000
1000
0000
,
0001
0000
0000
0000
0001
0000
0001
0000
1000
0000
0000
0100
0000
0000
1000
0000
,
0010
0000
0000
0000
0010
0000
0100
0000
0010
0000
0000
1001
0000
0000
1000
0000
,
0100
0011
1100
0011
,
1001
1000
0000
0100
,
0000
1000
0100
0001
,
0100
1000
0000
1000
,
0000
0000
0010
0000
0000
0100
0000
0000
,
0001
0001
0000
0010
,
0000
0001
0010
0100
,
1000
0100
0000
0010
,
0000
1001
0200
0000
,
0310
0010
0000
0110
,
0000
0100
0010
0100
,
0001
1000
0000
1001
,
1000
0001
1000
0001
,
0010
0100
1000
0020
,
0000
0130
0000
0001
,
0101
0000
2000
3100
,
0000
0001
0000
0101
,
0000
0000
0000
0010
1000
0000
0000
0001
,
0100
0000
0000
0100
,
0001
0010
0001
0000
0010
0000
0100
0000
,
1000
0100
0010
0001
,
0100
0000
0000
0010
1000
0000
0000
0001
,
0100
0000
0000
0010
,
1001
1001
0000
0010
,
0000
1000
0100
0010
,
0000
0100
0000
1000
,
0001
0001
0001
1000
,
0010
0010
0100
0002
,
0003
0001
0100
0010
,
0000
0000
0000
0010
1000
0000
0000
0001
,
0100
0000
1010
1000
,
0020
0000
0130
0002
,
0000
0000
0023
0000
0000
0030
0100
0000
;
